#TITLE:Me vs Myself;
#SUBTITLE:(Deathmatch Mix);
#ARTIST:Radium;
#TITLETRANSLIT:;
#SUBTITLETRANSLIT:;
#ARTISTTRANSLIT:;
#CREDIT:owenviau1;
#BANNER:../owenviau1 Simfiles 5-bn.png;
#BACKGROUND:../owenviau1 Simfiles 5-bg.png;
#LYRICSPATH:;
#CDTITLE:../ov1_title.png;
#MUSIC:Radium - Me vs Myself (Deathmatch Mix).mp3;
#OFFSET:-0.265;
#SAMPLESTART:82.651;
#SAMPLELENGTH:29.999;
#SELECTABLE:YES;
#DISPLAYBPM:196.000;
#BPMS:0.000=196.000,860.000=206.000,884.000=216.000,900.000=196.000;
#STOPS:;
#BGCHANGES:;
// cache tags:
#FIRSTBEAT:12.000;
#LASTBEAT:911.000;
#SONGFILENAME:Songs/owenviau1 Simfiles 5/Me vs. Myself (Deathmatch Mix) - [owenviau1] v1.3/Me vs Myself.sm;
#HASMUSIC:1;
#HASBANNER:1;
#MUSICLENGTH:278.778;
// end cache tags

//---------------dance-single - ----------------
#NOTES:
     dance-single:
     :
     Hard:
     10:
     0.928,0.980,0.172,0.126,0.048,1715.000,48.000,35.000,17.000,3.000:

0000
0000
0000
0000
,
0000
0000
0000
0000
,
0000
0000
0000
0000
0000
0000
0000
0004
,
2000
0000
0000
0000
,
0000
0000
0000
0000
,
3403
0300
0040
0030
,
1000
0100
0010
0001
,
0010
0100
0001
0010
0100
1000
0001
0100
,
0001
1000
0001
0100
,
0010
0100
1000
0001
0100
0001
1000
0010
,
0100
0001
0010
0100
,
1000
0010
0100
0001
0010
0001
1000
0010
,
0200
0000
0300
0004
0000
0000
0003
2000
,
3001
1000
0010
0100
0001
0010
0100
1000
,
0001
0100
0010
1000
0100
0010
0001
0100
,
0001
1000
0100
1000
0001
0100
0010
1000
,
0100
0010
0001
0100
0001
1000
0010
MMMM
,
1000
0010
0100
0001
0010
0100
1000
0010
,
0100
0001
0010
0001
1000
0100
1000
0010
,
0100
0001
1000
0010
1000
0001
0010
0100
,
1000
0010
0100
0001
0010
0001
2000
3004
,
0103
0001
1000
0010
1000
0100
1000
0001
,
0010
0100
1000
0010
0100
0001
1000
0001
,
0010
0001
0100
0010
1000
0001
0010
0100
,
1000
0001
0100
0010
1000
0001
0100
0010
,
1000
0001
0100
0010
1000
0100
1000
0010
,
0100
0001
1000
0001
0010
0001
1000
0010
,
0100
0001
1000
0100
0010
0001
0100
0010
,
1000
0000
0000
0100
0000
0000
1000
0000
0000
0001
0000
0000
0100
0000
0000
0010
0000
0000
4000
0004
0000
0000
0000
0000
,
3103
0001
1000
0100
1000
0001
0010
0100
,
1000
0000
0010
0000
0100
0000
0001
0000
1000
0000
0100
0000
0010
0000
0001
0100
,
0001
1000
0010
0100
0001
0010
0100
1000
,
0010
1000
0001
0010
0001
1000
0010
0100
,
0001
0010
0100
1000
0010
0100
0001
0010
,
0001
0000
1000
0000
0010
0000
0100
0000
0001
0000
0010
0000
0100
0000
1000
0010
,
1000
0010
0100
0001
0010
0001
1000
0010
,
0100
0001
0010
0100
1000
0001
0100
0010
,
1001
0000
1000
0000
0001
0000
0010
0000
0001
0000
0100
0000
0010
0000
1000
0001
,
1000
0000
0010
0000
0100
0000
0001
0000
1000
0000
0100
0000
0010
0000
0001
1000
,
0001
0000
0100
0010
0100
0000
0001
1000
0001
0000
1000
0000
0010
0000
0001
0100
,
0001
1000
0001
0100
0010
1000
0001
0000
,
1001
0000
0000
0000
1000
0000
0000
0000
0001
0000
0000
0000
1000
0000
0000
0000
0100
0000
0000
0000
0010
0000
0000
0000
0004
4000
0000
0000
0000
0000
0000
0000
,
3103
0010
0100
0001
1000
0100
0020
0000
,
1030
0010
0100
0001
1000
0001
0010
0100
,
4000
0400
0000
0000
3322
0000
0000
0000
0000
0000
0000
0000
0000
0000
0000
0000
0133
0000
0000
0000
1000
0000
0000
0000
0001
0000
0000
0000
0400
0000
0000
0000
,
0310
0001
1000
0001
0100
0010
1000
0000
,
0001
0100
0010
1000
0001
0040
0000
0000
,
0031
1000
0010
1000
0001
0100
0001
1000
,
0010
2000
3200
0320
0032
2003
3002
0013
,
1001
0001
0010
0100
1000
0010
0100
0001
,
1000
0001
0010
0001
1000
0010
0100
0001
,
0010
0100
1000
0010
0100
0001
1000
0001
,
0010
0001
0100
0010
1000
0100
1000
0010
,
0100
0001
0010
0100
1000
0100
0010
0001
,
0100
0010
1000
0001
1000
0100
0010
0001
,
0100
0010
1000
0100
0010
0001
0100
0001
,
1000
0100
1000
0010
0100
0001
0010
0100
,
1001
0001
0100
0001
1000
0010
0100
0001
,
0010
0100
1000
0010
1000
0001
0010
0001
,
0100
0010
1000
0100
1000
0001
0010
0001
,
0100
0010
1000
0001
0010
0100
1000
0010
,
1000
0001
0010
0001
1000
0010
0100
0001
,
0010
0100
1000
0010
0100
0001
1000
0001
,
0010
0001
0100
0010
1000
0001
0010
0100
,
1000
0200
0320
2030
3002
0203
0320
0034
,
1103
0001
0100
0010
1000
0100
1000
0001
,
0100
0010
1000
0100
0010
0001
0100
0001
,
1000
0010
1000
0100
0010
0001
0100
0010
,
1000
0100
0010
0001
0100
0001
1000
0001
,
0010
0100
1000
0010
1000
0001
1000
0100
,
1000
0010
0100
0001
1000
0001
0010
0001
,
1000
0010
0100
0001
0010
0100
1000
0010
,
0100
0001
1000
0001
0010
0001
0100
0010
,
0110
1000
0010
0100
0001
1000
0100
0010
,
0001
0100
0010
0100
0001
1000
0010
0100
,
0010
1000
0001
0010
0100
1000
0010
1000
,
0001
0010
0001
1000
0010
0100
0001
1000
,
0001
0010
0100
1000
0010
1000
0001
0010
,
0100
1000
0010
0100
0001
1000
0010
0100
,
0001
0010
0100
1000
0010
0100
0001
1000
,
0001
0010
0001
0100
0010
1000
0001
1000
,
1010
0100
0010
0001
0101
0100
0110
0010
,
1010
1000
0100
0010
1001
0010
1000
0100
,
1100
1000
1001
0001
0101
0100
0110
0010
,
1010
1000
1100
0100
0110
0001
1000
0100
,
1100
1000
0010
0100
1010
0001
0101
0100
,
0110
0000
0000
0010
0000
0000
4000
0040
0000
0000
0000
0000
3130
0000
0000
0001
0000
0000
0010
0000
0000
0100
0000
0000
,
1001
0001
0101
0100
0110
0010
1010
1000
,
1100
0000
0000
0100
0000
0000
0110
0000
0000
0010
0000
0000
0002
0000
0000
0000
0000
0003
2000
0000
0000
0000
0000
3000
,
0010
0100
0001
1000
0010
0100
0000
0000
,
0010
0001
1000
0001
0010
0100
1000
0000
,
0001
0010
0100
1000
0001
1000
0000
0000
,
0001
0100
0010
1000
0001
0100
0010
1000
,
1001
0010
0100
0001
1000
0001
0010
0000
,
0100
1000
0001
0100
0010
1000
0400
0000
,
0310
0001
0100
0001
1000
0010
0100
0001
,
0000
0000
0000
0000
0000
0000
0000
0000
0000
0000
0000
0000
0000
0000
0000
0000
0000
0000
0000
0000
0000
0000
0000
0000
0000
0000
0000
0000
0000
0000
0000
0000
M000
0000
0000
0000
0000
0000
0000
0000
0000
0000
0000
0000
0000
0000
0000
0000
0000
0000
0000
0000
0000
0000
0000
0000
0000
0000
0000
0000
0000
0000
0000
0000
0000
0000
0000
0000
0000
0000
0000
0000
0000
0000
0000
0000
0000
0000
0000
0000
0M00
0000
0000
0000
0000
0000
0000
0000
0000
0000
0000
0000
0000
0000
0000
0000
00M0
0000
0000
0000
0000
0000
0000
0000
0000
0000
0000
0000
0000
0000
0000
0000
0000
0000
0000
0000
0000
0000
0000
0000
0000
0000
0000
0000
0000
0000
0000
0000
000M
0000
0000
0000
0000
0000
0000
0000
0000
0000
0000
0000
0000
0000
0000
0000
0000
0000
0000
0000
0000
0000
0000
0000
0000
0000
0000
0000
0000
0000
0000
0000
0000
0000
M000
0000
0000
0000
0000
0000
0000
0000
0000
0000
0000
0000
0000
0000
0000
0000
0000
0000
0000
0000
0000
0000
0000
0000
0000
0000
0000
0000
0000
0000
,
1001
1000
0010
0100
0001
1000
0100
0010
,
0001
0000
1000
0000
0100
0000
1000
0000
0010
0000
0100
0000
0001
0000
1000
0010
,
1000
0100
0010
0001
1000
0010
1000
0100
,
0010
1000
0001
0100
0010
1000
0100
0010
,
0001
0100
0001
1000
0010
0100
0001
1000
,
0010
0000
0100
0000
0001
0000
0010
0000
0001
0000
1000
0000
0010
0000
1000
0001
,
1000
0100
0010
0001
1000
0010
1000
0100
,
0010
0002
0103
0020
0430
2300
3001
0400
,
0310
0001
0100
0010
1000
0010
0100
0001
,
0100
0000
0010
0000
1000
0000
0100
0000
0010
0000
0001
0000
0100
0000
0001
1000
,
0001
0010
1000
0100
1000
0010
0100
0001
,
1000
0000
0001
0000
0100
0000
0010
0000
1000
0000
0100
0010
0001
0000
1000
0001
,
1000
0010
0100
0001
0010
0100
1000
0010
,
0100
0001
1000
0010
1000
0001
0010
0100
,
4000
0000
0000
0000
3001
0000
1000
0100
1000
0000
0010
0000
0100
0000
0001
0000
,
1000
0000
0000
0100
0000
0000
0040
0000
0000
0000
0000
0000
0031
0000
0000
1000
0000
0000
0100
0000
0010
0000
0001
0000
,
1000
0010
1000
0001
0100
0010
1000
0100
,
1000
0001
0100
0001
0010
1000
0100
0010
,
0001
0100
0010
1000
0001
0010
0001
1000
,
0001
0100
0010
1000
0100
0010
0001
1000
,
0010
0001
0100
0001
1000
0010
0100
0001
,
0010
0100
1000
0010
1000
0001
0100
0010
,
1000
0100
0010
0001
1000
0010
0100
0001
,
0010
0100
1000
0010
0100
0001
0010
0001
,
0100
0010
1000
0100
1000
0001
0100
0010
,
1000
0001
0100
0001
1000
0100
0010
0001
,
1000
0010
0100
0001
0010
0100
1000
0010
,
0100
0001
1000
0001
0010
0001
0100
0010
,
1000
0100
1000
0010
0100
0001
1000
0001
,
0010
0001
0100
0010
1000
0001
0010
0100
,
1000
0010
0100
0001
1000
0010
1000
0001
,
0010
0100
1000
0004
0000
0000
0003
0200
,
1301
0001
1000
0010
0100
0001
1000
0001
,
0010
0001
0100
0010
1000
0100
1000
0001
,
0100
0010
1000
0001
0100
0010
1000
0100
,
0010
0001
0100
0001
1000
0100
0010
MMMM
,
0100
1000
0001
0010
0001
0100
0010
1000
,
0100
0010
0001
0100
0010
1000
0001
0010
,
0001
1000
0001
0100
0010
1000
0100
0010
,
0001
1000
0010
1000
0001
0100
0010
0000
,
1001
0010
0100
1000
0010
0100
0001
1000
,
0001
0010
0001
1000
0010
0100
0001
0010
,
0100
1000
0010
1000
0001
0010
0100
1000
,
0010
0000
0100
0000
0001
0000
1000
0000
0001
0000
0010
0000
0100
0000
M0MM
0M00
,
1000
0001
0100
0010
1000
0001
2000
3020
,
0230
0302
1003
0010
0100
0001
1000
0010
,
1000
0001
0010
0100
1000
0010
0100
0001
,
1000
0001
0010
0001
0100
0010
1000
0001
,
0101
1000
0001
0100
0010
1000
0100
0010
,
0001
0010
0100
1000
0001
0100
0010
1000
,
0100
1000
0010
0100
0001
0100
0010
1000
,
0100
0010
0001
0100
0010
1000
0001
0010
,
0001
0100
0010
1000
0100
0010
0001
0100
,
0010
1000
0001
0010
0001
1000
0010
1000
,
0100
0010
0001
0100
0010
1000
0001
0010
,
0001
0000
1000
0000
0010
0000
1000
0000
0100
0000
0001
1000
0001
0000
0100
0000
,
0001
0100
0010
1000
0100
0010
0001
0100
,
0010
1000
0001
0010
0001
1000
0010
1000
,
0100
0010
0001
0100
0010
1000
0001
0100
,
0001
0000
0000
0000
0000
0000
0000
0000
0000
0000
0000
0000
0000
0000
0000
0000
0000
0000
0000
0000
0000
0000
0000
0000
1000
0000
0000
0000
0000
0000
0000
0000
0000
0000
0000
0000
0000
0000
0000
0000
0000
0000
0000
0000
0000
0000
0000
0000
0010
0000
0000
0000
0000
0000
0000
0000
0000
0000
0000
0000
0000
0000
0000
0000
0000
0000
0000
0000
0000
0000
0000
0000
0001
0000
0000
0000
0000
0000
0000
0000
0000
0000
0000
0000
0000
0000
0000
0000
0000
0000
0000
0000
0000
0000
0000
0000
0100
0000
0000
0000
0000
0000
0000
0000
0000
0000
0000
0000
0000
0000
0000
0000
0000
0000
0000
0000
0000
0000
0000
0000
0010
0000
0000
0000
0000
0000
0000
0000
0000
0000
0000
0000
0000
0000
0000
0000
0000
0000
0000
0000
0000
0000
0000
0000
2000
0000
0000
0000
0000
0000
0002
0000
0000
0000
0000
0000
0000
0000
0000
0000
0000
0000
0000
0000
0000
0000
0000
0000
0000
0000
0000
0000
0000
0000
0000
0000
0000
0000
0000
0000
0000
0000
0000
0000
3003
0000
0000
0000
0000
0000
0000
0000
,
0010
0100
1000
0001
0100
0010
1000
0100
,
1000
0001
1000
0010
0100
0001
0010
0001
,
1000
0010
1000
0100
0010
0001
0010
1000
,
0001
0000
0100
0000
0010
0000
1000
0000
0100
0000
0001
1000
0001
0000
0100
0001
,
0100
0001
1000
0010
1000
0001
0100
0001
,
0010
0100
1000
0010
0100
0001
0010
0100
,
1000
0010
1000
0001
0010
0001
1000
0010
,
0100
0001
0010
0100
1000
0010
0100
0001
,
1000
0010
0100
0001
0010
0100
1000
0010
,
0100
0001
0010
0001
1000
0010
0100
0001
,
0010
0100
1000
0010
0100
0001
1000
0001
,
0010
0001
0100
0010
1000
0001
0010
0100
,
2000
0000
0000
0000
3010
0100
0001
0010
,
0000
0100
1000
0001
0100
0010
1000
0001
,
0200
0310
1000
0100
0010
0001
1000
0010
,
0000
0100
0001
0010
0001
1000
0001
0100
,
0010
1000
0100
0010
0001
1000
0001
0100
,
0010
1000
0001
0010
0001
0100
0010
1000
,
0100
0010
0001
1000
0010
1000
0100
0010
,
0001
0100
0010
1000
0001
0010
0001
4000
,
3101
1000
0001
0100
0010
1000
0001
1000
,
0100
0010
0001
1000
0010
0100
0001
0010
,
0100
1000
0010
0100
0001
0100
0010
1000
,
0010
0100
0001
0010
0100
1000
0010
0100
,
0001
1000
0001
0010
0001
1000
0010
0100
,
0001
0010
0100
1000
0010
0100
0001
1000
,
0001
0010
0001
0100
0010
1000
0100
1000
,
0001
0010
0100
1000
0010
0100
0001
1000
,
0010
0100
0001
0010
0100
1000
0010
0001
,
0100
0001
1000
0100
1000
0010
0100
0001
,
0010
0001
1000
0010
0100
0001
0010
0100
,
1000
0010
0100
0001
1000
0001
0010
0001
,
1000
0010
0100
0001
0010
0100
1000
0100
,
0010
0001
0100
0001
1000
0100
1000
0010
,
0100
0001
1000
0100
0010
0001
0100
0010
,
1000
0001
0010
0100
1000
0001
0010
0100
,
1001
0010
0100
0001
0010
0100
1000
0010
,
0100
0001
0010
1000
0100
0001
0010
0001
,
1000
0100
0010
0001
0100
0001
1000
0010
,
1000
0001
0010
0100
1000
0010
0100
0001
,
0010
0001
1000
0010
0100
0001
0010
0100
,
1000
0010
1000
0001
0010
0001
0100
0010
,
1000
0100
0001
0100
1000
0001
0100
0010
,
1000
0100
0010
0001
0010
0100
1000
0010
,
0100
0001
0010
0001
1000
0010
0100
0001
,
1000
0001
0100
0010
1000
0100
1000
0010
,
0100
0001
1000
0001
0010
0001
1000
0010
,
0100
0001
0010
0001
1000
0010
0100
0001
,
0010
0100
1000
0010
1000
0001
0010
0001
,
1000
0010
0100
0001
0010
0100
1000
0010
,
0100
0001
1000
0001
0010
0001
0100
0010
,
1000
0000
0100
0000
0010
0000
0001
0000
1000
0000
0001
1000
0001
0000
2000
0000
,
3101
0001
1000
0001
0010
0100
1000
0001
,
0100
0010
1000
0100
0010
0001
1000
0010
,
0100
0001
1000
0001
0010
0001
0100
0010
,
1000
0100
1000
0010
0100
0001
1000
0010
,
0100
0001
0010
0100
1000
0010
0100
0001
,
1000
0001
0010
0001
0100
0010
1000
0100
,
1000
0001
1000
0010
0100
0001
0010
0100
,
1000
0010
0100
0001
1000
0001
0010
0001
,
1000
0010
0100
0001
0010
0100
1000
0010
,
0100
0001
1000
0001
0010
0001
1000
0010
,
0100
0001
0010
0100
1000
0010
0100
0001
,
1000
0001
0010
0001
1000
0010
0100
0001
,
0010
0100
1000
0010
1000
0001
0010
0100
,
1000
0010
0100
0001
0010
0100
1000
0010
,
0100
0001
1000
0001
0010
0001
1000
0010
,
0100
0001
0010
0100
1000
0001
0100
0010
,
1000
0001
0100
0010
1000
0100
0010
0001
,
1000
0000
0010
0000
1000
0001
1000
0001
0100
0000
0010
0000
1000
0000
0200
0000
,
0000
0000
0000
0300
;

//---------------dance-single - ----------------
#NOTES:
     dance-single:
     :
     Challenge:
     13:
     1.000,1.000,1.000,0.039,0.133,1783.000,858.000,11.000,32.000,3.000:

0000
0000
0000
0000
,
0000
0000
0000
0000
,
0000
0000
0000
0000
0000
0000
0000
0004
,
2000
0000
0000
0000
,
0000
0000
0000
0000
,
3403
0300
0040
0030
,
1001
0110
1100
0011
,
1010
0100
0011
1000
0011
0100
1010
0100
,
1001
0110
1100
1001
,
0110
1000
0011
0100
1010
0001
1100
0010
,
1001
1100
0110
0011
,
1001
0100
0011
1000
0110
0001
1100
0010
,
0202
0000
0303
4000
0000
0000
3000
0040
,
1130
0001
0110
1000
1001
0010
1100
0010
,
0110
0001
0011
1000
0101
0010
0110
1000
,
1010
0001
1001
0100
0110
0001
1100
0001
,
0011
1000
0110
0100
1001
0001
0110
MMMM
,
1010
0001
0110
0001
1100
0010
1001
0010
,
0101
0010
0011
1000
0110
0001
1100
0010
,
1001
0100
0110
0001
1010
0100
0101
1000
,
0110
0000
0000
1000
0000
0000
1001
0000
0000
0010
0000
0000
0101
0000
0000
1000
0000
0000
0010
0100
0001
1000
0010
0100
,
1001
0010
0110
0001
1100
0001
0011
1000
,
0101
0010
0110
1000
1010
0001
0110
1000
,
1001
0010
0110
1000
1001
0010
0101
0100
,
1010
0001
0110
1000
0011
0100
1010
0001
,
0110
1000
1001
0010
1100
0001
0110
0001
,
0011
1000
0101
1000
0110
0001
1010
0100
,
1001
0100
0110
0001
1100
0001
0011
0100
,
0110
0000
0000
1000
0000
0000
1001
0000
0000
0010
0000
0000
0101
0000
0000
0010
0000
0000
1000
0100
0010
0001
0010
0100
,
1001
1000
0110
0100
1001
0100
1010
0001
,
1100
0000
0010
0000
1001
0000
1000
0000
0110
0000
0100
0000
0011
0000
1000
0001
,
0110
0001
1100
0100
0011
1000
0110
0100
,
1001
0010
1100
0001
1010
0100
1001
0010
,
1100
0001
0110
1000
0011
1000
0110
0100
,
1001
0000
0010
0000
1010
0000
0001
0000
0101
0000
0100
0000
1010
0000
0001
1000
,
0110
1000
0011
0100
1100
0010
1001
0100
,
0110
1000
0101
0010
1100
0100
0011
0110
,
1001
0000
0000
0100
0000
0000
0110
0000
0000
0001
0000
0000
1100
0000
0000
0001
0000
0000
1010
0000
0000
0001
0010
0100
,
1001
0000
0000
1000
0000
0000
0110
0000
0000
0001
0000
0000
1100
0000
0000
0001
0000
0000
0011
0000
0000
0100
1000
0001
,
0110
0000
0000
1000
0001
0010
1100
0000
0000
0001
0100
0010
1001
0000
0000
0010
0000
0000
1100
0000
0000
0001
0010
0100
,
1001
0110
1100
0011
1001
0100
0110
1000
,
0101
0000
0000
1000
0000
0000
0110
0000
0000
0001
0000
0000
1010
0000
0000
0100
0000
0000
0004
4000
0000
0000
0000
0000
,
3113
1000
0101
1000
0110
0010
2002
0000
,
3113
0010
1001
0100
1100
0001
0110
0001
,
4000
0400
0000
3322
0000
0000
0000
0000
0000
0000
0000
0000
1133
0000
0000
0100
0000
0000
1001
0000
0000
0010
0000
0000
,
1001
1000
0110
0001
1100
0100
0011
0000
,
1001
0110
1001
1010
0101
4040
0000
3030
,
0110
1000
1001
0100
0011
1000
0110
0001
,
1001
0000
0010
0100
0001
1000
0100
0010
0001
0100
0010
1000
0001
0000
0010
0000
,
1001
1000
0101
0001
0110
0001
1010
0001
,
1100
0100
0011
0010
1001
1000
0110
1000
,
0011
0010
1100
0001
0101
0010
1001
0010
,
0110
0001
1010
0001
0110
1000
0101
1000
,
0011
1000
0110
0001
1100
0001
0110
1000
,
0011
0100
0110
0001
1001
1000
0110
0010
,
1001
0010
1100
0001
1010
0001
0110
1000
,
0101
1000
0011
0100
1100
0001
0110
0100
,
1001
0010
0110
1000
0011
0100
1100
0001
,
0011
1000
0101
0001
1010
0010
0101
1000
,
0011
0100
0110
0001
1100
0001
0110
0100
,
1001
0001
1010
0001
0110
1000
0101
1000
,
0011
1000
0110
0001
1100
0010
1001
0100
,
0110
1000
0011
0010
0101
1000
1001
0010
,
0110
1000
0011
0001
1100
0001
0110
0010
,
1001
0000
0001
1000
0010
0100
0001
0010
0100
1000
0100
0010
0001
0000
1000
0000
,
0101
0001
0110
0001
1010
0001
1100
0100
,
0011
0010
1001
1000
0110
1000
0011
0010
,
1100
0001
0101
0010
1001
0010
0110
0001
,
1010
0001
0110
1000
0101
1000
0011
1000
,
0110
0001
1100
0001
0110
1000
0011
0100
,
0110
0001
1001
1000
0110
0010
1001
0010
,
1100
0001
1010
0001
0110
1000
0101
1000
,
0011
0100
1100
0001
0110
0100
1001
0010
,
0110
1000
0011
0100
1100
0001
0011
1000
,
0101
0001
1010
0010
0101
1000
0011
0100
,
0110
0001
1100
0001
0110
0100
1001
0001
,
1010
0001
0110
1000
0101
1000
0011
1000
,
0110
0001
1100
0010
1001
0100
0110
1000
,
0011
0010
0101
1000
1001
0010
0110
1000
,
0011
0001
1100
0001
0110
0001
1010
0100
,
1001
0110
1100
0101
1000
0110
1001
1010
,
0110
0001
1010
0001
0110
1000
0101
1000
,
0011
1000
0110
0001
1100
0001
0110
1000
,
0011
0100
0110
0001
1001
1000
0110
0010
,
1001
0010
1100
0001
1010
0001
0110
1000
,
0101
1000
0011
0100
1100
0001
0110
0100
,
1001
0000
0000
0010
0000
0000
1000
0100
0010
0001
0010
0100
1000
0000
0000
0010
0000
0000
0101
0000
0000
1000
0000
0000
,
0110
0001
1001
0010
0101
0010
1001
1000
,
0110
0100
1001
0100
1010
0001
0101
1000
,
0110
0001
1010
0100
0101
1000
0000
0000
,
0101
0010
1001
0100
0110
1000
0011
0001
,
1100
0001
0110
0010
1001
0100
0000
0001
,
0110
1000
0110
0001
1010
0100
1001
0100
,
1010
0001
0110
1000
0101
0010
0110
1000
,
1001
0100
0011
0100
1001
1000
0440
0000
,
1331
0001
0110
1000
0011
0100
1001
0010
,
MMMM
MMMM
MMMM
MMMM
MMMM
MMMM
MMMM
0000
,
1001
0010
0110
1000
1001
0100
1010
0001
,
1100
0000
0010
0000
1001
0000
1000
0000
0110
0000
0100
0000
0011
0000
1000
0001
,
0110
0001
1100
0100
0011
1000
0110
0100
,
1001
0010
1100
0001
1010
0100
1001
0010
,
1100
0001
0110
1000
0011
1000
0110
0100
,
1001
0000
0010
0000
1010
0000
0001
0000
0101
0000
0100
0000
1010
0000
0001
1000
,
0110
1000
0011
0100
1100
0010
1001
0100
,
0110
1000
0101
0010
1100
0100
0011
0110
,
1001
0100
0110
0001
1100
0001
1010
0100
,
0011
0000
0100
0000
1001
0000
0010
0000
0101
0000
0100
0000
1010
0000
0001
1000
,
0110
1000
0011
0100
1100
0010
1001
0100
,
0110
0000
1000
0000
0101
0000
0010
0000
1001
0000
1000
0100
0010
0000
0001
0100
,
1001
0000
0000
1000
0000
0000
0110
0000
0000
0001
0000
0000
1100
0000
0000
0001
0000
0000
1010
0000
0000
0001
0010
0100
,
1001
1000
0110
0001
1100
0001
0011
0100
,
4004
0000
0000
0000
3113
0000
1000
0001
1010
0000
0100
0000
0011
0000
0100
0000
,
1001
0000
0000
0010
0000
0000
1000
0100
0010
0001
1000
0010
1001
0000
0000
0100
0000
0000
1000
0000
0100
0000
0010
0000
,
1001
0010
0101
1000
0011
1000
0110
0100
,
1001
0010
1100
0001
1010
0100
1001
0010
,
1100
0001
0110
1000
0011
1000
0110
0100
,
1001
0010
1010
0001
0101
0010
1001
0100
,
0011
1000
0110
0100
1001
0010
1100
0001
,
1010
0100
1001
0010
1100
0001
0110
1000
,
0011
1000
0110
0100
1001
0010
1010
0001
,
0101
0100
1010
0001
0110
1000
1001
0010
,
0101
0001
0110
1000
1010
0001
0110
1000
,
0101
0010
1001
0100
0110
0001
1100
0001
,
0011
1000
0110
1000
0011
1000
1100
0001
,
0110
0001
1001
0010
0110
1000
1010
0001
,
0101
1000
0011
1000
1100
0001
1010
0100
,
0011
1000
0101
1000
0110
0001
1001
0100
,
1010
0100
0011
1000
0101
0010
1001
0010
,
1100
0001
1001
0040
0000
0030
0000
0040
,
1031
0100
0110
1000
1001
0010
1100
0010
,
0110
0001
0011
1000
0101
0010
0110
1000
,
1010
0001
1001
0100
0110
0001
1100
0001
,
0011
1000
0110
0100
1001
0001
0110
0000
,
1010
0001
0110
0001
1100
0010
1001
0010
,
0101
0010
0011
1000
0110
0001
1100
0010
,
1001
0100
0110
0001
1010
0100
0101
1000
,
0110
1000
1001
0010
0101
1000
1001
0010
,
1001
0100
0110
1000
1001
0010
1100
0010
,
0110
0001
0011
1000
0101
0010
0110
1000
,
1010
0001
1001
0100
0110
0001
1100
0001
,
0011
1000
0110
0100
1001
0001
0110
0000
,
1010
0001
0110
0001
1100
0010
1001
0010
,
0101
0010
0011
1000
0110
0001
1100
0010
,
1001
0100
0110
0001
1010
0100
0101
1000
,
0110
1000
1001
0010
0101
1000
1001
0100
,
1010
0001
0110
1000
1001
0010
1100
0010
,
0110
0001
0011
1000
0101
0010
0110
1000
,
1010
0001
1001
0100
0110
0001
1100
0001
,
0011
1000
0110
0100
1001
0010
0110
0001
,
1010
0001
0110
0001
1100
0010
1001
0010
,
0101
0010
0011
1000
0110
0001
1100
0010
,
1001
0100
0110
0001
1010
0100
0101
1000
,
0110
1000
1001
0010
0101
1000
1001
0010
,
1001
0100
0110
1000
1001
0010
1100
0010
,
0110
0001
0011
1000
0101
0010
0110
1000
,
1010
0001
1001
0100
0110
0001
1100
0001
,
0011
1000
0110
0100
1001
0001
0440
0000
,
1331
0001
0110
0001
1100
0010
1001
0010
,
0101
0010
0011
1000
0110
0001
1100
0010
,
1001
0100
0110
0001
1010
0100
0101
1000
,
0110
0000
1000
0000
1001
0000
0010
0000
0101
0000
1000
0010
0100
0000
0001
1000
,
0110
0000
0000
1000
0000
0000
0101
0000
0000
0010
0000
0000
1100
0000
0000
0001
0000
0000
1010
0000
0000
0001
0010
0100
,
1001
0000
0000
1000
0000
0000
0110
0000
0000
0001
0000
0000
1100
0000
0000
0001
0000
0000
0011
0000
0000
0100
1000
0001
,
0110
0000
0000
1000
0001
0010
1100
0000
0000
0001
0100
0010
1001
0000
0000
0010
0000
0000
1100
0000
0000
0001
0010
0100
,
1001
0010
1100
0010
1001
0100
0110
1000
,
0101
1000
0110
0001
1010
0100
0011
1000
,
0110
0001
1001
0010
1100
0001
0011
0100
,
0101
1000
0110
1000
1001
0010
1100
0010
,
0101
1000
0110
0001
1010
0100
0101
0010
,
2002
0000
0000
0000
0000
0000
0000
0000
3103
0010
0001
1000
0010
0000
1000
0000
,
0101
0000
1000
0010
0100
0001
0010
0000
1001
0000
0010
0000
0101
0000
0010
0000
,
1001
0000
1000
0000
0110
0000
0001
0000
0100
0010
0001
1000
0010
0000
1000
0000
,
0101
0000
1000
0010
0100
0001
0010
0000
1001
0000
0010
0000
0101
0000
0010
0000
,
1001
0100
1010
0100
1001
1000
0110
0001
,
0101
0000
0100
0000
1001
0000
0001
0000
0110
0000
1000
0000
0101
0000
1000
0001
,
0110
0001
1100
0100
0011
1000
0110
0100
,
1001
0010
1100
0001
1010
0100
1001
0040
,
1130
0001
0110
1000
1001
0010
1100
0010
,
0110
0001
0011
1000
0101
0010
0110
1000
,
1010
0001
1001
0100
0110
0001
1100
0001
,
0011
1000
0110
0100
1001
0010
0110
0001
,
1010
0001
0110
0001
1100
0010
1001
0010
,
0101
0010
0011
1000
0110
0001
1100
0010
,
1001
0100
0110
0001
1010
0100
0101
1000
,
0110
0001
1001
0100
1001
0010
0110
1000
,
1001
0010
1100
0010
0110
0001
0011
1000
,
0101
0010
0110
1000
1010
0001
1001
0100
,
0110
0001
1100
0001
0011
1000
0110
0100
,
1001
0010
0110
0001
1010
0001
0110
0001
,
1100
0010
1001
0010
0101
0010
0011
1000
,
0110
0001
1100
0010
1001
0100
0110
0001
,
1010
0100
0101
1000
0110
1000
1001
0010
,
0101
0101
1100
1100
0110
0110
0101
0010
,
1100
0001
0110
1000
1001
0010
1100
0010
,
0110
0001
0011
1000
0101
0010
0110
1000
,
1010
0001
1001
0100
0110
0001
1100
0001
,
0011
1000
0110
0100
1001
0010
0110
0001
,
1010
0001
0110
0001
1100
0010
1001
0010
,
0101
0010
0011
1000
0110
0001
1100
0010
,
1001
0100
0110
0001
1010
0100
0101
1000
,
0110
0000
0001
0000
1001
0000
0100
0000
1001
0000
0010
0000
1000
0001
0100
0010
,
1001
0010
1100
0010
0110
0001
0011
1000
,
0101
0010
0110
1000
1010
0001
1001
0100
,
0110
0001
1100
0001
0011
1000
0110
0100
,
1001
0010
0110
0001
1010
0001
0110
0001
,
1100
0010
1001
0010
0101
0010
0011
1000
,
0110
0001
1100
0010
1001
0100
0110
0001
,
1010
0100
0101
1000
0110
1000
1001
0010
,
1001
0000
0100
0000
1010
0000
0001
0000
0110
0000
0001
1000
0010
0000
0100
0000
,
1001
0010
0101
0100
1001
0010
1100
0010
,
0110
0001
0011
1000
0101
0010
0110
1000
,
1010
0001
1001
0100
0110
0001
1100
0001
,
0011
1000
0110
0100
1001
0010
0110
0001
,
1010
0001
0110
0001
1100
0010
1001
0010
,
0101
0010
0011
1000
0110
0001
1100
0010
,
1001
0100
0110
0001
1010
0100
0101
1000
,
0110
0001
1001
0100
1001
0010
0110
1000
,
1001
0010
1100
0010
0110
0001
0011
1000
,
0101
0010
0110
1000
1010
0001
1001
0100
,
0110
0001
1100
0001
0011
1000
0110
0100
,
1001
0010
0110
0001
1010
0001
0110
0001
,
1100
0010
1001
0010
0101
0010
0011
1000
,
0110
0001
1100
0010
1001
0100
0110
0001
,
1010
0100
0101
1000
0110
1000
1001
0010
,
1100
0001
1010
0100
0101
1000
0410
0000
,
1301
0110
1100
0110
0011
0100
1001
0010
,
0101
0000
0010
0000
1000
0100
0010
0001
0110
0000
1000
0000
0101
0000
0220
0000
,
0000
0000
0000
0330
;
