#TITLE:MAX 317.838;
#SUBTITLE:[ache again mix];
#ARTIST:Omega with Aya;
#TITLETRANSLIT:;
#SUBTITLETRANSLIT:;
#ARTISTTRANSLIT:;
#CREDIT:;
#BANNER:max317.png;
#BACKGROUND:max317-bg.png;
#LYRICSPATH:;
#CDTITLE:;
#MUSIC:max317.mp3;
#OFFSET:-0.050;
#SAMPLESTART:75.550;
#SAMPLELENGTH:12.000;
#SELECTABLE:YES;
#BPMS:0.000=158.920,129.500=150.000,129.750=125.000,130.000=100.000,130.250=75.000,130.500=50.000,130.750=25.000,131.000=317.840,323.000=158.920,348.000=317.840,481.000=13.300,485.000=158.920,533.500=150.001,533.750=125.000,534.000=100.000,534.250=75.000,534.500=50.000,534.750=25.000,535.000=317.840,841.000=635.675;
#STOPS:131.000=0.850
,193.000=0.100
,194.500=0.100
,339.000=0.260
,339.250=0.260
,339.500=0.260
,339.750=0.260
,348.000=0.080
,348.500=0.080
,349.000=0.080
,349.500=0.080
,351.000=0.080
,351.500=0.160
,352.000=0.080
,535.000=1.300
,701.000=0.080
,702.000=0.080
,708.000=0.080
,709.000=0.080
,715.000=0.080
,716.000=0.080
;
#BGCHANGES:;
// cache tags:
#FIRSTBEAT:32.000;
#LASTBEAT:921.000;
#SONGFILENAME:Songs/Beyond Legends/Max314/max317.sm;
#HASMUSIC:1;
#HASBANNER:1;
#MUSICLENGTH:231.038;
// end cache tags

//---------------dance-single - ----------------
#NOTES:
     dance-single:
     :
     Hard:
     10:
     0.854,1.000,0.381,0.255,0.084,1234.000,88.000,59.000,0.000,0.000:  // measure 1
0000
0000
0000
0000
,  // measure 2
0000
0000
0000
0000
,  // measure 3
0000
0000
0000
0000
,  // measure 4
0000
0000
0000
0000
,  // measure 5
0000
0000
0000
0000
,  // measure 6
0000
0000
0000
0000
,  // measure 7
0000
0000
0000
0000
,  // measure 8
0000
0000
0000
0000
,  // measure 9
2000
0001
0000
0100
,  // measure 10
0000
0000
0001
0000
0100
0100
3100
0100
,  // measure 11
0200
0010
0000
0001
,  // measure 12
0000
0000
1000
0000
0010
0010
0310
0010
,  // measure 13
0020
0100
0000
0001
,  // measure 14
0000
0000
1000
0000
0001
0001
0031
0001
,  // measure 15
0002
0010
1000
0100
,  // measure 16
1000
0000
0010
0000
1000
1000
1003
0000
,  // measure 17
1000
0100
1000
0000
0001
0100
0001
0000
,  // measure 18
1000
0100
1000
0001
0100
0001
1000
0000
,  // measure 19
0001
0010
0001
0000
1000
0010
1000
0000
,  // measure 20
0001
0010
0001
1000
0010
1000
0001
0000
,  // measure 21
1000
0010
0100
0000
0001
0010
0100
0000
,  // measure 22
1000
0100
0010
0000
0001
0100
0010
0000
,  // measure 23
1000
0010
0001
0010
1000
0010
0001
0000
,  // measure 24
1000
0100
0001
0100
1000
0100
0001
0000
,  // measure 25
1000
0010
0100
0010
1000
0100
0010
0100
,  // measure 26
1000
0010
0100
0010
1000
0100
0010
0000
,  // measure 27
0001
0010
0100
0010
0001
0100
0010
0100
,  // measure 28
0001
0010
0100
0010
0001
0100
0010
0000
,  // measure 29
1000
0000
0100
0000
0010
0001
0000
0001
0010
0000
0100
0000
1000
0010
0000
0010
,  // measure 30
1000
0000
0100
0000
0010
0001
0000
0001
0010
0000
0100
0000
0100
0000
0000
0000
,  // measure 31
1000
0000
0001
0100
0001
0100
0001
0100
0001
0000
1000
0100
1000
0100
1000
0100
,  // measure 32
1000
0000
0000
0000
0000
0001
0000
0000
0000
0000
0000
0000
1000
0000
0000
0000
0001
0000
0000
0000
0000
1000
0000
0000
0000
0000
0000
0000
0001
0000
0000
0000
0100
0000
0000
0000
0000
0000
0000
0000
0000
0000
0000
0000
0000
0000
0000
0000
2002
0000
0000
0000
0000
0000
0000
0000
0000
0000
0000
0000
0000
0000
0000
0000
,  // measure 33
0000
0000
0000
0000
0000
0000
0000
0000
0000
0000
0000
3003
0000
0000
0000
0000
,  // measure 34
1000
0100
0010
0001
,  // measure 35
0010
0100
1000
0100
,  // measure 36
0010
0000
0001
0000
0100
0001
0100
0000
,  // measure 37
1001
0101
1010
1001
,  // measure 38
0010
1000
0010
1000
0010
1000
0010
1000
,  // measure 39
0001
0100
0001
0100
0001
0100
0001
0100
,  // measure 40
0010
1000
0100
0010
0001
0100
0010
0100
,  // measure 41
0001
0010
0100
1000
0010
0100
0001
0100
,  // measure 42
0010
0000
1000
0200
0000
0010
0300
0010
,  // measure 43
0001
0000
0100
0020
0000
1000
0030
1000
,  // measure 44
0100
0000
0001
0200
0000
1000
0300
1000
,  // measure 45
1001
1100
1001
0101
,  // measure 46
1000
0010
0100
0001
,  // measure 47
0100
0010
0100
0001
,  // measure 48
1000
0001
0100
0000
0110
0000
0110
0000
,  // measure 49
1000
0001
1000
0001
1000
0001
1000
0000
,  // measure 50
0100
0000
0010
0001
0100
0010
0100
0000
,  // measure 51
0001
0000
0010
0100
1000
0100
0010
0000
,  // measure 52
0001
0100
0010
1000
,  // measure 53
0100
0001
0100
1000
0100
0000
0110
0000
,  // measure 54
0001
1000
0100
1001
,  // measure 55
0100
0000
0010
0000
1000
0000
0100
1000
,  // measure 56
0100
0010
0001
0100
,  // measure 57
0020
0100
0130
1000
,  // measure 58
0100
0010
0001
1000
,  // measure 59
0100
0000
0010
0000
0001
0000
0001
0100
,  // measure 60
0010
1000
0010
0000
1000
0000
0001
0100
,  // measure 61
0010
1000
0010
0000
1000
0000
1000
0000
,  // measure 62
0001
0100
0001
0100
0001
0100
0001
0000
,  // measure 63
1000
0100
1000
0100
1000
0100
1000
0000
,  // measure 64
0001
0010
0001
0000
1000
0100
1000
0000
,  // measure 65
0001
1000
0001
0000
0110
0000
0010
1000
,  // measure 66
0010
0000
0100
0001
0100
0000
0010
1000
,  // measure 67
0010
0000
0100
0001
0100
0000
0010
1000
,  // measure 68
0100
0000
0010
0001
0100
0000
0010
1000
,  // measure 69
0100
0000
0010
0001
0100
0000
0010
1000
,  // measure 70
0100
0000
0100
0010
0001
0000
0001
0010
,  // measure 71
0100
0000
0100
1000
0001
0000
0001
0100
,  // measure 72
0010
0000
0010
0100
1000
0000
1000
0100
,  // measure 73
0001
0000
0001
0100
0010
0000
0010
1000
,  // measure 74
0100
0010
0001
0100
0010
0100
0001
0010
,  // measure 75
0100
1000
0100
0010
0001
0000
1000
0100
,  // measure 76
0001
0100
0010
0100
1000
0010
0100
0010
,  // measure 77
1000
0010
0100
0001
0100
0000
0001
0100
,  // measure 78
0010
0100
0001
0010
0001
1000
0001
0100
,  // measure 79
0001
0010
0100
1000
0100
0000
0001
0100
,  // measure 80
1000
0100
0010
0001
0100
0010
0100
0010
,  // measure 81
1000
0100
0010
0100
0001
0000
0002
0203
,  // measure 82
2300
3200
0320
0032
0203
0320
2030
3020
,  // measure 83
0230
0302
0203
0302
0203
0320
2030
3200
,  // measure 84
0302
0203
0320
2030
3200
0320
0032
0023
,  // measure 85
0230
0000
2300
0000
3200
0000
0001
0000
0301
0000
0000
0000
1001
1100
1001
0101
,  // measure 86
1001
0110
1001
0000
,  // measure 87
0010
1000
0100
0010
0001
0010
0100
0000
,  // measure 88
1000
1000
1000
1000
0000
0001
1000
0001
,  // measure 89
1000
0100
0010
0001
0010
0100
1000
0100
,  // measure 90
0010
0001
0100
0010
1000
0010
0100
0001
,  // measure 91
0100
0000
0010
1000
0010
0100
0010
1000
,  // measure 92
0010
0100
0001
0100
0010
0100
0001
0100
,  // measure 93
1000
0000
1100
0000
1001
0000
0100
0010
,  // measure 94
0000
0010
0100
0000
0101
0000
0001
0010
,  // measure 95
0000
0010
0100
0000
1100
0000
1000
0001
,  // measure 96
0000
0001
1000
0000
1001
0000
0110
0000
,  // measure 97
0000
1100
1001
0101
,  // measure 98
1001
1010
1001
0011
,  // measure 99
1001
0101
0110
1100
,  // measure 100
0110
1010
0110
0011
,  // measure 101
0110
0000
1000
0010
0100
0001
0100
0000
,  // measure 102
0010
0000
1000
0100
0001
0100
1000
0000
,  // measure 103
0010
0000
0100
0001
0010
0001
0100
0000
,  // measure 104
0010
0000
0001
0100
0010
0100
1000
0000
,  // measure 105
0100
0000
0110
0000
0101
0000
0100
0010
,  // measure 106
0000
0010
2000
0000
3100
0000
0100
0010
,  // measure 107
0000
0010
0002
0000
0103
0000
0100
1000
,  // measure 108
0000
1000
0200
0000
0001
0000
0301
0000
,  // measure 109
0000
1010
1010
1100
,  // measure 110
1100
0000
0001
1000
0001
0100
0001
1000
,  // measure 111
0010
1000
0000
0000
0001
0000
0010
1000
,  // measure 112
0010
0100
0000
0000
0010
0100
0001
0100
,  // measure 113
0010
0000
1001
0000
0110
0000
0001
1000
,  // measure 114
0001
0000
0110
0000
1001
0000
0010
0100
,  // measure 115
0010
0000
1010
0000
1010
0000
1000
0010
,  // measure 116
1000
0000
0101
0000
0101
0000
0001
0100
,  // measure 117
0001
0000
1000
0100
0010
0001
0100
0000
,  // measure 118
0010
0000
1000
0100
0010
0001
0100
0000
,  // measure 119
0010
0000
0100
0010
0100
0000
0001
1000
,  // measure 120
0001
0000
1000
0001
1000
0000
1001
0000
,  // measure 121
0000
0000
0000
0000
0000
0000
0000
0000
0000
0000
0000
0000
0000
0000
0000
0000
2000
0000
0000
0000
0100
0010
0000
0000
0001
0000
3200
0000
0000
0000
0000
0000
0320
0000
0000
0000
0001
2000
0000
0000
0030
0000
0000
0000
0100
0000
0000
0000
3002
0000
0000
0000
0000
0000
0000
0000
0000
0000
0203
0000
0000
0000
0000
0000
,  // measure 122
0000
0000
0000
0000
0010
0301
0000
0000
0010
0000
0000
0000
0000
0000
0000
0000
0200
0000
0000
0000
0000
0000
0000
0000
0000
0000
0000
0000
0000
0000
0000
0000
1000
0000
0000
0000
0000
0000
0000
0000
0000
0000
0000
0000
0000
0000
0000
0000
1000
0000
0000
0000
0000
0000
0000
0000
0000
0000
0000
0000
0000
0000
0000
0000
,  // measure 123
1000
0000
1000
0000
1000
0000
1300
1000
,  // measure 124
1000
0100
0020
0000
0100
0000
0100
0000
,  // measure 125
0100
0000
0100
0000
0100
0000
0130
0100
,  // measure 126
0100
0010
0002
0000
0100
0000
0100
0000
,  // measure 127
0100
0000
0100
0000
0100
0000
0103
0100
,  // measure 128
0100
0010
2000
0000
0001
0000
0100
0000
,  // measure 129
0001
0100
0001
3100
,  // measure 130
0010
0100
0010
0001
1000
0001
0100
0001
,  // measure 131
1000
0100
1000
0010
0100
0001
0100
0010
,  // measure 132
0010
0000
1100
0101
1100
0000
0110
1001
,  // measure 133
0110
0000
0000
0000
0000
0000
0000
0000
0000
0000
0000
0000
0000
0000
0000
0000
1000
0000
0000
0000
0000
0001
0000
0000
0000
0000
0000
0000
1000
0000
0000
0000
0001
0000
0000
0000
0000
1000
0000
0000
0000
0000
0000
0000
0001
0000
0000
0000
0100
0000
0000
0000
0000
0000
0000
0000
0000
0000
0000
0000
0000
0000
0000
0000
,  // measure 134
2002
0000
0000
3003
,  // measure 135
1000
0000
0010
0000
0100
0001
0100
0001
,  // measure 136
0100
0000
0010
0000
1000
0100
1000
0100
,  // measure 137
1000
0000
0001
0000
0100
0010
0100
0010
,  // measure 138
0100
0110
1001
0000
,  // measure 139
0001
0000
1000
0000
0010
0100
0010
0000
,  // measure 140
1000
0000
0001
0000
0100
0010
0100
0000
,  // measure 141
0001
0000
0010
0000
1000
0010
0100
0000
,  // measure 142
0001
0101
0101
0000
,  // measure 143
1000
0000
0010
0100
0001
0100
0010
1000
,  // measure 144
0010
0000
0100
0001
0100
0010
1000
0100
,  // measure 145
0010
0000
0001
0010
0100
0010
0001
0010
,  // measure 146
0100
1100
0101
0000
,  // measure 147
1001
0000
1000
0100
1000
0100
1000
0100
,  // measure 148
1000
0000
0001
0100
0001
0100
0001
0100
,  // measure 149
0001
1000
0001
0000
0100
0010
0100
0000
,  // measure 150
0010
1000
0100
0010
0001
0100
0010
0100
,  // measure 151
0001
0010
0100
1000
0100
0010
0001
0100
,  // measure 152
0010
1000
0100
0010
0100
0010
0001
0100
,  // measure 153
0010
1000
0100
0010
0001
0100
0010
1000
,  // measure 154
0020
1000
1030
0000
,  // measure 155
1000
0010
0100
0001
0100
0010
1000
0100
,  // measure 156
0010
0001
0010
0100
0010
0001
0100
0010
,  // measure 157
1000
0100
0010
0001
0100
0010
1000
0100
,  // measure 158
0010
0011
1100
0000
,  // measure 159
1000
0010
1000
0010
0100
0001
0100
0001
,  // measure 160
0010
0001
0010
0001
1000
0100
1000
0100
,  // measure 161
0010
0001
0100
0010
1000
0100
0010
0001
,  // measure 162
0010
0110
0110
0000
,  // measure 163
0001
0000
1000
0010
0100
0001
0100
0010
,  // measure 164
1000
0000
0100
0010
0001
0010
0100
1000
,  // measure 165
0100
0001
0100
0000
1000
0010
1000
0000
,  // measure 166
0010
0100
0001
0010
0100
1000
0100
0010
,  // measure 167
0001
0000
1000
0100
1000
0000
0001
0100
,  // measure 168
0001
1000
0001
0010
0001
1000
0010
0100
,  // measure 169
0001
0000
0001
0100
0001
0100
0001
0000
,  // measure 170
1000
0100
1000
0100
1000
0000
0010
0001
,  // measure 171
0100
0010
0100
0010
1000
0100
1000
0100
,  // measure 172
0010
0000
0001
0010
0001
0010
0100
0000
,  // measure 173
0100
1000
0100
0000
0010
0000
0001
0100
,  // measure 174
0010
1000
0100
0010
0001
0010
0000
0000
,  // measure 175
1000
0100
1000
0100
1000
0000
0001
0100
,  // measure 176
0001
0100
0001
1000
0001
1000
0001
1000
,  // measure 177
0001
1000
0001
0000
0100
0010
0100
0010
,  // measure 178
0100
0001
1000
0001
0100
0010
1000
0010
,  // measure 179
0100
0000
0001
0100
0010
1000
0010
1000
,  // measure 180
0010
0100
0001
0100
0010
1000
0010
0000
,  // measure 181
0001
0100
0010
1000
0100
0000
0010
0100
,  // measure 182
0010
0100
0010
0001
0010
0001
0010
0000
,  // measure 183
1000
0100
1000
0100
1000
0000
0001
0100
,  // measure 184
0001
0100
0001
0000
1000
0010
1000
0010
,  // measure 185
1000
0000
0010
0100
0010
0100
0010
0000
,  // measure 186
0100
0001
0100
0001
0100
0000
0001
1000
,  // measure 187
0001
1000
0001
0000
1000
0010
0100
0001
,  // measure 188
0100
0000
0010
1000
0100
0010
0001
0000
,  // measure 189
0001
0010
0100
1000
0010
0100
0001
0100
,  // measure 190
0010
1000
0100
0000
0010
0001
0000
0001
,  // measure 191
0010
0000
0100
0000
0110
0000
0000
1001
,  // measure 192
0000
0000
0001
0000
0100
0010
0000
0010
,  // measure 193
1000
0000
0001
0000
1001
0000
0000
0110
,  // measure 194
0000
0000
1000
0000
0001
1000
0000
1000
,  // measure 195
0001
0000
0100
0000
0010
0100
0000
0100
,  // measure 196
0010
0000
1000
0000
0010
0100
0000
0100
,  // measure 197
0001
0000
0010
0000
0011
0000
0000
1100
,  // measure 198
0000
0000
1001
0000
1000
0100
0010
0001
,  // measure 199
0010
0100
1000
0000
0001
0100
0010
1000
,  // measure 200
0010
0100
0001
0000
1000
0010
0100
0001
,  // measure 201
0100
0010
1000
0000
0001
0010
0100
1000
,  // measure 202
0100
0010
0001
0000
1000
0001
0000
0001
,  // measure 203
1000
0000
0010
0000
0100
0010
0000
0010
,  // measure 204
0100
0000
0000
0001
0000
0001
0000
0001
0000
0000
0000
0000
,  // measure 205
0000
0000
0000
1000
0000
1000
0000
1000
0000
0000
0000
0000
,  // measure 206
0000
0000
0000
0010
0000
0010
0000
0010
0000
0100
0000
0100
,  // measure 207
0000
0100
0000
2002
0000
0000
0000
0000
0000
0000
0000
0000
,  // measure 208
0000
0000
0000
0000
,  // measure 209
3003
0000
0000
0000
,  // measure 210
0000
0000
0000
0000
,  // measure 211
0000
0000
0000
0000
,  // measure 212
0000
0000
0000
0000
,  // measure 213
0000
1000
0100
0010
,  // measure 214
0001
0010
0100
0010
,  // measure 215
0001
0100
0010
1000
,  // measure 216
0010
0100
0010
1000
,  // measure 217
0100
0010
0001
0010
,  // measure 218
0100
1000
0100
0010
,  // measure 219
0001
0100
0010
1000
,  // measure 220
0010
0100
0001
1000
,  // measure 221
0001
1000
0100
1000
,  // measure 222
0000
0001
0100
0001
,  // measure 223
0000
1000
0010
1000
,  // measure 224
0000
0001
0010
0001
,  // measure 225
0000
0101
0000
0000
,  // measure 226
1100
0000
0000
0110
,  // measure 227
0000
2002
0000
0000
,  // measure 228
0000
0000
0000
0000
,  // measure 229
0000
0000
0000
0000
,  // measure 230
0000
0000
0000
0000
,  // measure 231
0000
3003
0000
0000
;
