#TITLE:Debtty Daddy;
#SUBTITLE:;
#ARTIST:Sampling Master AYA;
#TITLETRANSLIT:;
#SUBTITLETRANSLIT:;
#ARTISTTRANSLIT:;
#CREDIT:;
#BANNER:debtty daddy.banner.jpg;
#BACKGROUND:debtty daddy.bg.jpg;
#LYRICSPATH:;
#CDTITLE:CDTITLE.jpg;
#MUSIC:Debtty Daddy.mp3;
#OFFSET:0.000;
#SAMPLESTART:100.000;
#SAMPLELENGTH:12.000;
#SELECTABLE:YES;
#BPMS:0.000=155.000;
#STOPS:;
#BGCHANGES:;
// cache tags:
#FIRSTBEAT:17.000;
#LASTBEAT:318.000;
#SONGFILENAME:Songs/Definitive Keyboard Megapack/Debtty Daddy(Leone510)/Debtty Daddy.sm;
#HASMUSIC:1;
#HASBANNER:1;
#MUSICLENGTH:135.862;
// end cache tags

//---------------dance-single - ----------------
#NOTES:
     dance-single:
     :
     Hard:
     12:
     1.000,1.000,1.000,1.000,0.964,772.000,263.000,143.000,0.000,102.000:
0000
0000
0000
0000
,
0000
0000
0000
0000
,
0000
0000
0000
0000
,
0000
0000
0000
0000
,
0000
0000
0000
0000
0010
0000
0100
0001
0100
1000
0100
0001
0010
0100
1000
0001
,
1000
0001
0100
0000
0001
0000
0100
1000
0010
0001
0010
0100
1000
0100
0010
0001
,
1000
0001
0010
0000
0010
0000
0100
0001
0100
1000
0100
0001
0010
0100
1000
0001
,
1000
0001
0100
0000
0001
0000
0100
1000
0010
0001
0010
0100
1000
0100
0010
0001
,
1000
0001
0010
0000
1100
0000
0000
1001
0000
0000
0011
0000
0000
0000
1100
0000
,
1001
0000
0101
0000
0110
0000
0000
1100
0000
0000
0110
0000
0000
0000
0200
0000
,
1302
0000
1103
0000
0101
0000
0000
1100
0000
0000
1001
0000
0000
0000
1001
0000
,
0011
0000
0110
0000
1100
0000
0000
0011
0000
0000
1010
0000
0000
0000
0200
0000
,
1302
0000
0023
0000
1130
0000
0000
1001
0000
0000
0011
0000
0000
0000
1100
0000
,
1001
0000
0101
0000
0110
0000
0000
1100
0000
0000
0110
0000
0000
0000
0200
0000
,
1302
0000
1103
0000
0101
0000
0000
1100
0000
0000
1001
0000
0000
0000
1001
0000
,
0011
0000
0110
0000
1100
0000
0000
0011
0000
0000
1010
0000
0000
0000
0200
0000
,
1302
0000
0023
0000
1130
0000
0100
0001
0100
1000
0100
0001
0010
0100
1000
0001
,
1000
0001
0100
0000
0001
0000
0100
1000
0010
0001
0010
0100
1000
0100
0010
0001
,
1000
0001
0010
0000
0010
0000
0100
0001
0100
1000
0100
0001
0010
0100
1000
0001
,
1000
0001
0100
0000
0001
0000
0100
1000
0010
0001
0010
0100
1000
0100
0010
0001
,
1000
0001
0010
0000
0101
0000
0101
0010
1001
0000
0010
0100
1001
0100
0001
0100
,
1000
0010
0101
0000
1010
0000
0101
0010
1001
0000
0100
0010
1100
0010
0100
1000
,
0001
0010
1100
0000
0101
0000
0101
0010
1001
0000
0010
0100
1001
0100
0001
0100
,
1000
0010
0101
0000
1010
0000
0101
0010
1001
0000
0100
0010
1100
0010
0100
1000
,
0001
0010
1100
0000
0200
0000
0020
0001
2300
0000
0032
0010
3200
1000
0023
1000
,
0301
0100
1031
0000
0002
0000
2000
0100
0023
0000
3002
0100
2030
0100
0023
0100
,
3001
1000
0131
0000
2000
0000
0002
0010
3200
1000
0323
0100
2030
0100
0002
0010
,
3200
1313
0100
0101
0010
1100
0101
1001
,
1001
0000
0110
0000
0200
0000
1310
0000
0200
0000
0311
0000
1100
0000
0010
0101
,
0000
1000
0011
0000
0002
0000
1013
0000
0200
0000
1310
0000
0101
0000
0001
1100
,
0000
0001
1010
0000
0200
0000
1310
0000
0200
0000
0311
0000
1100
0000
0010
0101
,
0000
1000
0011
0000
1010
0001
1000
0010
0101
0010
1000
0010
1001
0010
0001
1000
,
0011
0100
2000
0000
0002
0000
3000
0100
0013
0000
1000
0000
0000
0001
0000
0100
,
0001
0000
0100
0000
2000
0000
0000
0010
3001
0000
0100
0000
1000
0000
0001
0000
,
0100
0000
1000
0000
0010
0000
0100
0001
0100
1000
0100
0001
0010
0100
1000
0001
,
1000
0001
0100
0000
0001
0000
0100
1000
0010
0001
0010
0100
1000
0100
0010
0001
,
1000
0001
0010
0000
0002
0000
0000
0100
0013
0000
1000
0000
0000
0001
0000
0100
,
0001
0000
0100
0000
2000
0000
0000
0010
3001
0000
0100
0000
1000
0000
0001
0000
,
0100
0000
1000
0000
0010
0000
0100
0001
0100
1000
0100
0001
0010
0100
1000
0001
,
1000
0001
0100
0000
0001
0000
0100
1000
0010
0001
0010
0100
1000
0100
0010
0001
,
1000
0001
0010
0000
1100
0000
0101
0000
1010
0000
0110
0000
0101
1000
0100
0000
,
0101
0000
1010
0000
0101
0010
0001
0010
1100
0000
0101
0000
0110
1000
0001
0000
,
1100
0000
1001
0000
0101
0000
0011
0000
1010
0100
0001
0000
1100
0000
0011
1000
,
0101
1000
0010
0100
1000
0001
0010
0100
1000
0100
0010
1000
0001
0010
0101
1000
,
0101
0010
0100
0001
2000
0000
3020
0000
2030
0000
3002
0000
1100
0000
2023
0000
,
0000
3030
0200
0302
0023
0230
1010
2302
,
0000
3003
2000
3020
2030
3002
1100
2023
,
0000
0000
3031
0010
0100
1000
0101
0010
0001
0010
0100
0001
1010
0100
2002
0000
,
0000
3003
0101
0100
1010
0100
0011
0100
,
1010
0001
0110
1000
0101
1000
0101
0100
,
1010
0100
0011
0100
1010
0001
0110
1000
,
0101
0000
1000
0010
0001
0010
0100
1000
0100
0001
1000
0001
0100
0000
1001
0000
,
0101
0010
1001
0000
0101
0100
2000
0000
3020
0100
0030
0101
0000
0202
2303
0000
,
3200
1302
0000
1100
0003
0110
0002
0000
1203
0020
0300
1100
0030
0202
2303
0000
,
3200
0000
0000
0000
0000
0000
0000
0000
0000
0000
0000
0000
1302
0000
0000
0000
0000
0000
0000
0000
0000
0000
0000
0000
0000
0000
0000
0000
0000
0000
0000
0000
0000
0000
0000
0000
1100
0000
0000
0000
0000
0000
0000
0000
0000
0000
0000
0000
0003
0000
0000
0000
0000
0000
0000
0000
0000
0000
0000
0000
0110
0000
0000
0000
0000
0000
0000
0000
0000
0000
0000
0000
0002
0000
0000
0000
0000
0000
0000
0000
0000
0000
0000
0000
0000
0000
0000
0000
0000
0000
0000
0000
0000
0000
0000
0000
1203
0000
0000
0000
0000
0000
0000
0000
0000
0000
0000
0000
0020
0000
0000
0000
0000
0000
0000
0000
0000
0000
0000
0000
0300
0000
0000
0000
0000
0000
0000
0000
0000
0000
0000
0000
1100
0030
0000
0000
0000
0000
0000
0000
0000
0000
0000
0000
0000
0000
0000
0000
0000
0000
0000
0000
0000
0000
0000
0000
0202
0000
0000
0000
0000
0000
0000
0000
0000
0000
0000
0000
2303
0000
0000
0000
0000
0000
0000
0000
0000
0000
0000
0000
0000
0000
0000
0000
0000
0000
0000
0000
0000
0000
0000
0000
,
3200
0000
0000
0000
0000
0000
0000
0000
0000
0000
0000
0000
1302
0000
0000
0000
0000
0000
0000
0000
0000
0000
0000
0000
0000
0000
0000
0000
0000
0000
0000
0000
0000
0000
0000
0000
1100
0000
0000
0000
0000
0000
0000
0000
0000
0000
0000
0000
0003
0000
0000
0000
0000
0000
0000
0000
0000
0000
0000
0000
0110
0000
0000
0000
0000
0000
0000
0000
0000
0000
0000
0000
0002
0000
0000
0000
0000
0000
0000
0000
0000
0000
0000
0000
0000
0000
0000
0000
0000
0000
0000
0000
0000
0000
0000
0000
1203
0000
0000
0000
0000
0000
0000
0000
0000
0000
0000
0000
0020
0000
0000
0000
0000
0000
0000
0000
0000
0000
0000
0000
0300
0000
0000
0000
0000
0000
0000
0000
0000
0000
0000
0000
1100
0030
0000
0000
0000
0000
0000
0000
0000
0000
0000
0000
0000
0000
0000
0000
0000
0000
0000
0000
0000
0000
0000
0000
0202
0000
0000
0000
0000
0000
0000
0000
0000
0000
0000
0000
2303
0000
0000
0000
0000
0000
0000
0000
0000
0000
0000
0000
0000
0000
0000
0000
0000
0000
0000
0000
0000
0000
0000
0000
,
3200
0000
0000
0000
0000
0000
0000
0000
0000
0000
0000
0000
1302
0000
0000
0000
0000
0000
0000
0000
0000
0000
0000
0000
0000
0000
0000
0000
0000
0000
0000
0000
0000
0000
0000
0000
1100
0000
0000
0000
0000
0000
0000
0000
0000
0000
0000
0000
0003
0000
0000
0000
0000
0000
0000
0000
0000
0000
0000
0000
0110
0000
0000
0000
0000
0000
0000
0000
0000
0000
0000
0000
0002
0000
0000
0000
0000
0000
0000
0000
0000
0000
0000
0000
0000
0000
0000
0000
0000
0000
0000
0000
0000
0000
0000
0000
1203
0000
0000
0000
0000
0000
0000
0000
0000
0000
0000
0000
0020
0000
0000
0000
0000
0000
0000
0000
0000
0000
0000
0000
0300
0000
0000
0000
0000
0000
0000
0000
0000
0000
0000
0000
1100
0030
0000
0000
0000
0000
0000
0000
0000
0000
0000
0000
0000
0000
0000
0000
0000
0000
0000
0000
0000
0000
0000
0000
0202
0000
0000
0000
0000
0000
0000
0000
0000
0000
0000
0000
2303
0000
0000
0000
0000
0000
0000
0000
0000
0000
0000
0000
0000
0000
0000
0000
0000
0000
0000
0000
0000
0000
0000
0000
,
3200
0000
0000
0000
0000
0000
0000
0000
0000
0000
0000
0000
1302
0000
0000
0000
0000
0000
0000
0000
0000
0000
0000
0000
0000
0000
0000
0000
0000
0000
0000
0000
0000
0000
0000
0000
1100
0000
0000
0000
0000
0000
0000
0000
0000
0000
0000
0000
0003
0000
0000
0000
0000
0000
0000
0000
0000
0000
0000
0000
0110
0000
0000
0000
0000
0000
0000
0000
0000
0000
0000
0000
0002
0000
0000
0000
0000
0000
0000
0000
0000
0000
0000
0000
0000
0000
0000
0000
0000
0000
0000
0000
0000
0000
0000
0000
1203
0000
0000
0000
0000
0000
0000
0000
0000
0000
0000
0000
0020
0000
0000
0000
0000
0000
0000
0000
0000
0000
0000
0000
0300
0000
0000
0000
0000
0000
0000
0000
0000
0000
0000
0000
1100
0030
0000
0000
0000
0000
0000
0000
0000
0000
0000
0000
0000
0000
0000
0000
0000
0000
0000
0000
0000
0000
0000
0000
0202
0000
0000
0000
0000
0000
0000
0000
0000
0000
0000
0000
2303
0000
0000
0000
0000
0000
0000
0000
0000
0000
0000
0000
0000
0000
0000
0000
0000
0000
0000
0000
0000
0000
0000
0000
,
3200
0000
0000
0000
0000
0000
0000
0000
0000
0000
0000
0000
1302
0000
0000
0000
0000
0000
0000
0000
0000
0000
0000
0000
0000
0000
0000
0000
0000
0000
0000
0000
0000
0000
0000
0000
1100
0000
0000
0000
0000
0000
0000
0000
0000
0000
0000
0000
0003
0000
0000
0000
0000
0000
0000
0000
0000
0000
0000
0000
0110
0000
0000
0000
0000
0000
0000
0000
0000
0000
0000
0000
0002
0000
0000
0000
0000
0000
0000
0000
0000
0000
0000
0000
0000
0000
0000
0000
0000
0000
0000
0000
0000
0000
0000
0000
1203
0000
0000
0000
0000
0000
0000
0000
0000
0000
0000
0000
0020
0000
0000
0000
0000
0000
0000
0000
0000
0000
0000
0000
0300
0000
0000
0000
0000
0000
0000
0000
0000
0000
0000
0000
1100
0030
0000
0000
0000
0000
0000
0000
0000
0000
0000
0000
0000
0000
0000
0000
0000
0000
0000
0000
0000
0000
0000
0000
0202
0000
0000
0000
0000
0000
0000
0000
0000
0000
0000
0000
2303
0000
0000
0000
0000
0000
0000
0000
0000
0000
0000
0000
0000
0000
0000
0000
0000
0000
0000
0000
0000
0000
0000
0000
,
3200
0000
0000
0000
0000
0000
0000
0000
0000
0000
0000
0000
1302
0000
0000
0000
0000
0000
0000
0000
0000
0000
0000
0000
0000
0000
0000
0000
0000
0000
0000
0000
0000
0000
0000
0000
1100
0000
0000
0000
0000
0000
0000
0000
0000
0000
0000
0000
0003
0000
0000
0000
0000
0000
0000
0000
0000
0000
0000
0000
0110
0000
0000
0000
0000
0000
0000
0000
0000
0000
0000
0000
0002
0000
0000
0000
0000
0000
0000
0000
0000
0000
0000
0000
0000
0000
0000
0000
0000
0000
0000
0000
0000
0000
0000
0000
1203
0000
0000
0000
0000
0000
0000
0000
0000
0000
0000
0000
0020
0000
0000
0000
0000
0000
0000
0000
0000
0000
0000
0000
0300
0000
0000
0000
0000
0000
0000
0000
0000
0000
0000
0000
1100
0030
0000
0000
0000
0000
0000
0000
0000
0000
0000
0000
0000
0000
0000
0000
0000
0000
0000
0000
0000
0000
0000
0000
0202
0000
0000
0000
0000
0000
0000
0000
0000
0000
0000
0000
2303
0000
0000
0000
0000
0000
0000
0000
0000
0000
0000
0000
0000
0000
0000
0000
0000
0000
0000
0000
0000
0000
0000
0000
,
3200
1302
0000
0000
1013
0000
0100
0010
0001
0010
0100
0001
1010
0100
0010
0001
,
0010
0100
1000
0010
0101
0010
1000
0100
0001
0010
0100
1000
0110
0001
0100
1000
,
0100
0010
0001
0100
2000
0000
0002
0010
3200
1000
0323
0100
2030
0100
0002
0010
,
3200
1313
0100
0101
0010
1100
0101
1001
,
1001
0000
0110
0000
0200
0000
1310
0000
0200
0000
0311
0000
1100
0000
0010
0101
,
0000
1000
0011
0000
0002
0000
1013
0000
0200
0000
1310
0000
0101
0000
0001
1100
,
0000
0001
1010
0000
0200
0000
1310
0000
0200
0000
0311
0000
1100
0000
0010
0101
,
0000
1000
0011
0000
1010
0001
1000
0010
0101
0010
1000
0010
1001
0010
0001
1000
,
0011
0100
2000
0000
0021
0000
3131
0010
0100
0000
1000
0000
0101
0000
1001
0000
,
0011
0000
0100
0000
0000
0000
0110
0000
0000
0000
0101
0000
0100
1000
0001
0000
,
1100
0000
0101
0000
0100
0000
0101
1100
0000
0000
1100
0000
0100
0000
0101
0000
,
0010
0000
0101
0000
0000
0000
0110
0000
0010
0000
1000
0000
0001
0100
1000
0100
,
0002
0000
0003
0000
0100
0000
0110
0011
0000
0000
1001
0000
0001
0000
0110
0000
,
1000
0000
0110
0000
0000
0000
0110
0000
0001
0000
0010
0000
1000
0010
0001
0010
,
1000
0001
1100
0101
0110
1010
1100
0101
,
1001
0000
0011
0000
0101
0010
0100
0000
1100
0000
0101
0000
0201
0000
0310
0001
,
2000
3011
0110
0101
0110
1010
1100
1001
,
0101
0000
0011
0000
1100
0001
1010
0001
1100
0010
0101
0010
1001
0010
1100
0001
,
0110
0001
1010
0001
0220
0000
0000
0000
0000
0000
0000
0000
0000
0000
0000
0000
,
0000
0000
0330
0000
;

//---------------dance-single - ----------------
#NOTES:
     dance-single:
     :
     Medium:
     9:
     0.603,0.673,0.390,0.125,0.044,503.000,53.000,17.000,0.000,2.000:
0000
0000
0000
0000
,
0000
0000
0000
0000
,
0000
0000
0000
0000
,
0000
0000
0000
0000
,
0000
0000
0010
0001
0100
1000
0001
0100
,
0101
0000
0100
1000
0010
0100
0001
0010
,
1100
0000
0010
0001
0100
1000
0001
0100
,
0101
0000
0100
1000
0010
0100
0001
0010
,
1100
0000
0000
0000
0100
0000
0000
0100
0000
0000
0001
0000
0000
0000
0100
0000
,
1000
0000
0001
0000
0100
0000
0000
1000
0000
0000
0001
0000
0000
0000
0100
0000
,
0010
0000
0001
0000
0100
0000
0000
0100
0000
0000
0001
0000
0000
0000
0100
0000
,
1000
0000
0001
0000
0100
0000
0000
1000
0000
0000
0001
0000
0000
0000
0100
0000
,
0010
0000
0001
0000
0100
0000
0000
0100
0000
0000
0001
0000
0000
0000
0100
0000
,
1000
0000
0001
0000
0100
0000
0000
1000
0000
0000
0001
0000
0000
0000
0100
0000
,
0010
0000
0001
0000
0100
0000
0000
0100
0000
0000
0001
0000
0000
0000
0100
0000
,
1000
0000
0001
0000
0100
0000
0000
1000
0000
0000
0001
0000
0000
0000
0100
0000
,
0010
0001
0100
1000
0000
0001
1000
0000
,
1000
0001
0100
1000
0000
0001
1000
0000
,
0010
0001
0100
1000
0000
0001
1000
0000
,
1000
0001
0100
1000
0000
0001
1000
0000
,
0010
0001
0101
1000
0001
0100
1000
0001
,
0100
0001
1100
1000
0001
0100
0001
0010
,
0100
1000
0101
1000
0001
0100
1000
0001
,
0100
0001
1100
1000
0001
0100
0001
0010
,
0100
1000
0020
0000
0230
0000
0302
1000
,
2003
0000
3002
0000
0203
0000
0320
0001
,
0230
1302
0203
0302
,
1203
0302
0000
0203
0000
0310
1010
0100
,
1001
0000
0100
0001
0100
1000
0100
0001
,
0100
1000
0001
0100
1000
0010
0001
1000
,
0010
1000
0100
0001
0100
1000
0100
0001
,
0100
1000
0001
0100
1000
0010
0001
1000
,
0010
1000
0100
0000
0100
0000
0010
0000
,
0001
1000
0001
1000
,
1001
0000
0100
0010
0001
0100
0010
0001
,
0100
0000
0010
0100
1000
0010
0100
1000
,
0010
0100
0100
0010
,
0001
1000
0001
1000
,
1001
0000
0100
0010
0001
0100
0010
0001
,
0100
0000
0010
0100
1000
0010
0100
1000
,
0010
0000
0100
0100
0001
0001
1000
1000
,
0001
0001
1000
1000
0010
0010
0100
0100
,
0001
0001
1000
1000
0100
0100
0010
0010
,
0100
1000
0100
0010
0001
0010
0100
1000
,
0200
0301
1100
0001
,
0110
1000
0101
0100
,
1001
0001
1100
0001
,
0110
1000
0101
0100
,
1001
0000
0100
0010
0001
0100
0010
0100
,
1000
0001
0100
0010
0001
0100
0010
0100
,
1000
0001
0100
0010
0001
0100
0010
0100
,
1000
0001
1100
0001
1010
0100
1001
0100
,
0011
0100
1000
0000
0100
0000
0010
0000
1100
0000
0001
0000
1000
0000
0010
0000
,
0101
0010
0100
1000
0011
1000
0100
0010
,
1100
0001
1000
0010
0101
0010
0100
1000
,
0011
1000
0100
0010
1100
0001
1000
0010
,
0101
0010
0100
1000
0011
1000
0100
0010
,
1100
0001
1000
0010
0101
0010
0100
1000
,
0011
1000
0100
0010
1100
0001
1000
0010
,
0101
0010
0100
1000
0011
1000
0100
0010
,
1100
0001
1000
0010
0001
0010
0100
1000
,
0001
1000
0010
0001
1000
0010
0001
0010
,
0100
1000
0001
1000
0010
0001
1000
0010
,
0001
0010
0100
1000
0001
1000
0010
0001
,
1000
0010
0100
0001
0100
1000
0100
0001
,
0100
1000
0001
0100
1000
0010
0001
1000
,
0010
1000
0100
0001
0100
1000
0100
0001
,
0100
1000
0001
0000
1010
0000
0001
0000
,
0110
0000
0000
0000
0100
0000
0000
0100
0000
0000
0100
0000
1000
0000
0001
0000
,
0100
0101
0000
0100
0000
0100
0010
0100
,
1000
0000
0001
0000
0100
0000
0000
0100
0000
0000
0100
0000
1000
0000
0001
0000
,
0100
0101
0000
0100
0001
0100
0010
0001
,
1000
0000
0000
0000
0100
0000
0000
0100
0000
0000
0100
0000
1000
0000
0001
0000
,
0100
0101
0000
0100
0001
0100
0010
0100
,
1000
0001
0100
0100
1000
0001
0010
0010
,
1000
1000
0001
0100
0001
0100
0010
0000
,
1010
0000
0100
0100
0001
0010
0100
0100
,
1000
0001
1100
0010
0101
0010
1100
0001
,
1010
0100
0220
0000
0000
0000
0000
0000
,
0000
0000
0330
0000
;
