#TITLE:owenviau1's OP 2;
#SUBTITLE:;
#ARTIST:テクノ;
#TITLETRANSLIT:;
#SUBTITLETRANSLIT:;
#ARTISTTRANSLIT:Techno;
#CREDIT:owenviau1;
#BANNER:BN.PNG;
#BACKGROUND:BG.PNG;
#LYRICSPATH:;
#CDTITLE:ov1_title.png;
#MUSIC:owenviau1's OP 2.mp3;
#OFFSET:1.260;
#SAMPLESTART:92.000;
#SAMPLELENGTH:29.999;
#SELECTABLE:YES;
#BPMS:0.000=167.480;
#STOPS:;
#BGCHANGES:;
// cache tags:
#FIRSTBEAT:4.000;
#LASTBEAT:740.000;
#SONGFILENAME:Songs/Owenviau1 Simfiles 4/owenviau1's OP 2 - Techno [owenviau1]/owenviau1's OP 2.sm;
#HASMUSIC:1;
#HASBANNER:1;
#MUSICLENGTH:265.299;
// end cache tags

//---------------dance-single - ----------------
#NOTES:
     dance-single:
     :
     Challenge:
     13:
     1.000,1.000,0.513,0.000,1.000,2590.000,136.000,0.000,0.000,0.000:

0000
0000
0000
0000
,
1010
1001
0110
0001
0010
1001
0100
0010
,
1100
0001
1000
0011
0100
1000
0110
0001
,
1100
0110
1001
0100
0001
0110
1000
0001
,
1100
0010
0100
0011
1000
0001
0110
0100
,
1001
1010
0110
1000
0001
1100
1000
0100
,
0011
1000
0001
0110
0010
0100
1001
1000
,
0110
1001
1010
0100
0010
1100
0001
1000
,
0110
1000
0100
0011
1000
0010
1100
0001
,
1001
0100
0010
0001
1000
0010
1000
0001
0100
0001
1000
0100
0010
0001
1000
0001
,
0010
0100
1000
0010
1000
0001
0100
0001
0010
0100
1000
0100
0010
0001
1000
0001
,
0100
0010
1000
0100
0010
0001
0100
0001
1000
0010
1000
0100
0010
0001
0100
0001
,
0010
0100
1000
0001
1000
0100
0010
0001
0100
0001
1000
0100
1000
0010
0100
0001
,
0010
0100
1000
0010
0100
0001
1000
0100
1000
0010
0100
0001
0010
0001
1000
0100
,
0010
0001
1000
0001
0100
0010
1000
0010
0100
0001
0100
0010
1000
0100
0010
0001
,
1000
0010
1000
0001
0100
0001
0010
0100
1000
0100
0010
0001
1000
0010
1000
0100
,
0010
0000
0000
0001
0000
0000
0100
0000
0000
0001
0000
0000
0010
0000
0000
0100
0000
0000
1000
0000
0000
0100
0000
0000
0010
0000
0000
0001
0000
0000
0010
0000
0000
0100
0000
0000
1000
0000
0100
0000
0010
0000
0001
0000
1000
0000
0010
0000
,
1001
0100
0010
0001
1000
0010
1000
0001
0100
0001
1000
0100
0010
0001
1000
0001
,
0010
0100
1000
0010
1000
0001
0100
0001
0010
0100
1000
0100
0010
0001
1000
0001
,
0100
0010
1000
0100
0010
0001
0100
0001
1000
0010
1000
0100
0010
0001
0100
0001
,
0010
0100
1000
0001
1000
0100
0010
0001
0100
0001
1000
0100
1000
0010
0100
0001
,
0010
0100
1000
0010
0100
0001
1000
0100
1000
0010
0100
0001
0010
0001
1000
0100
,
0010
0001
1000
0001
0100
0010
1000
0010
0100
0001
0100
0010
1000
0100
0010
0001
,
1000
0010
1000
0001
0100
0001
0010
0100
1000
0100
0010
0001
1000
0010
1000
0100
,
0010
0001
0100
0001
0010
0100
1000
0100
0010
0001
0010
0100
1000
0010
0100
0001
,
1010
0100
0010
0001
1000
0010
1000
0001
0100
0001
1000
0100
0010
0001
1000
0001
,
0010
0100
1000
0010
1000
0001
0100
0001
0010
0100
1000
0100
0010
0001
1000
0001
,
0100
0010
1000
0100
0010
0001
0100
0001
1000
0010
1000
0100
0010
0001
0100
0001
,
0010
0100
1000
0001
1000
0100
0010
0001
0100
0001
1000
0100
1000
0010
0100
0001
,
0010
0100
1000
0010
0100
0001
1000
0100
1000
0010
0100
0001
0010
0001
1000
0100
,
0010
0001
1000
0001
0100
0010
1000
0010
0100
0001
0100
0010
1000
0100
0010
0001
,
1000
0010
1000
0001
0100
0001
0010
0100
1000
0100
0010
0001
1000
0010
1000
0100
,
0010
0001
0100
0001
0010
0100
1000
0010
1000
0100
0010
0001
1000
0001
0100
0010
,
1001
0100
0010
0001
1000
0001
0010
0100
,
1000
0001
0100
0010
1000
0100
0010
0001
,
0100
0010
0100
0001
1000
0100
0010
0001
,
1000
0010
1000
0001
0100
0001
0010
0100
,
1000
0100
0010
0001
1000
0100
1000
0010
,
0100
0001
0010
0001
0100
0010
1000
0001
,
0100
0010
1000
0100
0010
0001
1000
0100
,
0010
0001
1000
0010
1000
0001
0100
0010
,
1001
0100
0001
1010
0100
0010
1001
0100
,
0001
0110
1000
0010
1001
0100
0110
0001
,
1010
0100
0010
1001
0100
0010
0101
1000
,
0001
0110
1000
0010
1001
0100
0011
1000
,
0110
0001
0010
1100
0001
0100
1001
0010
,
1000
0110
0001
1000
0011
1000
0110
0001
,
1001
0010
0100
1010
0001
0100
1001
0010
,
0100
0011
0100
1000
0011
0100
1010
0010
,
1001
0001
0010
0110
0100
1000
1001
0001
,
0100
0110
0010
1000
1100
0100
0110
0010
,
0011
0001
0010
1100
0100
0001
0101
0001
,
0010
0110
0001
1000
1010
0010
0110
0010
,
0011
0010
1000
0011
0001
1000
1100
0100
,
0010
0011
0001
1000
1010
0010
0110
0010
,
1010
0100
0001
0011
0010
0100
1001
0001
,
0100
1010
0010
0100
0011
0100
0110
0100
,
1001
0100
0010
0001
1000
0010
1000
0001
0100
0001
1000
0100
0010
0100
1000
0001
,
0100
0010
0100
0001
1000
0100
0010
0001
0100
0001
1000
0010
1000
0100
0010
0001
,
0100
0001
1000
0010
0100
0001
1000
0100
1000
0001
0100
0001
0100
0010
1000
0100
,
0010
0001
0100
0001
1000
0010
1000
0100
0010
0001
0100
0010
1000
0001
0010
0001
,
0100
0010
1000
0100
1000
0010
0100
0001
1000
0100
0010
0001
1000
0001
0010
0100
,
1000
0010
1000
0001
0100
0010
1000
0100
0010
0001
0100
0001
0010
0100
1000
0001
,
1000
0100
1000
0100
0000
0000
1000
0001
1000
0001
0000
0000
1000
0010
1000
0010
0000
0000
0100
0010
0100
0010
0000
0000
,
1000
0100
0010
0001
1000
0010
1000
0001
0100
0001
0010
0100
1000
0100
0010
0001
1000
0010
1000
0001
0100
0001
0010
0100
,
1001
0100
0010
0001
1000
0010
1000
0001
0100
0001
1000
0100
0010
0001
1000
0001
,
0010
0100
1000
0010
1000
0001
0100
0001
0010
0100
1000
0100
0010
0001
1000
0001
,
0100
0010
1000
0100
0010
0001
0100
0001
1000
0010
1000
0100
0010
0001
0100
0001
,
0010
0100
1000
0001
1000
0100
0010
0001
0100
0001
1000
0100
1000
0010
0100
0001
,
0010
0100
1000
0010
0100
0001
1000
0100
1000
0010
0100
0001
0010
0001
1000
0100
,
0010
0001
1000
0001
0100
0010
1000
0010
0100
0001
0100
0010
1000
0100
0010
0001
,
1000
0010
1000
0001
0100
0001
0010
0100
1000
0100
0010
0001
1000
0010
1000
0100
,
0010
0001
0100
0001
0010
0100
1000
0100
0010
0001
0010
0100
1000
0001
0100
0010
,
1001
0100
0010
0001
1000
0010
1000
0001
0100
0001
1000
0100
0010
0001
1000
0001
,
0010
0100
1000
0010
1000
0001
0100
0001
0010
0100
1000
0100
0010
0001
1000
0001
,
0100
0010
1000
0100
0010
0001
0100
0001
1000
0010
1000
0100
0010
0001
0100
0001
,
0010
0100
1000
0001
1000
0100
0010
0001
0100
0001
1000
0100
1000
0010
0100
0001
,
0010
0100
1000
0010
0100
0001
1000
0100
1000
0010
0100
0001
0010
0001
1000
0100
,
0010
0001
1000
0001
0100
0010
1000
0010
0100
0001
0100
0010
1000
0100
0010
0001
,
1000
0010
1000
0001
0100
0001
0010
0100
1000
0100
0010
0001
1000
0010
1000
0100
,
0010
0001
0100
0001
0010
0100
1000
0100
0010
0001
0010
0100
1000
0010
0100
0001
,
1010
0100
0010
0001
1000
0010
1000
0001
0100
0001
1000
0100
0010
0001
1000
0001
,
0010
0100
1000
0010
1000
0001
0100
0001
0010
0100
1000
0100
0010
0001
1000
0001
,
0100
0010
1000
0100
0010
0001
0100
0001
1000
0010
1000
0100
0010
0001
0100
0001
,
0010
0100
1000
0001
1000
0100
0010
0001
0100
0001
1000
0100
1000
0010
0100
0001
,
0010
0100
1000
0010
0100
0001
1000
0100
1000
0010
0100
0001
0010
0001
1000
0100
,
0010
0001
1000
0001
0100
0010
1000
0010
0100
0001
0100
0010
1000
0100
0010
0001
,
1000
0010
1000
0001
0100
0001
0010
0100
1000
0100
0010
0001
1000
0010
1000
0100
,
0010
0001
0100
0001
0010
0100
1000
0100
0010
0001
0010
0100
1000
0001
0100
0010
,
0101
1000
0100
0010
0001
1000
0010
0100
0001
0010
0100
1000
0100
0010
0001
1000
,
0001
0100
0010
1000
0001
0100
0001
0010
0100
1000
0001
0010
0100
1000
0001
1000
,
0100
0010
0001
0100
0010
1000
0001
1000
0010
1000
0100
0010
0001
0100
0001
0010
,
0100
1000
0001
1000
0100
0010
0001
0100
0001
1000
0100
1000
0010
0100
0001
0010
,
0100
1000
0010
0100
0001
1000
0100
1000
0010
0100
0001
0010
0001
1000
0100
0010
,
0001
1000
0001
0100
0010
1000
0010
0100
0001
0100
0010
1000
0100
0010
0001
1000
,
0010
1000
0001
0100
0001
0010
0100
1000
0100
0010
0001
1000
0010
1000
0100
0010
,
0001
0000
0000
0100
0000
0000
0001
0000
0000
0010
0000
0000
0100
0000
0000
1000
0000
0000
0100
0000
0000
0010
0000
0000
0001
0000
0010
0000
0100
0000
1000
0000
0001
0000
0100
0000
0001
0000
1000
0000
0010
0000
1000
0000
0001
0000
0010
0000
,
1001
0100
0010
0001
1000
0010
1000
0001
0100
0001
1000
0100
0010
0001
1000
0001
,
0010
0100
1000
0010
1000
0001
0100
0001
0010
0100
1000
0100
0010
0001
1000
0001
,
0100
0010
1000
0100
0010
0001
0100
0001
1000
0010
1000
0100
0010
0001
0100
0001
,
0010
0100
1000
0001
1000
0100
0010
0001
0100
0001
1000
0100
1000
0010
0100
0001
,
0010
0100
1000
0010
0100
0001
1000
0100
1000
0010
0100
0001
0010
0001
1000
0100
,
0010
0001
1000
0001
0100
0010
1000
0010
0100
0001
0100
0010
1000
0100
0010
0001
,
1000
0010
1000
0001
0100
0001
0010
0100
1000
0100
0010
0001
1000
0010
1000
0100
,
0010
0001
0100
0001
0010
0100
1000
0100
0010
0001
0010
0100
1000
0001
0100
0010
,
1001
0101
0110
0001
0010
1001
0100
0010
,
1100
0001
1000
0011
0100
1000
0110
0001
,
1100
0110
1001
0100
0001
0110
1000
0001
,
1100
0010
0100
0011
1000
0001
0110
0100
,
1001
1010
0110
1000
0001
1100
1000
0100
,
0011
1000
0001
0110
0010
0100
1001
1000
,
0110
1001
1010
0100
0010
1100
0001
1000
,
0110
1000
0100
0011
1000
0010
1100
0001
,
1010
0100
0010
0001
1000
0010
1000
0001
0100
0001
1000
0100
0010
0001
1000
0001
,
0010
0100
1000
0010
1000
0001
0100
0001
0010
0100
1000
0100
0010
0001
1000
0001
,
0100
0010
1000
0100
0010
0001
0100
0001
1000
0010
1000
0100
0010
0001
0100
0001
,
0010
0100
1000
0001
1000
0100
0010
0001
0100
0001
1000
0100
1000
0010
0100
0001
,
0010
0100
1000
0010
0100
0001
1000
0100
1000
0010
0100
0001
0010
0001
1000
0100
,
0010
0001
1000
0001
0100
0010
1000
0010
0100
0001
0100
0010
1000
0100
0010
0001
,
1000
0010
1000
0001
0100
0001
0010
0100
1000
0100
0010
0001
1000
0010
1000
0100
,
0010
0001
0100
0001
0010
0100
1000
0100
0010
0001
0010
0100
1000
0001
0100
0010
,
1001
0100
0010
0001
1000
0010
1000
0001
0100
0001
1000
0100
0010
0001
1000
0001
,
0010
0100
1000
0010
1000
0001
0100
0001
0010
0100
1000
0100
0010
0001
1000
0001
,
0100
0010
1000
0100
0010
0001
0100
0001
1000
0010
1000
0100
0010
0001
0100
0001
,
0010
0100
1000
0001
1000
0100
0010
0001
0100
0001
1000
0100
1000
0010
0100
0001
,
0010
0100
1000
0010
0100
0001
1000
0100
1000
0010
0100
0001
0010
0001
1000
0100
,
0010
0001
1000
0001
0100
0010
1000
0010
0100
0001
0100
0010
1000
0100
0010
0001
,
1000
0010
1000
0001
0100
0001
0010
0100
1000
0100
0010
0001
1000
0010
1000
0100
,
0010
0001
0100
0001
0010
0100
1000
0100
0010
0001
0010
0100
1000
0010
0100
0001
,
1010
0100
0010
0001
1000
0010
1000
0001
0100
0001
1000
0100
0010
0001
1000
0001
,
0010
0100
1000
0010
1000
0001
0100
0001
0010
0100
1000
0100
0010
0001
1000
0001
,
0100
0010
1000
0100
0010
0001
0100
0001
1000
0010
1000
0100
0010
0001
0100
0001
,
0010
0100
1000
0001
1000
0100
0010
0001
0100
0001
1000
0100
1000
0010
0100
0001
,
0010
0100
1000
0010
0100
0001
1000
0100
1000
0010
0100
0001
0010
0001
1000
0100
,
0010
0001
1000
0001
0100
0010
1000
0010
0100
0001
0100
0010
1000
0100
0010
0001
,
1000
0010
1000
0001
0100
0001
0010
0100
1000
0100
0010
0001
1000
0010
1000
0100
,
0010
0001
0100
0001
0010
0100
1000
0100
0010
0001
0010
0100
1000
0010
0100
0001
,
1010
0100
0001
0011
0001
1000
0110
0010
,
1000
0011
0001
0010
0110
0100
1100
1000
,
1001
0001
0100
1001
0001
0010
0110
0001
,
1000
0110
0001
1000
1100
0001
0110
0100
,
1001
0100
0010
0001
1000
0010
1000
0100
0010
0001
0010
0100
1000
0001
0100
0001
,
1000
0010
1000
0100
0010
0001
0100
0010
1000
0100
1000
0010
0100
0001
0010
0001
,
1000
0010
1000
0010
0000
0000
0100
0010
0100
0010
0000
0000
0001
0100
0001
0100
0000
0000
0001
1000
0001
1000
0000
0000
,
1000
0100
0010
0001
0010
0100
1000
0001
0100
0001
1000
0010
1000
0100
0010
0001
0010
0100
1000
0001
0100
0010
1000
0100
,
1001
0100
0010
0001
1000
0010
1000
0001
0100
0001
1000
0100
0010
0001
1000
0001
,
0010
0100
1000
0010
1000
0001
0100
0001
0010
0100
1000
0100
0010
0001
1000
0001
,
0100
0010
1000
0100
0010
0001
0100
0001
1000
0010
1000
0100
0010
0001
0100
0001
,
0010
0100
1000
0001
1000
0100
0010
0001
0100
0001
1000
0100
1000
0010
0100
0001
,
0010
0100
1000
0010
0100
0001
1000
0100
1000
0010
0100
0001
0010
0001
1000
0100
,
0010
0001
1000
0001
0100
0010
1000
0010
0100
0001
0100
0010
1000
0100
0010
0001
,
1000
0010
1000
0001
0100
0001
0010
0100
1000
0100
0010
0001
1000
0010
1000
0100
,
0010
0001
0100
0001
0010
0100
1000
0100
0010
0001
0010
0100
1000
0010
0100
0001
,
0011
1000
0001
0100
0010
0001
1000
0001
0100
0001
1000
0100
0010
0001
1000
0001
,
0010
0100
1000
0010
1000
0001
0100
0001
0010
0100
1000
0100
0010
0001
1000
0001
,
0100
0010
1000
0100
0010
0001
0100
0001
1000
0010
1000
0100
0010
0001
0100
0001
,
0010
0100
1000
0001
1000
0100
0010
0001
0100
0001
1000
0100
1000
0010
0100
0001
,
0010
0100
1000
0010
0100
0001
1000
0100
1000
0010
0100
0001
0010
0001
1000
0100
,
0010
0001
1000
0001
0100
0010
1000
0010
0100
0001
0100
0010
1000
0100
0010
0001
,
1000
0010
1000
0001
0100
0001
0010
0100
1000
0100
0010
0001
1000
0010
1000
0100
,
0010
0001
0010
0100
1000
0010
0100
0001
0010
0001
0100
0010
1000
0100
1000
0010
0100
0001
1000
0010
1000
0001
0100
0010
,
0101
1000
0001
0100
0010
0001
1000
0001
0100
0001
1000
0100
0010
0001
1000
0001
,
0010
0100
1000
0010
1000
0001
0100
0001
0010
0100
1000
0100
0010
0001
1000
0001
,
0100
0010
1000
0100
0010
0001
0100
0001
1000
0010
1000
0100
0010
0001
0100
0001
,
0010
0100
1000
0001
1000
0100
0010
0001
0100
0001
1000
0100
1000
0010
0100
0001
,
0010
0100
1000
0010
0100
0001
1000
0100
1000
0010
0100
0001
0010
0001
1000
0100
,
0010
0001
1000
0001
0100
0010
1000
0010
0100
0001
0100
0010
1000
0100
0010
0001
,
1000
0010
1000
0001
0100
0001
0010
0100
1000
0100
0010
0001
1000
0010
1000
0100
,
0010
0001
0100
0001
1000
0010
1000
0100
0010
0001
1000
0001
0100
0010
1000
0100
,
0011
1000
0001
0100
0010
0001
1000
0001
0100
0001
1000
0100
0010
0001
1000
0001
,
0010
0100
1000
0010
1000
0001
0100
0001
0010
0100
1000
0100
0010
0001
1000
0001
,
0100
0010
1000
0100
0010
0001
0100
0001
1000
0010
1000
0100
0010
0001
0100
0001
,
0010
0100
1000
0001
1000
0100
0010
0001
0100
0001
1000
0100
1000
0010
0100
0001
,
0010
0100
1000
0010
0100
0001
1000
0100
1000
0010
0100
0001
0010
0001
1000
0100
,
0010
0001
1000
0001
0100
0010
1000
0010
0100
0001
0100
0010
1000
0100
0010
0001
,
1000
0010
1000
0001
0100
0001
0010
0100
1000
0100
0010
0001
1000
0010
1000
0100
,
0010
0001
0100
0001
1000
0010
1000
0100
0010
0001
1000
0001
0100
0010
1000
0000
,
1001
0100
0001
0000
1000
0010
1000
0000
0010
0100
0010
0000
0001
0100
0001
0000
,
1000
0100
0010
0000
0001
0010
0100
0000
1000
0001
0100
0000
0010
1000
0001
0000
,
1000
0100
0010
0000
0001
0100
0010
0000
1000
0001
0100
0000
0010
1000
0001
0000
,
0100
0010
1000
0000
0001
0100
0010
0000
1000
0100
0010
0000
0001
0100
0010
0000
,
1000
0001
0100
0000
1000
0001
0010
0000
1000
0001
0100
0000
0010
1000
0001
0000
,
0100
0010
0001
0000
0010
0100
1000
0000
0001
0100
0010
0000
1000
0001
0100
0000
,
1000
0001
0010
0000
1000
0100
0010
0000
0001
0010
0100
0000
1000
0100
0010
0000
,
0001
0010
0100
0000
1000
0001
1000
0000
0010
0100
0010
0000
1000
0001
1000
0000
,
0110
0000
0000
0000
;

//---------------dance-single - ----------------
#NOTES:
     dance-single:
     :
     Hard:
     9:
     0.550,0.593,0.030,0.000,0.000,1014.000,8.000,0.000,0.000,0.000:

0000
0000
0000
0000
,
1000
0100
0010
0001
1000
0001
0000
0000
,
0100
0000
0000
0010
0000
0000
1000
0000
,
1000
0001
0010
0100
1000
0000
0000
0001
,
0000
0100
0000
0010
,
1000
0001
0010
0000
0000
0100
0000
0000
,
1000
0000
0000
0001
0000
0000
0100
0000
,
0010
1000
0001
0000
0000
1000
0000
0000
,
0100
0000
0000
0010
0000
0000
0001
0000
,
1000
0010
0100
0010
1000
0001
0010
0000
,
0001
0000
1000
0001
1000
0001
0100
0010
,
1000
0000
0001
0100
0001
0010
0100
0000
,
0010
0000
0001
1000
0001
0000
0001
0100
,
0010
0000
0010
1000
0001
0000
0001
1000
,
0100
0000
0100
1000
0001
0010
0100
0000
,
0001
0000
1000
0001
0100
0010
1000
0010
,
0100
0001
0010
0100
0010
0001
1000
0001
,
0100
0010
1000
0001
0000
0100
0000
0010
,
0000
1000
0000
0001
0000
0000
0000
0000
,
1000
0001
0100
0001
0000
0010
0000
0100
,
0000
1000
0000
0001
0000
0001
0000
1000
,
0010
0100
0001
0010
0000
0100
0000
1000
,
0000
0001
0000
0100
0000
0100
0000
0010
,
1000
0001
0010
0100
0000
1000
0000
0001
,
0000
0010
0000
0100
0000
1000
0000
0001
,
0100
0010
1000
0010
0000
0100
0000
0001
,
0000
0010
0000
0001
0000
1000
0000
0000
,
1000
0001
0100
0010
0000
1000
0000
0001
,
0000
0010
0000
0100
0000
1000
0000
0001
,
0100
0001
0010
0100
0000
1000
0000
0001
,
0000
0100
0000
0010
0000
0000
0000
0000
,
1000
0100
1000
0001
0000
1000
0001
0100
,
0010
0000
1000
0001
0010
0100
0010
0001
,
1000
0010
0100
0001
,
1000
0001
0010
0100
,
0010
0001
1000
0001
,
0100
0001
1000
0010
,
0100
0010
1000
0100
,
0010
0100
1000
0001
,
0100
1000
0010
1000
,
0100
0001
0010
1000
,
1001
0010
0100
0001
,
0010
0001
1000
1000
,
0001
0010
0100
0010
,
0001
0100
0010
0100
,
0001
1000
0100
1000
,
0001
0100
0010
1000
,
0010
0100
0001
0010
,
0100
1000
0010
0100
,
1001
0001
0010
0100
,
1000
0001
0100
0010
,
1000
0010
0100
0001
,
1000
0001
0010
0000
0010
0000
0001
0000
,
1000
0000
0010
0100
0001
0000
0010
0000
,
0100
1000
0001
0000
0001
1000
0010
0000
,
0100
0000
0100
0001
0010
0000
0010
0000
,
0001
0100
0010
0000
1000
0000
0001
0000
,
1001
0000
0010
0100
0001
0000
0001
0000
,
1000
0100
0010
0000
0001
0000
1000
0000
,
0010
0000
0100
0001
0010
0000
0010
0000
,
0001
1000
0010
0000
1000
0000
0100
0000
,
1000
0100
0010
0000
0010
0001
1000
0000
,
1000
0010
0100
0010
1000
0010
0100
0001
,
1000
0001
0100
0001
0010
0001
0010
0001
,
1000
0100
1000
0100
1000
0001
0100
0001
,
0100
0010
1000
0001
,
1000
0001
0010
0000
0010
0000
0001
0000
,
1000
0010
0100
0000
0100
0000
0000
0000
,
0001
0000
0010
0100
,
1000
0001
0100
0001
1000
0000
0100
0000
,
0001
0010
0100
1000
0001
0000
0100
0000
,
0010
1000
0010
0100
0001
0000
0010
0000
,
0100
1000
0001
0100
0010
0000
1000
0000
,
1001
0000
0001
0100
0010
0000
1000
0000
,
0001
0010
0100
0000
1000
0000
0001
0000
,
1000
0010
0100
0001
0010
0100
1000
0000
,
0001
0000
0100
0010
1000
0000
0001
0000
,
0001
0010
0100
1000
0001
0000
1000
0000
,
0010
0100
0001
0010
0100
0000
1000
0000
,
0001
0100
0010
0000
1000
0000
0001
0000
,
0010
0100
1000
0100
0010
0001
1000
0010
,
0100
0000
0001
1000
0001
0000
0100
0000
,
0010
0000
1000
0000
0100
1000
0100
0000
,
0100
1000
0001
0100
0001
0000
0010
0000
,
0001
1000
0010
0100
,
0001
1000
0100
0000
1000
0001
0010
0100
,
1000
0001
0000
0100
0000
0000
0010
0000
,
1000
0001
0010
0100
0000
0000
1000
0000
,
0000
0001
0000
0000
0100
0000
0010
0000
,
1000
0001
0010
0001
1000
0001
0100
0000
,
0100
0010
1000
0010
0100
0000
0001
0000
,
0010
0100
1000
0100
0010
0000
0001
0000
,
0100
0010
1000
0010
0100
0000
0001
0000
,
1000
0001
0100
0001
0010
0001
0100
0000
,
0010
1000
0010
0100
0001
1000
0100
0000
,
1000
0100
0001
0100
0010
0001
1000
0001
,
0100
0010
0001
0100
0001
0010
0100
0001
,
1000
0000
0010
0001
0100
0000
0010
0000
,
1000
0001
0010
0100
1000
0000
0001
0000
,
0100
0010
1000
0010
0100
0001
0010
0000
,
0001
0000
1000
0001
0100
0001
0010
0000
,
0001
1000
0100
1000
0100
0010
0001
0000
,
0100
0000
0010
1000
0010
0100
0001
0000
,
0001
1000
0001
0010
0100
1000
0001
0000
,
0100
0000
0010
1000
0010
0100
0001
0000
,
0010
0000
0001
1000
0001
0000
0010
0000
,
0100
1000
0100
1000
,
1000
0001
0010
0000
0001
0000
0100
0000
,
0010
1000
0010
0100
,
0001
1000
0001
0000
0010
0000
0100
0000
,
1000
0001
0100
1000
,
1000
0100
0001
0000
0001
0000
0010
0000
,
0001
0100
0010
1000
,
1001
0000
0100
0010
0001
1000
0010
0000
,
0100
0000
0001
0010
0001
1000
0001
0100
,
0010
0000
1000
0010
0100
0010
1000
0001
,
0010
0000
0001
1000
0001
1000
0001
0100
,
0010
0000
1000
0100
0001
0100
1000
0100
,
0001
0000
1000
0010
0001
0010
1000
0010
,
0001
0000
1000
0100
0001
0010
1000
0100
,
0001
0010
0100
0010
0001
1000
0001
0100
,
0010
1000
0001
0010
0000
0100
0000
1000
,
0000
0001
0000
0100
0000
0000
0000
0000
,
1000
0001
1000
0001
0000
0010
0000
0100
,
0000
1000
0000
0001
0000
0001
0000
0000
,
0010
0100
1000
0001
0000
0100
0000
0010
,
0000
1000
0000
0001
0000
1000
0000
0010
,
1000
0001
0010
0100
0000
1000
0000
0001
,
0000
0010
0000
0100
0000
1000
0000
0000
,
0001
0100
0010
1000
0000
1000
0001
0010
,
0000
0010
0001
1000
0000
0000
0000
0000
,
0100
0010
1000
0010
0000
0100
0001
0010
,
0000
0100
1000
0001
,
0100
0010
1000
0010
0100
0000
0001
0010
,
0001
1000
0010
0000
0100
0000
0001
0000
,
1000
0100
1000
0100
0010
0000
0001
0000
,
0100
0010
1000
0010
0100
0000
0001
0000
,
1000
0010
0100
0001
,
1000
0001
0010
0100
,
1000
0000
1000
0001
0010
0000
0010
0000
,
0100
1000
0001
0000
0100
0000
0010
0000
,
1000
0100
0010
0001
0010
0100
0010
0001
,
1000
0001
0100
0001
1000
0010
0100
0010
,
1000
0100
0001
1000
0100
0001
1000
0010
,
0001
0010
0100
0010
0001
1000
0100
0001
,
1001
0000
0001
0100
0010
0000
1000
0000
,
0001
1000
0001
0010
0100
0000
1000
0000
,
0001
1000
0010
0100
0010
1000
0001
0000
,
0010
0000
0100
1000
0001
1000
0001
0000
,
0010
0000
0100
1000
0001
0100
0001
0000
,
0100
0000
0010
1000
0010
0100
0001
0000
,
0001
0010
0100
1000
0001
0100
0010
0000
,
1000
0001
1000
0001
0010
0000
0100
0000
,
1001
0010
0100
0001
0000
0010
0100
1000
,
0001
0100
0010
1000
,
0001
1000
0001
0010
0100
0000
0001
0000
,
1000
0010
0100
0010
1000
0000
0001
0000
,
1000
0001
0010
0100
0010
0001
1000
0000
,
0100
0010
1000
0010
0100
0000
0001
0000
,
1000
0001
0100
0001
0010
0000
0100
0000
,
1000
0001
1000
0001
0100
0000
0010
0000
,
1000
0001
0100
0001
0000
0010
0000
0000
,
0100
1000
0001
0100
,
0010
1000
0001
0010
0100
0000
0001
0000
,
1000
0010
0100
0001
0010
0000
0100
0000
,
1000
0001
0100
0001
0010
0000
0100
0000
,
1000
0001
0100
0001
0010
0000
0100
0000
,
1000
0100
0001
0100
0010
0000
0001
0000
,
0010
0100
0010
0001
1000
0000
0010
0000
,
1000
0001
0100
0001
0000
0010
0000
0001
,
0000
1000
0000
0010
0000
0100
0001
0010
,
0100
1000
0001
0010
0100
0000
0001
0000
,
1000
0010
0100
0001
0010
0000
0010
0000
,
0010
0001
1000
0010
0100
0010
1000
0100
,
0010
0001
1000
0001
0010
0100
1000
0100
,
0010
0001
1000
0001
0100
0010
1000
0010
,
0100
0001
0010
0100
0010
0001
1000
0100
,
1001
0000
0010
1000
0001
0000
0010
0100
,
1000
0000
1000
0001
0100
0000
0100
0001
,
0010
0000
0010
0001
1000
0000
1000
0100
,
0010
0000
0010
0001
0100
0000
0100
0010
,
1000
0000
1000
0010
0100
0000
0100
0001
,
0010
0000
1000
0100
0001
0000
0001
0100
,
1000
0000
1000
0010
0001
0000
0001
0010
,
0100
0000
1000
0100
0010
0000
0001
0100
,
0010
0000
0000
0000
;
