#TITLE:LET'S FIGHTING LOVE;
#SUBTITLE:;
#ARTIST:South Park;
#TITLETRANSLIT:;
#SUBTITLETRANSLIT:;
#ARTISTTRANSLIT:;
#CREDIT:;
#BANNER:LFL.png;
#BACKGROUND:LFL-bg.png;
#LYRICSPATH:;
#CDTITLE:!title.png;
#MUSIC:LFL.ogg;
#OFFSET:-0.040;
#SAMPLESTART:15.014;
#SAMPLELENGTH:15.000;
#SELECTABLE:YES;
#BPMS:0.000=160.000;
#STOPS:;
#BGCHANGES:;
// cache tags:
#FIRSTBEAT:8.000;
#LASTBEAT:154.000;
#SONGFILENAME:Songs/toune 2/LFL/LFL.sm;
#HASMUSIC:1;
#HASBANNER:1;
#MUSICLENGTH:59.427;
// end cache tags

//---------------dance-single - MANIAC----------------
#NOTES:
     dance-single:
     MANIAC:
     Hard:
     8:
     0.548,0.551,0.219,0.202,0.000,203.000,13.000,12.000,0.000,0.000:
0000
0000
0000
0000
,
0000
0000
0000
0000
,
1000
0100
1000
0100
0000
0001
0000
0001
,
0000
0001
0010
0000
0010
0000
0010
0000
,
0001
0010
0001
0010
0000
1000
0000
1000
,
0000
1000
0100
0000
0100
0010
0100
0010
,
0001
1000
0001
1000
0000
0100
0000
0100
,
0000
0100
0010
0000
0010
0000
0010
0000
,
1000
0001
1000
0001
0000
0010
0000
0010
,
0000
0010
0100
1000
0100
0001
0100
1000
,
0200
0000
0310
0000
0001
0010
0100
0000
,
1000
0100
0010
0001
0000
0010
0001
0000
,
0020
0000
0130
0000
0001
0010
0100
0000
,
1000
0100
0010
0001
1001
0000
0110
0000
,
1000
0100
1000
0000
0001
0010
0001
0000
,
0200
0310
0002
1003
,
0010
0001
0010
0001
0000
0001
0000
0011
,
0000
1000
0100
0010
0100
1000
0100
0010
,
0100
1000
0100
1000
0000
1000
0000
1100
,
0000
0001
0010
0100
0010
0001
0010
0100
,
1000
0001
1000
0000
0001
1000
0001
0000
,
0100
0010
0100
0000
0010
0100
0010
0000
,
1000
0100
0010
0001
1000
0010
0100
0001
,
0001
0010
0100
1000
0001
0100
0010
1000
,
0002
0013
0200
1300
,
0020
0031
0200
1300
,
2000
0010
0001
3100
,
0002
1000
0010
0103
,
1000
1100
0001
0011
,
1000
0100
0010
0001
0000
0100
0010
0000
,
0001
0011
0100
1100
,
0001
0010
0100
1000
0100
0010
0001
0000
,
1000
0100
1000
1100
,
0001
0010
0001
0011
,
1000
0010
0100
0001
0000
0001
0000
0101
,
0000
0010
0001
0010
0100
1000
0100
0010
,
0001
0100
0010
1000
0000
1000
0000
1100
,
0000
0010
0001
0010
0100
1000
0100
0010
,
2002
0000
3003
0000
;

//---------------dance-single - TRICKY----------------
#NOTES:
     dance-single:
     TRICKY:
     Medium:
     5:
     0.385,0.421,0.151,0.236,0.000,137.000,9.000,14.000,0.000,0.000:
0000
0000
0000
0000
,
0000
0000
0000
0000
,
1000
0000
1000
0000
0000
0001
0000
0001
,
0000
0001
0010
0000
0000
0000
0000
0000
,
0001
0000
0001
0000
0000
1000
0000
1000
,
0000
1000
0100
0000
0100
0000
0100
0000
,
0001
0000
0001
0000
0000
0100
0000
0100
,
0000
0100
0010
0000
0000
0000
0000
0000
,
1000
0000
1000
0000
0000
0010
0000
0010
,
0000
0010
0100
0000
0100
0000
0100
0000
,
0200
0310
0002
0013
,
1000
0010
0001
0100
,
0020
0130
0002
1003
,
0100
0010
1001
0110
,
1000
1000
0001
0001
,
0200
0310
0002
1003
,
0001
0000
0001
0000
0001
0000
0000
1001
,
0000
0100
0010
0100
,
1000
0000
1000
0000
1000
0000
0000
1001
,
0000
0010
0100
0010
,
1000
1000
0001
0001
,
0100
0100
0010
0010
,
1000
0010
0100
0001
,
0001
0010
0100
1000
,
0002
0013
0200
1300
,
0020
0031
0200
1300
,
2000
0010
0001
3100
,
0002
1000
0010
0103
,
1000
0100
0001
0010
,
1000
0010
0001
0100
,
0001
0010
0100
1000
,
0001
0010
1000
0100
,
1000
0100
1000
1100
,
0001
0010
0001
0011
,
1000
0000
0100
0000
0010
0000
0000
0101
,
0000
0001
0001
0001
,
0001
0000
0010
0000
0100
0000
0000
1100
,
0000
1000
1000
1000
,
2002
0000
3003
0000
;

//---------------dance-single - SIMPLE----------------
#NOTES:
     dance-single:
     SIMPLE:
     Easy:
     3:
     0.236,0.292,0.034,0.236,0.000,82.000,2.000,14.000,0.000,0.000:
0000
0000
0000
0000
,
0000
0000
0000
0000
,
1000
1000
0000
0000
,
0010
0010
0000
0000
,
0001
0001
0000
0000
,
0100
0100
0100
0100
,
0001
0001
0000
0000
,
0010
0010
0000
0000
,
1000
1000
0000
0000
,
0100
0100
0100
0100
,
0200
0300
0002
0003
,
1000
0000
0001
0000
,
0020
0030
0002
0003
,
0100
0010
0100
0000
,
1000
0000
0001
0000
,
0200
0300
0002
0003
,
0001
0001
0001
0001
,
0000
0000
0000
0000
,
1000
1000
1000
1000
,
0000
0000
0000
0000
,
1000
0100
0000
0000
,
0100
0010
0000
0000
,
0001
0010
0000
0000
,
0010
0100
0000
0000
,
0002
0003
0200
0300
,
0020
0030
0200
0300
,
2000
0000
0100
3000
,
0002
0000
0010
0003
,
1000
0000
0001
0000
,
1000
0000
0001
0000
,
0100
0000
0010
0000
,
0100
0010
0100
0000
,
1000
1000
1000
0000
,
0001
0001
0001
0000
,
0100
0100
0100
0100
,
0000
0000
0000
0000
,
0010
0010
0010
0010
,
0000
0000
0000
1001
,
2002
0000
3003
0000
;

//---------------dance-single - SMANIAC----------------
#NOTES:
     dance-single:
     SMANIAC:
     Challenge:
     9:
     0.683,0.648,0.320,0.202,0.008,253.000,19.000,12.000,0.000,0.000:
0000
0000
0000
0000
,
0000
0000
0000
0000
,
1000
0100
1000
0100
1000
0001
0000
0001
,
0000
0001
0010
0100
0010
0001
0010
0100
,
0001
0010
0001
0010
0001
0010
0000
1000
,
0000
1000
0100
0000
0100
0010
0100
0010
,
0001
1000
0001
1000
0001
0100
0000
0100
,
0000
0100
0010
0001
0010
0100
0010
0001
,
1000
0001
1000
0001
1000
0010
0000
0010
,
0000
0010
0100
1000
0100
0001
0100
1000
,
0200
0010
0310
0000
0001
0010
0100
0000
,
1000
0100
0010
0001
1000
0100
0010
0001
,
0020
0100
0130
0000
0001
0010
0100
0000
,
1000
0100
0010
0001
1000
0100
0010
0001
,
1000
0100
1000
0100
0001
0010
0001
0010
,
0200
0010
0310
0001
0002
1000
1003
0100
,
0010
0001
0010
0011
0000
0101
0000
0011
,
0000
1000
0100
0010
0100
1000
0100
0010
,
0100
1000
0100
1100
0000
1010
0000
1100
,
0000
0001
0010
0100
0010
0001
0010
0100
,
1000
0001
1000
0001
0010
1000
0010
1000
,
0100
0010
0100
0010
0001
0100
0001
0100
,
1000
0100
0010
0001
1000
0010
0100
0001
,
0001
0010
0100
1000
0001
0100
0010
1000
,
0002
0010
0013
0100
0200
1000
1300
0010
,
0020
0001
0031
0100
0200
1000
1300
0000
,
2000
0100
0010
0001
0100
0010
3001
0000
,
0002
0010
0100
1000
0010
0100
1003
0000
,
1000
0100
1100
0000
0001
0010
0011
0000
,
1000
0100
0010
0001
1000
0100
0010
0001
,
0001
0010
0011
0000
0100
1000
1100
0000
,
0001
0010
0100
1000
0100
0010
0001
0000
,
1000
0100
1000
0100
1000
0000
1100
0000
,
0001
0010
0001
0010
0001
0000
0011
0000
,
1000
0010
0100
0011
0000
1001
0000
0101
,
0000
0010
0001
0010
0100
1000
0100
0010
,
0001
0100
0010
1100
0000
1001
0000
1010
,
0000
0000
0100
0000
0010
0000
0001
0000
0010
0000
0100
0000
1000
0001
1000
0000
,
2002
0000
3003
0000
;
