#TITLE:FASCiNATiON -Evolving Love Mix-;
#SUBTITLE:Challenge By Dante Kusanagi;
#ARTIST:Zoku Vs Dante;
#TITLETRANSLIT:;
#SUBTITLETRANSLIT:;
#ARTISTTRANSLIT:;
#CREDIT:;
#BANNER:fevo.jpg;
#BACKGROUND:fevo-bg.jpg;
#LYRICSPATH:;
#CDTITLE:kcd.jpg;
#MUSIC:FASCiNATiON -evolving love-.mp3;
#OFFSET:-4.586;
#SAMPLESTART:9.161;
#SAMPLELENGTH:22.820;
#SELECTABLE:YES;
#BPMS:0.000=210.000,14.000=420.000,176.000=210.000,184.000=419.998,232.000=104.999,280.000=209.999,312.000=419.996;
#STOPS:14.000=0.286
;
#BGCHANGES:;
// cache tags:
#FIRSTBEAT:0.000;
#LASTBEAT:426.500;
#SONGFILENAME:Songs/toune 2/fmax/fevo.sm;
#HASMUSIC:1;
#HASBANNER:1;
#MUSICLENGTH:94.370;
// end cache tags

//---------------dance-single - ----------------
#NOTES:
     dance-single:
     :
     Hard:
     12:
     0.884,1.000,1.000,0.000,0.138,481.000,103.000,0.000,0.000,0.000:
1000
0000
0010
0000
0110
1000
0001
0000
,
0100
0000
0010
0000
1000
0001
0100
0000
,
0010
0000
1000
0000
0001
0010
0100
0000
,
1000
0001
0110
0000
,
1000
0100
0010
0001
1001
0100
1100
0100
,
1000
0100
1000
0100
1010
0000
1000
0000
,
0001
0000
0100
0010
,
0000
1000
0100
0010
,
0001
0000
0100
0010
,
0000
1000
0001
0010
,
0100
0000
1000
0010
,
0000
0100
0001
1000
,
0010
0010
0100
0100
,
0001
0001
1000
1000
,
0100
0100
0010
0010
,
0001
0001
0001
0001
,
1000
1000
0010
0010
,
0100
0100
0001
0001
,
0010
0010
0100
0100
,
1000
1000
1000
1000
,
0001
0001
0010
0100
,
1000
1000
0001
0010
,
0100
0100
1000
0010
,
0100
0100
0001
1000
,
0010
0010
0100
0001
,
1000
1000
0100
0010
,
0001
0001
1000
0100
,
0010
0010
0100
1000
,
0001
0100
1100
0000
,
0101
0000
1001
0000
,
0010
0100
1001
0000
,
0110
0000
0100
0000
,
1000
0100
0101
0000
,
0100
0000
1100
0000
,
0001
0010
0100
0000
,
1010
0000
0100
0000
,
0001
1000
0001
1000
,
0100
0000
0010
0000
,
0100
0000
1001
0000
,
0110
0000
0100
0000
,
1000
0001
0101
0000
,
1100
0000
0010
0000
,
0001
1000
1100
0000
,
0101
0000
0010
0000
,
0001
0100
1000
0000
1000
0100
0001
0000
,
1000
0100
0001
0100
1000
0010
0100
0001
,
1000
0000
0110
0001
,
1000
0001
0010
0100
,
1000
0000
0110
1000
,
0001
0000
0100
0010
,
1001
0010
0100
0000
,
1001
0010
0100
0000
,
1000
0100
0001
0100
,
1000
0100
0001
0100
,
1000
0000
0001
0100
,
1100
0000
1000
0100
,
0001
0100
1000
0100
,
0001
0010
0100
1000
,
0101
0000
1100
0000
0110
0000
1000
0001
0110
0000
0011
0000
1100
0000
0010
0100
,
1001
0000
0110
0000
0101
0000
0010
0000
1100
0000
1001
0000
0110
0000
0001
1000
,
1100
0000
0011
0000
0110
0000
0001
0000
1100
0000
0101
0000
0110
0000
1000
0100
,
0101
0000
1100
0000
0110
0000
1000
0000
0101
0000
0110
0000
1100
0000
0001
0100
,
1100
0000
0110
0000
1001
0000
0010
0000
0110
0000
1001
0000
0110
0000
1000
0100
,
0101
0000
1100
0000
0010
0100
1001
0000
0110
0000
0100
0000
1001
0100
0010
0100
,
1001
0000
0101
0000
1000
0100
1100
0000
0001
0000
1100
0000
0110
0001
1000
0001
,
0110
0000
1001
0000
0100
0000
0100
0000
0110
0000
0001
1000
0000
1000
0100
0010
,
0001
0000
0100
0000
0110
0000
0001
1000
0000
1000
0100
0010
0001
0100
0010
1000
,
0001
0000
0001
0000
0010
0100
1000
0010
0100
0000
0100
0000
0001
0010
0100
1000
,
0010
0000
1001
0000
0110
0000
1001
0000
0100
0000
0010
0100
0001
0010
0100
0000
,
1000
0100
0010
0010
0001
0100
0010
0010
,
1001
0000
0010
0100
0000
0100
0010
0001
,
1000
0000
0010
0100
1100
0000
0011
0000
,
1010
0000
0100
0010
0000
0100
0001
1000
,
0010
0000
0100
0001
1000
0001
0010
0100
,
1000
0101
1100
0010
,
1001
0000
0100
0010
1000
0001
0010
0100
,
1000
0101
1100
0010
,
0100
0100
0010
0000
1001
0000
0010
0000
,
0100
0000
0001
1000
0100
0000
0010
0000
,
0100
1000
0001
0000
0010
0000
0100
0000
,
1000
0000
0001
0010
0100
0000
0001
0000
,
0100
0010
0001
0000
0010
0000
0100
0000
,
1000
0000
0010
0000
0100
0001
1000
0000
,
0100
0000
1000
0001
0100
0000
0010
0000
,
1000
0001
0010
0100
,
1000
0000
0010
0100
0001
0000
0010
0000
,
0001
0100
0010
0000
1000
0000
0010
0000
,
0100
0000
0001
1000
0010
0000
0100
0000
,
0010
0000
1000
0001
0100
0000
0010
0000
,
1001
0010
0100
0001
,
1100
0010
0101
0010
,
1100
0010
0101
0010
,
1100
0001
0110
0001
,
1100
0001
0110
0001
,
0110
1000
0101
1000
,
0110
1000
0101
1000
,
0101
0010
1100
0010
,
0101
0010
1100
0010
,
1001
0010
0100
0010
,
1100
0001
0010
0100
,
0101
1000
0100
0010
,
1001
0010
0100
0010
,
1001
0000
0000
0000
,
0000
0100
0000
0000
;

//---------------dance-single - For Guru's Only----------------
#NOTES:
     dance-single:
     For Guru's Only:
     Medium:
     9:
     0.666,1.000,0.763,0.328,0.037,337.000,72.000,31.000,0.000,0.000:
1000
0000
0000
0100
0010
0001
0000
0000
,
0000
0001
0010
0100
0001
0010
0000
0000
,
0000
1000
1000
0100
0100
1001
0000
0110
,
0000
0000
1001
0000
,
1000
0000
0000
1000
,
0100
0010
0000
0000
,
0000
0001
0010
0001
,
0001
0000
1000
1000
,
0100
0010
0110
0000
,
0000
0001
0000
0000
,
0000
1000
0000
0000
,
0110
0000
0000
0000
,
0001
0000
0000
0000
,
2000
3000
0000
0000
,
0110
0000
0000
0000
,
0001
0000
0000
0000
,
0001
0010
0100
1000
,
0100
0010
0001
0010
,
0100
1000
0100
0010
,
0001
0010
0100
1000
,
0100
0010
0001
1001
,
0000
0000
0000
0110
,
0000
0000
0000
0010
,
0000
0000
0000
0100
,
0000
0000
0000
0010
,
0000
0000
0000
0001
,
0000
0110
0000
0000
,
0000
0101
0000
0000
,
0000
1010
0000
0101
,
0000
1010
0000
0101
,
0000
1010
0000
0101
,
0000
1010
0000
0110
,
0000
0110
0000
0010
,
0000
0001
0000
0010
,
0000
0100
0010
0100
,
0020
0031
0010
0100
,
0010
2000
3200
2300
,
3200
2300
3200
0020
,
0330
0000
0001
0000
0000
0000
1000
0100
,
0000
0000
0000
0010
0001
0000
0000
0010
,
0100
0000
0000
0000
1000
0100
1000
0000
,
0000
1000
0100
0010
0001
0010
0001
0010
,
0001
0000
1000
0100
,
0010
0001
0000
0000
,
0110
0011
1100
0110
,
0011
0110
0100
0101
,
1001
0000
1010
0000
,
0020
0030
0200
0300
,
0000
0001
0010
0100
,
0010
0000
0001
0000
,
0001
0000
0020
0030
,
0010
0000
0200
0300
,
0200
0300
0001
0000
,
0101
0000
1001
0000
,
1010
0000
0100
0100
,
0000
0010
0100
0000
,
0110
0000
0001
0000
,
0010
0000
0101
1001
,
1001
0011
0001
0010
0100
1000
1010
0101
,
1010
0101
1010
0011
1100
0011
1100
0011
,
1100
1100
0011
1100
0011
1100
0001
0020
,
0130
0010
0100
1000
0100
0010
0001
0010
,
0100
0000
0000
1000
0000
0000
1001
0000
0000
0000
0001
0000
2000
0000
0000
0000
0000
0000
0000
0000
0000
0000
0000
0000
,
3100
0010
0001
0001
0011
0010
0011
0001
,
0010
0000
0100
0000
1010
0000
0101
0000
1010
0000
0000
0000
1000
0100
1000
0000
,
0010
0001
0010
0000
0000
0000
0000
0000
0100
0010
0000
0000
0100
0100
0010
0000
,
0000
0011
0001
0000
1100
1000
0000
0000
1000
0000
0100
0000
0010
0000
0001
0000
,
0010
0001
1000
0000
0100
0000
0010
0000
,
0001
0000
0001
0000
0011
0000
0110
1000
,
1000
1000
0010
0000
0001
0001
0001
0000
,
1001
1000
0000
0000
,
1001
0000
0001
0000
0000
0000
0100
0010
,
0000
0010
0100
0000
0000
0000
0010
0100
,
0000
0100
0010
0000
0000
0000
1000
0000
,
0100
0020
0031
0020
,
0130
0200
0320
0000
,
2030
0000
0000
0000
,
3002
0000
0000
0003
,
1001
0001
0010
0100
,
1000
0000
0001
0010
,
0100
1000
0000
0001
,
0010
0200
1300
0000
,
0001
0000
0020
0030
,
0100
0000
1000
0000
,
0011
0002
0013
0001
,
0000
0000
1000
1000
,
0000
0100
0010
0001
,
0001
0001
0000
1000
,
1000
1000
1000
0100
,
0100
0100
0100
0010
,
0010
0010
0010
0001
,
0001
0001
0001
0000
,
0110
0000
0000
0000
0110
0000
0000
0110
,
0000
0000
0000
1000
0000
0000
0000
0100
,
0000
0000
0000
0010
0000
0000
0000
0001
,
0000
0000
0000
0010
0000
0000
0000
0100
,
0000
0000
0000
1000
0000
0000
0000
0100
,
0000
0000
0000
0010
0000
0000
0000
0001
,
0000
2001
3001
0000
1000
0000
0100
0000
,
1000
0100
0010
0001
,
0010
0100
1000
0100
,
0010
0001
0010
0001
,
0010
0100
0010
0100
,
1000
0200
0310
0001
,
2002
0000
0000
0000
0000
0000
3003
2002
,
3003
0000
0000
0000
;

//---------------dance-single - ----------------
#NOTES:
     dance-single:
     :
     Easy:
     9:
     0.610,1.000,0.540,0.392,0.011,315.000,51.000,37.000,0.000,0.000:
1000
0000
1000
1000
,
1000
0000
0000
0000
,
0100
0000
0100
0100
,
0100
0000
1001
0000
,
1001
0000
0000
0001
0000
1000
0000
0001
,
0000
0000
0000
1000
0000
0001
0000
1000
,
0000
0001
0000
1000
0000
1001
0000
0000
,
0000
0000
0000
0000
0000
1000
0000
0100
,
0000
1000
0000
0100
0000
0010
0000
0001
,
0000
0010
0000
0200
0000
1300
0000
0010
,
0000
0000
0000
0001
0000
0010
0000
1000
,
0000
0100
0000
0100
0000
0000
1000
0000
,
0100
0010
0001
0000
,
0001
0000
0010
0000
,
0220
0330
1000
0000
,
0001
0000
0000
1000
,
0100
0001
0010
0001
,
0100
0010
0001
0100
,
1000
0010
0001
0011
,
0000
1010
0000
0010
,
0000
0000
1001
0000
0000
0000
0000
0101
,
0000
0000
0000
0101
0000
0000
0000
2001
,
3000
0000
0000
2020
3030
0000
0000
1100
,
0000
0000
0000
1000
0000
0000
0000
0200
,
0300
0000
0000
0010
0000
0000
0000
0001
,
0000
0000
0000
0201
0300
0000
0000
0101
,
0000
0000
0000
0202
0000
0000
0000
0000
,
0000
0000
0000
0000
,
0300
0000
0000
0000
,
0000
0000
0000
2000
,
0003
0000
0000
0000
0000
0000
0200
3000
,
0000
0000
0000
0020
0000
0000
0300
0000
,
0000
0032
0023
0000
,
0000
0000
0030
2000
0000
0000
0000
0002
,
3000
0000
0003
0000
,
0100
0000
0001
0001
,
0000
0001
0000
0000
,
0010
0100
0000
0100
,
0000
0100
0000
1000
,
0010
0000
0001
0000
,
0001
1000
0100
0000
,
0020
0030
0020
0000
,
0000
0000
0230
0000
,
0000
0300
0000
0000
,
1001
0001
0100
1000
,
0100
0000
0010
1000
0001
0000
0010
0001
,
0100
2000
3000
0100
,
0000
0010
0000
0001
,
0000
0010
0000
0110
,
0000
0110
0000
0101
,
0000
1010
0000
0101
,
0000
0010
0000
1000
,
0000
0100
0000
1000
,
0000
0010
0000
0001
,
0000
0001
0000
0001
,
0000
0010
0000
0000
,
0100
0000
2000
3000
,
0200
0300
0000
0010
,
1001
1000
0100
0010
0101
0010
0100
0010
,
0001
1000
0100
0010
0001
0010
0001
0010
,
0000
0001
0001
0010
0000
0100
0010
1001
,
1000
0100
0001
0010
0100
0000
1000
0100
,
1000
0100
0110
0100
0010
0001
1010
0100
,
0100
1000
0100
1000
0100
1000
0010
1000
,
0100
1000
1000
1000
0100
0001
0011
0001
,
0101
0001
1001
0001
0101
0001
0011
0001
,
0101
0001
0001
1010
0101
1010
1001
1000
,
0100
0000
0010
0000
0001
0000
0001
0000
1000
0100
0000
0000
0001
0010
0000
0000
,
0101
0000
1010
0000
,
0101
0000
1010
0000
,
1001
2000
3100
0010
0001
0010
0001
0010
,
0000
1000
0100
0010
,
0001
0011
0010
0100
,
1000
0100
0210
0310
,
0001
0010
0100
0010
,
0100
2000
3100
1000
,
0100
0010
0001
1001
,
1000
0000
0000
0000
,
1001
0000
0011
0000
,
0010
0100
0010
0000
,
0010
0001
0010
0000
,
0100
1000
0100
0010
,
0100
0010
0002
0023
,
0130
0010
0002
0000
,
0000
0000
0000
0023
,
0000
0000
0200
0030
,
0000
0000
0002
0300
,
0000
0000
0000
0020
,
0003
0000
0000
0000
,
0000
1030
1000
1000
,
1000
0100
0100
0100
,
0100
0010
0010
0010
,
0010
0001
0001
0001
,
0001
1000
1000
1000
,
1000
0001
0001
0001
,
0001
1000
1000
1000
,
0100
0100
0100
0020
,
0030
0010
0000
0200
,
0300
0000
0100
0000
0000
1000
0000
0100
,
0000
0010
0000
0001
0000
0000
0000
0001
,
0000
0000
0000
0010
0000
0000
0000
0100
,
0000
0000
0000
2002
3003
0000
0000
0011
,
0000
0000
0000
1100
0000
0000
0000
0101
,
0000
0000
0000
0010
0000
0000
0000
0100
,
0000
0000
0000
1000
0000
0000
0000
0010
,
1001
0000
0000
0000
;

//---------------dance-single - ----------------
#NOTES:
     dance-single:
     :
     Beginner:
     5:
     0.385,1.000,0.276,0.223,0.000,207.000,26.000,21.000,0.000,0.000:
1000
0000
1000
0000
,
0100
0000
0010
0000
,
0001
0000
0010
0000
,
0100
0000
1000
0000
,
0100
0000
0010
0000
,
0001
0000
0011
0000
,
0101
0000
0001
0010
,
0000
0000
0000
1000
,
0100
0000
0000
0000
,
0010
0100
0000
0000
,
0000
1001
0000
0110
,
0000
1001
0000
0210
,
0300
0001
0000
0010
,
0000
0100
0000
1000
,
0000
0100
0000
0010
,
0000
0001
0000
0000
,
0000
0002
0003
0000
,
0000
0010
0000
0000
,
0000
0100
0000
0000
,
0000
1000
0000
0000
,
0000
0100
0000
0010
,
0001
0001
0000
0000
,
1000
1000
0100
0100
,
0010
0010
0001
0001
,
0000
1001
0000
0000
,
0000
0110
0000
0000
,
0000
0100
0000
0000
,
0000
1000
0000
0000
,
0000
0100
0000
0000
,
0000
1000
0000
0000
,
0000
0000
0010
0000
,
0000
0001
0000
0001
,
0000
0020
0030
0100
,
0000
1000
0100
0010
,
0001
0000
0000
0000
,
2000
3000
0000
0000
,
0000
0000
0000
0000
,
0100
0000
0000
0000
,
0000
0000
0000
0000
,
0010
0000
0000
0000
,
0001
0000
0010
0000
,
0100
0000
1000
0000
,
0010
0000
0001
0000
,
0010
0000
0100
0000
,
1001
1001
0001
0010
,
0100
1000
0100
1000
,
0100
0000
0010
0000
,
0001
0000
0010
0000
,
0010
0000
0010
0000
,
0100
0000
1000
0000
,
0100
0000
0010
0000
,
0001
0000
0001
0000
,
0001
0000
1000
0100
,
0010
0000
0010
0000
,
0001
0000
0001
0000
,
0110
0000
0000
0000
,
1001
0000
0011
0000
,
0010
0000
0100
0000
,
0110
1000
0100
0010
0001
0010
0001
0010
,
0001
0000
0010
0010
0100
0100
0010
0100
,
0110
0001
1000
0000
1000
0000
0100
0000
,
0010
0001
0001
1001
,
1000
0001
0001
0101
,
0010
0100
1000
0100
,
0010
0010
0010
0001
,
0010
0010
0100
0001
,
0010
1000
0100
1000
,
0100
0010
0002
0023
,
0032
0013
0000
0100
,
0010
0010
0010
0010
,
0110
1000
0100
0010
,
0001
0001
0001
0010
,
0100
0002
1003
0100
,
0010
0001
0000
2001
,
3000
1002
0003
0000
,
0001
0000
1000
0000
,
0000
0000
0100
0000
,
0000
0000
0010
0000
,
1001
0000
0000
0000
,
1001
0000
0000
0000
,
0001
0000
0000
0000
,
0010
0000
0000
0000
,
0001
0000
0000
0000
,
0200
0300
0000
0000
,
1000
0000
0000
0000
,
0200
0300
0000
0000
,
0020
0000
0000
0000
,
0230
0000
0000
0000
,
0320
0000
0000
0000
,
0032
0000
0000
0000
,
2003
0000
0000
0000
,
3100
0000
0000
0000
,
0010
0000
0000
0000
,
0001
0000
0000
0000
,
0200
0300
0000
0000
,
1000
0000
0000
0000
,
0002
0003
0000
0000
,
0010
0000
0000
0000
,
1001
0000
0000
0000
,
1001
0000
2002
3003
,
0001
0010
0100
1000
,
0000
0000
0000
0000
,
0000
0000
0000
0000
,
0000
0000
0000
0000
,
0000
0000
0000
0000
,
1001
0000
0000
0000
;

//---------------dance-single - ----------------
#NOTES:
     dance-single:
     :
     Challenge:
     14:
     0.913,1.000,1.000,0.170,0.000,484.000,103.000,16.000,0.000,2.000:
0000
0000
0000
0000
,
0000
0000
0000
0000
,
0000
0000
0000
0000
0000
0000
0000
1100
,
0000
0001
0202
0303
,
0100
1000
0010
1000
,
0100
1000
0001
0100
,
0010
1000
0100
1000
,
0001
0100
0010
1000
,
0100
1000
0001
0100
,
0010
1000
0100
1000
,
0001
0100
0010
1000
,
0100
0100
0100
0100
,
0100
1000
0001
0100
,
0010
1000
0100
0010
,
0001
0000
0010
0000
0001
0010
0001
0000
,
1000
0100
1000
0010
,
0100
0000
0001
0100
0001
0000
1000
0000
,
0100
1000
0010
0100
,
0001
0100
0001
0000
0100
0000
0001
0000
,
0001
0001
0001
0001
,
1000
0100
1000
0010
,
1000
0100
1000
0010
,
1000
0100
1000
0010
,
0100
0001
0010
0001
,
0100
0010
1000
0100
,
1000
0001
0100
0010
,
1000
0010
1000
0010
,
1000
0000
0010
0000
1000
0000
0010
1000
,
0010
1000
0001
0100
,
0010
0000
1000
0000
0100
0000
0010
0001
,
0010
0001
1000
0010
,
1000
0000
0100
0000
1000
0000
0001
1000
,
0001
1000
0100
1000
,
0010
0000
1000
0000
0010
0000
1000
0100
,
1000
0100
1000
0001
,
0100
0010
1000
0110
,
1001
0001
0100
0000
,
0010
1000
0110
0000
,
1000
0001
0000
0001
,
0100
0010
0000
1000
,
0100
0000
0100
1000
,
0001
0100
0010
1000
,
0100
1000
0001
0100
,
0010
1000
0100
1000
,
0001
1000
0100
0000
1000
0001
0100
0000
,
0010
1000
0000
0100
0100
0100
0000
0100
,
1000
0000
0001
1000
,
0001
0000
0000
0000
0000
0100
0010
0000
,
1000
0000
0100
1000
,
0001
0100
0010
1000
,
0100
1000
0100
0000
,
1100
1100
1100
0000
,
0101
0101
0000
0101
,
0101
0101
0000
1100
,
1100
0000
1010
1100
,
1010
1001
1010
1100
,
1010
1001
1010
1100
,
1010
1001
1010
1100
,
2010
0000
0000
0000
,
3000
0101
1100
0101
2200
0000
0000
0000
,
0000
0000
0000
0000
3000
0322
0000
0000
,
0030
2203
0000
0000
0000
0000
0000
0000
,
0000
3300
2020
3030
0110
0101
0101
0101
,
1100
1100
0101
0101
0101
0101
0101
0101
,
1100
1100
1100
1100
1100
1100
1010
1010
,
1010
1010
0110
0110
0101
0101
0101
0101
,
0101
1100
1010
0110
0011
0110
1100
1100
,
1100
0101
0101
1100
1100
0101
1100
0101
,
1100
1010
0110
0101
1100
1100
1100
0101
,
0110
1100
1100
1100
1100
0011
0011
0110
,
0100
1000
0001
1000
0010
1000
0001
1000
,
0010
1000
0001
1000
0100
1000
0110
0100
,
0001
0010
0100
1000
0010
1000
0001
0100
,
0010
1000
0100
1000
1100
0001
0100
0010
,
1000
0100
1000
0001
0100
0010
0100
0001
,
0010
0100
1000
0010
1010
0010
0100
0001
,
0010
0100
1000
0010
0100
0001
0010
0100
,
1000
0010
0100
0001
0101
0001
1000
0100
,
0000
1000
0001
1000
0010
0100
1000
0000
,
0001
1000
0100
1000
,
0001
1000
0100
1000
0001
0000
1000
0000
,
0010
1000
0001
0100
,
0010
1000
0100
1000
0001
0000
1000
0000
,
0010
0000
0100
0000
0001
0000
0000
0010
,
0100
1000
0100
0000
1100
0000
1000
0000
,
0001
0100
0010
1000
,
0100
1000
0001
0100
0010
0000
0000
1000
,
0000
0100
1000
0001
0100
0000
0010
0000
,
1000
0100
1000
0100
1000
0000
0000
0001
,
1000
0100
0010
1000
0001
0000
0000
0001
,
0100
0100
1000
0010
0001
0000
1000
0000
,
0100
1000
0100
0000
1000
0000
0100
0000
,
1000
0100
1000
0000
0000
0001
1000
0010
,
0001
0100
0001
0000
0000
0100
0000
0001
,
1000
1100
0100
1000
,
0010
1000
0010
0000
1000
0000
0010
0000
,
0100
0001
0100
0000
0001
0000
1000
0000
,
0100
1000
0100
0000
1000
0000
0001
0000
,
0100
0001
0100
0000
0001
0000
1000
0000
,
0100
1000
0100
0000
1000
0000
0000
0001
,
0010
0100
0001
0100
0010
0001
1000
0000
,
0000
0100
1000
0100
1000
0100
1000
0100
,
0100
2000
0000
0000
0000
0000
0000
0000
,
0000
0000
0000
0000
0000
0002
0000
0000
,
0000
3000
0000
1000
0003
0100
0000
0000
,
2000
0000
0000
0000
0002
3000
0000
2000
,
0000
0000
0000
0000
0000
3003
0000
0000
;
