#TITLE:Another Night;
#SUBTITLE:(DJ Tora Vocal Mix);
#ARTIST:Morgana;
#TITLETRANSLIT:;
#SUBTITLETRANSLIT:;
#ARTISTTRANSLIT:;
#CREDIT:;
#BANNER:AnotherNightRemix-bn.png;
#BACKGROUND:AnotherNightRemix-bg.png;
#LYRICSPATH:;
#CDTITLE:;
#MUSIC:Another Night (DJ Tora Vocal Mix).ogg;
#OFFSET:-6.610;
#SAMPLESTART:87.729;
#SAMPLELENGTH:12.420;
#SELECTABLE:YES;
#BPMS:0.000=145.000;
#STOPS:;
#BGCHANGES:;
// cache tags:
#FIRSTBEAT:0.000;
#LASTBEAT:234.000;
#SONGFILENAME:Songs/lvsb tourney pack/Another Night (DJ Tora Vocal Mix)/Another Night (DJ Tora Vocal Mix).sm;
#HASMUSIC:1;
#HASBANNER:0;
#MUSICLENGTH:105.000;
// end cache tags

//---------------dance-single - ----------------
#NOTES:
     dance-single:
     :
     Challenge:
     8:
     0.513,0.516,0.019,0.029,0.133,372.000,2.000,3.000,0.000,0.000:
0010
1000
0100
0000
0001
1000
0100
0000
,
0010
0001
0100
0000
1000
0001
0100
0000
,
0010
0001
0100
0000
1000
0001
0100
0000
,
0010
1000
0100
0000
0001
1000
0100
0000
,
1000
0101
1000
0101
,
1000
0100
1000
0000
0001
0100
0001
0000
,
2000
0000
0002
0000
,
3003
0000
0000
0000
,
0000
0000
0000
0000
0000
1000
0100
0010
,
0001
0100
0001
1000
0100
1000
0010
0100
,
0000
0001
0100
0010
1000
0100
1000
0010
,
0100
0010
1000
0100
0010
0001
0100
0001
,
0010
0100
1000
0000
0010
0100
1000
0000
,
1000
0010
1000
0001
0010
0001
0100
0010
,
0000
1000
0010
0100
0001
0010
0001
0100
,
0010
0100
0001
0010
0100
1000
0010
1000
,
0100
0010
0001
0000
0100
0010
0001
0100
,
0010
0000
0010
0100
0001
0000
1000
0100
,
0000
0001
0000
0100
0000
1000
0010
0100
,
0001
0010
0100
1000
0001
0000
0100
1000
,
0000
1000
0100
0001
0000
0001
0010
0100
,
1000
0010
1000
0001
0100
0000
0100
0001
,
0000
0001
1000
0100
0000
1000
0010
0100
,
0000
0100
0001
0010
0000
0010
0100
1000
,
0000
1000
0001
0100
0000
0001
0100
1000
,
0000
1000
0100
0001
0000
0001
0010
1000
,
0000
0010
0000
0001
0000
0100
0010
1000
,
0000
1000
0100
1000
0000
1000
0100
0010
,
0000
0010
0001
1000
0000
1000
0010
0001
,
0000
0001
0010
1000
0000
1000
0100
0001
,
0000
0100
0000
1000
0000
0010
0100
0001
,
0000
0001
0010
0001
0000
0001
0010
0100
,
0000
0100
1000
0001
0000
0100
0001
0010
,
0100
0010
0001
0100
0001
0000
1000
0100
,
0000
0001
0000
0100
0000
1000
0010
0100
,
0010
0000
0010
0001
0010
0000
0010
1000
,
0000
0100
0010
1000
0000
0010
1000
0100
,
0010
0100
1000
0010
1000
0000
0001
0010
,
0000
1000
0000
0010
0000
0001
0100
0010
,
0000
0001
0100
0001
0000
1000
0010
0100
,
0000
1000
0100
1000
0000
1000
0001
0000
,
0001
0000
0100
0000
0001
0100
0000
0100
0001
0000
0010
0000
0100
0000
1000
0000
,
0001
0000
0100
0000
0001
0010
0000
0010
0100
0000
1000
0000
0001
0000
0100
0000
,
0010
0000
1000
0000
0010
1000
0000
1000
0010
0000
0100
0000
0001
0000
1000
0000
,
0100
0000
0010
0000
0001
1000
0000
1000
0100
0000
1000
0000
0001
0000
1000
0000
,
0100
0000
0010
0000
0001
0010
0000
0010
0100
0000
1000
0000
0010
0000
1000
0000
,
0001
0000
0010
0000
0100
1000
0000
1000
0010
0000
0100
0000
0001
0000
0100
0000
,
0001
0000
1000
0000
0100
0010
0000
0010
0100
0000
1000
0000
0001
0000
0100
0000
,
0010
0000
1000
0000
0001
1000
0000
1000
0100
0000
0010
0000
0001
0000
0100
0000
,
0010
0000
1000
0000
0100
0000
0000
0000
1000
0100
0000
0100
1000
0000
0100
0000
,
0001
0000
0100
1000
0000
0001
0100
0010
,
1000
0100
0000
0100
1000
0000
0010
0000
0100
0001
0000
0001
1000
0000
0100
0000
,
0010
0000
0010
0100
1000
0001
0100
0000
,
0100
0000
0001
0000
0010
0000
0000
0000
0001
0010
0000
0010
0001
0000
0010
0000
,
1000
0000
0010
0001
0000
1000
0010
0100
,
0001
0010
0000
0010
0001
0000
0100
0000
0010
1000
0000
1000
0001
0000
0010
0000
,
0100
0000
0100
0010
0001
1000
0200
0000
,
0300
0000
0000
0000
;

//---------------dance-single - ----------------
#NOTES:
     dance-single:
     :
     Easy:
     5:
     0.335,0.501,0.229,0.038,0.000,218.000,24.000,4.000,0.000,0.000:
1000
0000
0100
0000
,
0010
0000
0001
0001
,
0001
0000
1000
0100
,
0010
0010
0100
1000
,
0100
1000
0100
1000
,
0010
0100
0010
0100
,
0010
1000
0100
0010
,
1000
0100
0010
0100
,
0010
0000
2002
3003
,
1001
0100
0010
0001
,
1000
0100
1000
0001
,
1001
0010
1000
1000
,
0001
0010
0100
0010
,
1001
0100
0010
0001
,
1000
0100
0010
0100
,
1001
0001
1000
1000
,
0100
0010
0010
0100
,
1001
0000
0100
0010
0100
0010
0100
0000
,
1001
0100
0010
1000
,
1000
0100
1000
0010
,
0001
0010
1000
0010
,
0001
0100
0001
0100
,
0100
0001
1000
1000
,
0110
0001
0010
0001
,
0010
0010
0010
0100
,
0010
1000
0010
0001
,
1000
0100
0010
1000
,
1000
0001
0010
0001
,
0001
0001
0100
0001
,
0100
1000
0100
0100
,
0100
0100
1000
0010
,
0001
0010
0010
0100
,
0100
1000
0100
1000
,
0100
0100
0001
1000
,
1001
1000
0100
1000
,
0100
0001
0010
0001
,
0010
0100
0010
0010
,
0100
0100
0010
0010
,
0100
1000
1000
0010
,
1000
0001
0001
0100
,
1001
1001
1001
1001
,
1001
1001
1001
1001
,
1001
0000
0100
0100
,
0001
1000
0001
0100
,
0010
0000
0100
0100
,
0010
0001
1000
0100
,
1000
0000
0100
0100
,
1000
0001
0001
0010
,
0100
0000
0100
0100
,
1001
1001
1001
1001
,
0100
0010
0100
0010
,
1000
0010
1000
0100
,
0001
0100
0001
0010
,
1000
1000
0001
0100
,
1000
0001
0010
0001
,
0001
1000
1000
0100
,
1001
0000
0000
0000
,
0220
0000
0000
0000
,
0000
0000
0330
0000
;
