#TITLE:The legend of MAX;
#SUBTITLE:Steps by Drift;
#ARTIST:Drift;
#TITLETRANSLIT:;
#SUBTITLETRANSLIT:;
#ARTISTTRANSLIT:;
#CREDIT:;
#BANNER:The legend of MAX-banner.png;
#BACKGROUND:The legend of MAX-bg.png;
#LYRICSPATH:;
#CDTITLE:KONAMI Original.png;
#MUSIC:The legend of MAX.mp3;
#OFFSET:-0.140;
#SAMPLESTART:18.158;
#SAMPLELENGTH:12.000;
#SELECTABLE:YES;
#BPMS:0.000=333.400,334.500=83.250,343.000=332.500;
#STOPS:334.500=0.600
;
#BGCHANGES:;
// cache tags:
#FIRSTBEAT:36.000;
#LASTBEAT:480.000;
#SONGFILENAME:Songs/newbie/The legend of MAX Drift Edit/The legend of MAX.sm;
#HASMUSIC:1;
#HASBANNER:1;
#MUSICLENGTH:94.388;
// end cache tags

//---------------dance-double - ----------------
#NOTES:
     dance-double:
     :
     Easy:
     6:
     0.397,0.570,0.148,0.053,0.000,243.000,14.000,5.000,0.000,0.000:
00000000
00000000
00000000
00000000
,
00000000
00000000
00000000
00000000
,
00000000
00000000
00000000
00000000
,
00000000
00000000
00000000
00000000
,
00000000
00000000
00000000
00000000
,
00000000
00000000
00000000
00000000
,
00000000
00000000
00000000
00000000
,
00000000
00000000
00000000
00000000
,
00000000
00000000
00000000
00000000
,
00100000
00000000
01000000
00000000
,
00100000
00000000
10000000
00000000
,
01000000
00000000
00100000
00000000
,
01000000
00000000
00010000
00000000
,
00001000
00000000
00000100
00000000
,
00001000
00000000
00020000
00030000
,
00000100
00000000
00000100
00000000
,
00000100
00000000
00000010
00000000
,
00000001
00000000
00000100
00000000
,
00001000
00000000
00010000
00000000
,
00100000
00000000
10000000
00000000
,
00010000
00000000
00010000
00000000
,
10000000
00000000
01000000
00000000
,
00010000
00000000
00001000
00000000
,
00000010
00000000
00000001
00000000
,
00001000
00000000
00001000
00000000
,
00000010
00000000
00000100
00000000
,
00001000
00000000
00010000
00000000
,
01000000
00000000
00100000
00000000
,
00001000
00000000
00001000
00000000
,
00100000
00000000
01000000
00000000
,
00010000
00000000
00001000
00000000
,
00000100
00000000
00000010
00000000
,
00010000
00000000
00010000
00000000
,
00000010
00001000
00000010
00000000
,
00000100
00000000
00000100
00000000
,
00000001
00000000
00000100
00000000
,
00001000
00000000
00010000
00000000
,
00100000
00010000
00100000
00000000
,
01000000
00000000
01000000
00000000
,
10000000
00000000
01000000
00000000
,
00010000
00000000
00001000
00000000
,
00000010
00000100
00001000
00000000
,
00000001
00000000
00000100
00000000
,
00001000
00000000
00010000
00000000
,
00100000
00000000
10000000
00000000
,
01000000
00000000
10010000
00000000
,
00100000
00000000
01100000
00000000
,
00010000
00000000
00001000
00000000
,
00010000
00000000
00011000
00000000
,
00000010
00000100
00000010
00000000
,
00000000
00001000
00000000
00001000
,
00000000
00010000
00000000
00010000
,
00001000
00000000
00011000
00000000
,
00100000
01000000
00100000
00000000
,
00000000
00010000
00000000
00010000
,
00000000
00001000
00000000
00001000
,
00010000
00000000
00011000
00000000
,
00000100
00000001
00000100
00000000
,
00000000
00000010
00000000
00000010
,
00000000
00010000
00000000
00010000
,
00001000
00000000
00011000
00000000
,
01000000
10000000
01000000
00000000
,
00000000
00100000
00000000
00100000
,
00000000
00001000
00000000
00001000
,
00010000
00000000
00011000
00000000
,
00000100
00000010
00001000
00000000
,
00000000
00000100
00000000
00000010
,
00000000
00000001
00000000
00000100
,
00001000
00000000
00011000
00000000
,
01000000
00100000
00010000
00000000
,
00000000
01000000
00000000
00100000
,
00000000
10000000
00000000
01000000
,
00010000
00000000
00011000
00000000
,
00000010
00000100
00000010
00000001
,
00000000
00000100
00000000
00001000
,
00000100
00010000
00000000
01000000
,
00100000
00000000
10010000
00000000
,
10000000
01000000
11000000
00000000
,
01000000
00010000
01010000
00000000
,
00010000
00000000
00001000
00000000
,
00000010
00000000
00001000
00000000
,
00022000
00000000
00000000
00000000
,
00000000
00000000
00000000
00000000
,
00000000
00000000
00000000
00000000
00000000
00033000
00100000
00000000
,
10000000
01000000
00010000
00001000
,
00000100
00000001
00001000
00000100
,
00000010
00000001
00000000
00000100
,
00000000
00000100
00000000
00001000
,
00000000
00010000
00000000
01000000
,
00000000
00100000
00000000
10000000
,
00000000
01000000
00000000
10000000
,
00000000
00010000
00000000
10000000
,
00000000
00100000
00000000
01000000
,
00000000
00001000
00000000
00010000
,
00001000
00010000
00000000
00000100
,
00000000
00000100
00000000
00000010
,
00000000
00000001
00000000
00000100
,
00000000
00000001
00000000
00000100
,
00000010
00000100
00000000
00001000
,
00000000
00001000
00000000
00010000
,
00000000
00100000
00000000
00010000
,
00000000
00001000
00000000
00010000
,
01000000
00010000
00000000
00001000
,
00000000
00010000
00000000
01000000
,
00000000
00100000
00000000
00001000
,
00000000
00010000
00000000
00000100
,
00000000
00000010
00000000
00000001
,
00000000
00000100
00000000
00001000
,
00000000
00010000
00000000
00100000
,
00000000
10000000
00000000
01000000
,
00000000
01000000
00000000
00000000
01000000
00000000
00010000
00000000
,
00000000
00010000
00000000
00001000
,
00000000
00001000
00000000
00000000
00001000
00000000
00000100
00000000
,
00000000
00000100
00000000
00000000
00000100
00000000
00000001
00000000
,
00000000
00000001
00000000
00000000
00000001
00000000
00000010
00000000
,
00000000
00000010
00000000
00000000
00000010
00000000
00001000
00000000
,
00000000
00001000
00000000
00000000
00001000
00000000
00010000
00000000
,
00000000
00010000
00000000
00000000
00010000
00000000
00022000
00000000
,
00000000
00000000
00000000
00000000
,
00000000
00000000
00033000
00000000
;

//---------------dance-double - ----------------
#NOTES:
     dance-double:
     :
     Medium:
     9:
     0.622,0.823,0.392,0.064,0.011,368.000,37.000,6.000,0.000,0.000:
00000000
00000000
00000000
00000000
,
00000000
00000000
00000000
00000000
,
00000000
00000000
00000000
00000000
,
00000000
00000000
00000000
00000000
,
00000000
00000000
00000000
00000000
,
00000000
00000000
00000000
00000000
,
00000000
00000000
00000000
00000000
,
00000000
00000000
00000000
00000000
,
00000000
00000000
00000000
00000000
,
00100000
10000000
00010000
00000000
,
01000000
00001000
00010000
00000000
,
00000100
00000010
00000001
00000000
,
00000100
00000010
00010000
00001000
,
00000010
00000001
00001000
00000000
,
00000100
00010000
00022000
00033000
,
01000000
00100000
01000000
00100000
,
10000000
00000000
10010000
00000000
,
01000000
00010000
01000000
00010000
,
00001000
00010000
00001000
00010000
,
00000100
00000010
00000100
00000010
,
00000001
00000000
00000000
00000001
00000000
00000000
00000001
00000000
,
00000100
00001000
00000100
00001000
,
00010000
00001000
00010000
00001000
,
01000000
00100000
01000000
00100000
,
10000000
00000000
00000000
10000000
00000000
00000000
10000000
00000000
,
01000000
00010000
01000000
00100000
,
00001000
00010000
00000100
00010000
,
00001000
00000010
00000100
00001000
,
00000001
00000000
00000000
00000001
00000000
00000000
00000001
00000000
,
00000100
00001000
00000100
00000010
,
00010000
00001000
01000000
00001000
,
00010000
00100000
01000000
00010000
,
10000000
00000000
00000000
10000000
00000000
00000000
10000000
00000000
,
01000000
00010000
00001000
00010000
,
00001000
00000010
00000100
00000001
,
00000100
00001000
00000001
00000100
,
00000001
00000000
00000000
00000001
00000000
00000000
00000001
00000000
,
00000100
00001000
00010000
00000100
,
00010000
00100000
01000000
10000000
,
01000000
00010000
10000000
01000000
,
10000000
00000000
00000000
10000000
00000000
00000000
10000000
00000000
,
01000000
00010000
00001000
00000010
,
00000100
00010000
00001000
00100000
,
01000000
00010000
00001000
00000010
,
00000001
00000000
00000000
00000001
00000000
00000000
00000001
00000000
,
00000100
00001000
00001100
00000000
,
00001000
00010000
00011000
00000000
,
01000000
00100000
01000000
00100000
,
01000000
00000000
10010000
00000000
,
10000000
01000000
10000000
00000000
,
00000000
01000000
00000000
00010000
,
00000000
00010000
00001000
00010000
,
00001000
00000000
00000110
00000000
,
00000001
00000100
00000001
00000000
,
00000000
00000100
00000000
00001000
,
00000000
00001000
00010000
00001000
,
00010000
00000000
01100000
00000000
,
10000000
01000000
10000000
00010000
,
00000000
01000000
00000000
00001000
,
00000000
00010000
00001000
00010000
,
00000100
00000000
00000110
00000000
,
00000001
00000100
00000001
00001000
,
00000000
00000100
00000000
00010000
,
00000000
00001000
00010000
00001000
,
01000000
00000000
01100000
00000000
,
00100000
00001000
00010000
00000000
,
00000000
00001000
00000000
01000000
,
00000000
00010000
00100000
00001000
,
00010000
00000000
00000110
00000000
,
00000010
00010000
00001000
00000000
,
00000000
00010000
00000000
00000100
,
00000000
00001000
00000010
00010000
,
00001000
00000000
01100000
00000000
,
00010000
10000000
01000000
00100000
,
00000000
00001000
00000000
00010000
,
00000000
00000100
00000010
00000001
,
00001000
00000000
00000101
00000000
,
00000001
00000100
00000101
00000000
,
00000100
00001000
00001100
00000000
,
00001000
00010000
00001000
00010000
,
00100000
01000000
00100000
01000000
,
20020000
00000000
00000000
00000000
,
00000000
00000000
00000000
00000000
,
00000000
00000000
00000000
00000000
00000000
30030000
00000001
00000000
,
00000010
00000000
00000000
00000100
00000100
00000000
00000000
00000000
00000010
00000000
00000000
00000000
00000001
00000000
00000000
00000000
,
00000100
00000000
00000000
00001000
00001000
00000000
00010000
00000000
00100000
00000000
01000000
00000000
00010000
00000000
00000000
00000000
,
10000000
00010000
01000000
00100000
,
10000000
01000000
00010000
00001000
,
00000010
00000100
00000010
00000001
,
00000100
00001000
00000100
00000010
,
00001000
00000100
00000010
00000001
,
00000100
00001000
00010000
00001000
,
00010000
00100000
10000000
01000000
,
00100000
00010000
01000000
00100000
,
10000000
01000000
00010000
00001000
,
00000010
00000000
00000100
00001000
00000100
00000000
00000010
00000000
,
00000001
00000100
00001000
00010000
,
00100000
00000000
01000000
00010000
01000000
00000000
00100000
00000000
,
10000000
01000000
00100000
00001000
,
00010000
00000000
00000100
00000010
00000100
00000000
00000010
00000000
,
00000001
00000100
00000010
00010000
,
00001000
00000000
01000000
00100000
01000000
00000000
00010000
00000000
,
10000000
01000000
00100000
00001000
,
00010000
00000000
00000010
00000100
00000001
00000000
00001000
00000000
,
00000001
00000100
00000010
00010000
,
00001000
00000000
00100000
01000000
10000000
00000000
00010000
00000000
,
00010000
01000000
01000000
00100000
,
00100000
00010000
00010000
00001000
,
00001000
00000100
00000100
00000010
,
00000010
00001000
00001000
00001100
,
00000000
00001001
00000000
00000000
00001010
00000000
00000100
00000000
,
00000000
00000100
00000000
00010010
,
00000000
00011000
00000000
00000000
00010100
00000000
00011000
00000000
,
00000000
00101000
00000000
00000000
01100000
00000000
11000000
00000000
,
00000000
10010000
00000000
00000000
01010000
00000000
01001000
00000000
,
00000000
00011000
00000000
00000000
00010010
00000000
00001010
00000000
,
00000000
00000110
00000000
00000000
00000101
00000000
00000110
00000000
,
00000000
00001010
00000000
00000000
00010010
00000000
00022000
00000000
,
00000000
00000000
00000000
00000000
,
00000000
00000000
00033000
00000000
;

//---------------dance-double - ----------------
#NOTES:
     dance-double:
     :
     Hard:
     10:
     0.828,1.000,0.604,0.064,0.064,484.000,57.000,6.000,0.000,0.000:
00000000
00000000
00000000
00000000
,
00000000
00000000
00000000
00000000
,
00000000
00000000
00000000
00000000
,
00000000
00000000
00000000
00000000
,
00000000
00000000
00000000
00000000
,
00000000
00000000
00000000
00000000
,
00000000
00000000
00000000
00000000
,
00000000
00000000
00000000
00000000
,
00000000
00000000
00000000
00000000
,
00100000
10000000
00100000
01000000
,
00001000
01000000
00001000
01000000
,
00001000
00010000
00001000
00010000
,
00000100
00010000
00000100
00010000
,
00001000
00010000
00100000
00010000
,
00001000
00010000
00022000
00033000
,
00100000
10000000
00010000
01000000
,
00100000
00000000
10000000
00000000
00010000
01000000
00010000
01000000
,
00001000
00100000
00010000
00100000
,
00001000
00000000
00010000
00000000
00000100
00010000
00000100
00000000
,
00001000
00000001
00000100
00000010
,
00010010
00000000
00000000
00001010
00000000
00000000
00010100
00000000
,
00010000
00000010
00001000
00000010
,
00010000
00000000
00001000
00000000
01000000
00001000
01000000
00000000
,
00010000
10000000
01000000
00100000
,
00101000
00000000
00000000
00110000
00000000
00000000
01010000
00000000
,
00001000
01000000
00010000
01000000
,
00001000
00000000
00010000
00000000
00000010
00010000
00000010
00000000
,
00001000
00000001
00000010
00000100
,
00010100
00000000
00000000
00011000
00000000
00000000
00001100
00000000
,
00010000
00000100
00001000
00000100
,
00010000
00000000
00001000
00000000
00100000
00001000
00100000
00000000
,
00010000
10000000
00100000
01000000
,
01001000
00000000
00000000
00011000
00000000
00000000
01010000
00000000
,
00100000
00000000
10000000
00000000
00100000
01000000
00100000
00000000
,
01000000
00000000
00001000
00000000
00010000
00001000
00010000
00000000
,
00000100
00000000
00001000
00000000
00000001
00000010
00000001
00000000
,
00000001
00001000
00000000
00001000
00000010
00000000
00001100
00000000
,
00000010
00000000
00000001
00000000
00000010
00000100
00000010
00000000
,
00000100
00000000
00010000
00000000
00001000
00010000
00001000
00000000
,
01000000
00000000
00010000
00000000
10000000
00010000
10000000
00000000
,
10000000
00010000
00000000
00010000
00100000
00000000
01010000
00000000
,
00100000
00000000
10000000
00000000
01000000
00100000
01000000
00000000
,
00100000
00000000
00001000
00000000
00010000
00000100
00010000
00000000
,
00000010
00000000
00001000
00000000
00000001
00000100
00000001
00000000
,
00001000
00000100
00000000
00000100
00000010
00000000
00001001
00000000
,
00000010
00010000
00001000
00000000
00010000
00000000
01001000
00000000
,
01000000
00001000
00010000
00000000
00001000
00000000
00010010
00000000
,
00001000
01000000
00100000
10000000
,
01000000
10000000
01000000
00000000
00100000
00010000
00100000
00010000
,
10000000
01000000
10000000
00000000
,
01000000
00100000
00000000
00101000
,
00000000
00001000
00010000
00000100
,
00000110
00000000
00000011
00000000
,
00000001
00000100
00000001
00000000
,
00000100
00000010
00000000
00010010
,
00000000
00010000
00001000
01000000
,
01100000
00000000
10010000
00000000
,
00100000
00000000
10000000
00010000
10000000
00000000
00000000
00000000
,
01000000
00101000
00000000
00011000
,
00000000
00000000
00010000
00000100
00010000
00000000
00000010
00000000
,
00001010
00000000
00000101
00000000
,
00000010
00000000
00000001
00001000
00000001
00000000
00000000
00000000
,
00000100
00010010
00000000
00011000
,
00000000
00000000
00001000
01000000
00001000
00000000
00100000
00000000
,
00110000
00000000
10010000
00000000
,
00100000
00000000
00001000
00010000
00001000
00000000
00000000
00000000
,
00010000
00000000
00000100
00001000
00000100
00000000
00000110
00000000
,
00000000
00000000
00000010
00000001
00000010
00000000
00000011
00000000
,
00001001
00000000
00001100
00000000
,
00000010
00000000
00010000
00001000
00010000
00000000
00000000
00000000
,
00001000
00000000
01000000
00010000
01000000
00000000
01100000
00000000
,
00000000
00000000
00100000
10000000
00100000
00000000
10100000
00000000
,
10010000
00000000
01010000
00000000
,
00100000
00000000
10000000
01000000
10000000
00000000
01000000
00000000
,
00100000
00000000
00001000
00010000
00001000
00000000
00010000
00000000
,
00000100
00000000
00000010
00000001
00000010
00000000
00001000
00000100
,
00000010
00000000
00010100
00000000
,
00000010
00000000
00000001
00000010
00000001
00000000
00001000
00000000
,
00000100
00000000
00010000
00001000
00010000
00000000
00001000
00000000
,
00100000
00000000
00010000
10000000
00010000
00000000
01000000
00100000
,
10000000
01000000
10000000
00000000
00010000
00100000
00010000
00000000
,
00022000
00000000
00000000
00000000
,
00000000
00000000
00000000
00000000
,
00000000
00000000
00000000
00000000
00000000
00000000
00000000
00000000
00000000
00000000
00000000
00000000
00000000
00000000
00000000
00000000
00000000
00000000
00000000
00000000
00000000
00033000
00000000
00000000
00000100
00000000
00000000
00000010
00000000
00000000
00000001
00000000
,
00000000
00000000
00000000
00000000
00000000
00000000
00000100
00000000
00000100
00000000
00000000
00000000
00000000
00000000
00001000
00000000
00001000
00000000
00000000
00010000
00000000
00000000
00100000
00000000
01000000
00000000
00000000
10000000
00000000
00000000
00100000
00000000
,
00000000
00000000
00000000
00000000
00000000
00000000
01000000
00000000
01000000
00000000
00000000
00000000
00000000
00000000
00001000
00000000
00001000
00000000
00000000
00010000
00000000
00000000
00000100
00000000
00000010
00000000
00000000
00000000
00000000
00000000
00000000
00000000
,
00000001
00001000
00010000
00100000
,
10000000
00000000
00010000
10000000
01000000
00000000
00010000
00000000
,
00001000
00010000
00000100
00000010
,
00000001
00000000
00000100
00001000
00000100
00000000
00010000
00000000
,
00100000
00000000
10000000
01000000
10000000
00000000
01000000
00000000
,
00010000
00000000
00001000
00010000
00001000
00000000
00000010
00000000
,
00000001
00000000
00001000
00000001
00000100
00000000
00001000
00000000
,
00010000
00000000
01000000
00100000
00001000
00000000
00010000
00000000
,
00100000
10000000
00100000
00000000
10000000
01000000
10000000
00000000
,
01000000
00010000
01000000
00000000
00010000
00001000
00010000
00000000
,
00001000
00000010
00001000
00000000
00000010
00000001
00000010
00000000
,
00000001
00000100
00000010
00000000
00010000
00001000
00010000
00000000
,
00100000
10000000
01000000
00000000
00100000
00001000
00010000
00000000
,
00001000
00000010
00000100
00000000
00001000
00000001
00000100
00000000
,
00001000
00010000
00100000
00000000
00010000
00100000
01000000
00000000
,
00100000
10000000
01000000
00000000
01000000
00010000
00001000
00000000
,
00001000
00000010
00000001
00000000
00001000
00000100
00000010
00000000
,
00000001
00000100
00000010
00000000
00010000
00001000
00010000
00000000
,
00100000
10000000
00100000
00000000
01000000
00010000
10000000
00000000
,
01000000
00010000
00001000
00000000
00010000
00001000
00000010
00000000
,
00000001
00000100
00000010
00000000
00010000
00001000
00010000
00000000
,
00000100
00000010
00000001
00000000
00000100
00001000
00010000
00000000
,
00001000
00010000
00100000
00000000
10000000
01000000
00100000
00001000
,
00010000
00100000
01000000
00001000
00010000
00000000
00011000
00000000
,
00000000
01001000
00000000
00000000
00110000
00000000
00100000
00000000
,
00000000
00010000
01000000
00000000
01010000
00000000
10100000
00000000
,
00000000
00100000
00001000
00000000
00011000
00000000
00010100
00000000
,
00000000
00001000
00000100
00000000
00000011
00000000
00001001
00000000
,
00000000
00000100
00000001
00000000
00010010
00000000
00011000
00000000
,
00000000
00000100
01000000
00000000
01010000
00000000
00100000
10000000
,
00000000
10000000
01000000
00000000
00101000
00000000
00010000
00000100
,
00000000
00000100
00000010
00000000
00000011
00000000
00002002
00000000
,
00000000
00000000
00000000
00000000
,
00000000
00000000
00003003
00000000
;

//---------------dance-single - ----------------
#NOTES:
     dance-single:
     :
     Challenge:
     13:
     1.000,1.000,1.000,0.138,0.069,654.000,304.000,13.000,0.000,19.000:
0000
0000
0000
0000
,
0000
0000
0000
0000
,
0000
0000
0000
0000
,
0000
0000
0000
0000
,
0000
0000
0000
0000
,
0000
0000
0000
0000
,
0000
0000
0000
0000
,
0000
0000
0000
0000
,
0000
0000
0000
0000
,
0100
0001
1000
0000
0001
0000
0010
0000
,
1000
0100
1000
0000
0001
0000
0100
0000
,
0001
0100
0010
0000
1000
0000
0010
0000
,
1100
0110
0011
0110
1100
1001
0011
0110
,
1100
1100
0110
0011
1001
1001
1001
1001
,
1001
0000
2222
0000
,
0000
0000
0000
0000
,
3333
0000
0000
0100
0011
1000
0110
0001
,
1010
0011
0100
0010
1000
0010
0001
1100
,
0100
0010
1000
0001
1000
0010
0100
1000
,
0001
1000
0010
0000
0000
0000
1001
0000
,
0011
0000
0110
1100
0110
0000
1001
1001
,
0010
1000
0100
0001
0010
1000
0010
0100
,
1000
0001
0100
0010
1000
0010
0001
0100
,
0001
0100
0010
1000
0100
0000
1001
0000
,
0110
1011
1101
0000
0111
0000
1110
0000
,
0110
0000
0001
1000
0010
0100
0001
1000
,
0100
1000
0010
0001
1000
0100
1000
0001
,
0010
1000
0001
0010
1000
1000
0110
0000
,
1100
0011
0110
0101
1010
0000
1001
0000
,
1001
0000
0001
0110
1100
0000
0011
0100
,
0010
1000
0001
0100
1000
0001
0100
1000
,
2002
0003
0000
0020
0000
0030
0000
0000
,
0110
0011
0110
0000
0101
0110
0011
0000
,
3101
0000
1000
0100
0010
1000
0001
0100
,
0100
0000
1000
0001
0100
0000
1001
0000
,
0101
0000
1001
0110
0000
0000
1001
0000
,
1011
0000
0110
1100
0011
0000
1001
0000
,
1001
0000
0010
1000
0001
0100
0010
1000
,
0001
0100
1000
0001
0100
0010
1101
0000
,
1100
0110
0011
0110
,
1001
0100
0010
0100
1000
0010
0100
0010
,
1001
1100
0010
1000
0001
0100
1000
0020
,
1030
0100
0001
0100
1000
0001
0100
1000
,
1001
0110
1010
1000
0001
0100
0001
0101
,
1001
1010
0011
1010
0011
0110
1001
0000
,
1001
0000
0000
0000
0000
1001
0110
1001
,
1001
0000
0110
0000
1000
0010
1000
0001
,
1001
0110
1001
0110
,
1001
0000
0000
1000
0001
0100
0001
1000
,
1001
1001
1001
0000
,
1001
0000
0110
0000
1001
0000
0110
1001
,
0110
1001
0110
0011
1100
0110
0011
0000
,
1001
0000
1001
0000
,
1001
0110
0011
1100
1001
0000
0000
0000
,
1001
0110
1001
0000
1111
0000
1001
1000
,
0110
0000
1001
0110
1001
0010
0100
0001
,
1001
0000
1001
0000
,
1001
0110
0011
1100
1001
0000
0000
0000
,
1010
0000
0011
1100
0001
1000
0010
0100
,
1001
0000
0011
0000
1001
0011
1100
0110
,
0110
0000
1001
0100
1000
1001
0000
0000
,
0101
0011
0100
0000
1001
0000
0000
0000
,
1010
0110
0011
0000
1010
0000
1001
0000
,
0110
1000
1001
0000
1001
0100
0001
1000
,
1001
1001
0000
0000
0000
0000
0000
0000
,
1001
0011
1010
0000
,
1010
0101
0011
1001
0110
1001
1100
0101
,
0011
1010
1100
0011
1001
0110
1001
0100
,
0110
0000
1001
0000
,
1001
1010
0101
1001
1100
0000
0000
0000
,
1001
0110
0011
1100
,
0000
0000
1001
0110
0101
0000
1001
0000
,
1001
0000
0000
0000
,
0110
1000
0011
0001
1100
0101
0110
1000
,
0001
0100
1000
0100
0001
0010
0100
0010
,
1000
0100
0001
0010
0100
0001
1000
0100
,
0001
0010
0100
0001
1000
0100
0001
1010
,
1001
1001
1001
0000
,
1001
0110
1001
0000
,
0110
0011
1100
0110
0011
1100
0110
0000
,
0110
0101
0010
1000
0100
0001
0100
0000
,
0202
0000
0000
0000
,
0000
0000
0000
0000
,
0000
0000
0000
0000
0000
0000
0000
0000
0000
0000
0000
0000
0000
0000
0000
0303
0000
0000
1000
0000
0010
0000
0001
0000
,
0000
0000
0000
0000
0000
0000
0000
0000
0000
1000
0000
0000
1001
0000
0000
0000
0000
0000
0000
0000
1001
0000
0010
0000
1010
0000
0000
0000
0001
0000
0000
0000
1000
0000
0000
0000
0001
0000
0000
0000
1000
0000
0000
0000
0000
0001
0000
0000
,
0000
0000
0000
0000
0000
0000
0000
0000
0000
1010
0000
0000
0101
0000
0000
0000
0000
0000
0000
0000
0000
1000
0000
0000
1000
0000
0000
0000
0001
0000
0000
0000
0000
0001
0000
0000
0000
0000
0000
0000
0000
0000
1000
0000
0000
0000
0000
0000
,
0100
0001
0100
1000
0001
1000
0001
0100
,
0001
0010
1000
0001
0100
1000
0001
0100
,
0010
0001
1000
0001
1010
0001
0100
1000
,
0001
1100
0001
0100
0001
0100
0010
1000
,
0001
1000
0010
0100
1000
0001
0100
0010
,
0001
1000
0010
0100
1000
0001
0100
0001
,
1000
0010
0100
0001
1000
0001
0100
0001
,
0011
1100
0111
0110
1100
0011
1100
0011
,
0100
0110
0110
0001
1000
0001
1110
0011
,
1100
0110
0100
1100
0011
1100
0110
0001
,
1100
1100
0110
0011
1100
0011
1100
0011
,
1100
0110
0110
0011
1100
0110
0011
1110
,
0011
0110
1000
0100
0021
1130
0001
0100
,
1000
0001
0100
1000
0001
0000
0100
0010
,
1000
0001
0100
0010
1000
0001
0100
1000
,
0001
0100
0000
1010
0001
1000
1000
0001
,
0100
0010
1000
0001
0100
0010
0001
1000
,
0100
0101
0010
0001
1000
0010
1000
0001
,
1000
0101
0100
1000
0001
1000
0100
0010
,
0001
1000
0100
0001
0100
1000
0001
0100
,
1000
0001
0100
1000
0001
0100
1000
0001
,
1000
0001
0100
0001
0010
1000
0100
0001
,
0010
1000
1000
0100
0001
0001
0100
0001
,
1000
0100
0001
0010
0001
1000
0010
0000
,
0000
1001
0000
0000
1001
0000
0011
0000
,
1001
0000
0011
0110
1001
0000
1001
0000
,
0110
0011
0110
0000
0011
0000
0110
0000
,
1100
0000
0011
0000
0110
0000
0011
0110
,
1100
0000
0110
1100
0011
0000
0110
0000
,
1100
0011
0110
0000
0011
0000
1100
0110
,
0011
0000
0110
1100
1100
0000
0011
0000
,
0110
0011
1100
0000
0110
0011
2020
0000
,
0000
0000
0000
0000
,
0000
0000
0000
0000
,
3030
0000
0000
0000
;
