#TITLE:Zzanga;
#SUBTITLE:;
#ARTIST:Kim Gun Mo;
#TITLETRANSLIT:;
#SUBTITLETRANSLIT:;
#ARTISTTRANSLIT:;
#CREDIT:;
#BANNER:Zzanga - banner.png;
#BACKGROUND:Zzanga - bg.png;
#LYRICSPATH:;
#CDTITLE:;
#MUSIC:Zzanga.mp3;
#OFFSET:-4.790;
#SAMPLESTART:18.530;
#SAMPLELENGTH:15.000;
#SELECTABLE:YES;
#BPMS:0.000=108.000;
#STOPS:;
#BGCHANGES:;
// cache tags:
#FIRSTBEAT:0.000;
#LASTBEAT:212.000;
#SONGFILENAME:Songs/newbie/Zzanga/Zzanga.sm;
#HASMUSIC:1;
#HASBANNER:1;
#MUSICLENGTH:127.634;
// end cache tags

//---------------dance-single - ----------------
#NOTES:
     dance-single:
     :
     Hard:
     6:
     0.311,0.394,0.125,0.039,0.000,257.000,16.000,5.000,0.000,0.000:  // measure 1
1000
0100
0010
0001
1000
0100
0010
0001
,  // measure 2
1000
0100
0010
0001
1000
0100
0010
0000
,  // measure 3
0001
0010
0100
1000
0001
0010
0100
1000
,  // measure 4
0001
0010
0100
1000
0001
0010
0100
0000
,  // measure 5
1000
0001
0010
0100
,  // measure 6
1000
0001
0010
0100
,  // measure 7
1000
0100
0010
0100
,  // measure 8
1000
0100
0010
0100
,  // measure 9
0010
0001
0010
0100
,  // measure 10
0010
0001
0010
0100
,  // measure 11
0100
0100
1000
1000
,  // measure 12
0010
0010
0001
0001
,  // measure 13
0010
1000
0100
0001
,  // measure 14
0010
1000
0100
0001
,  // measure 15
0010
0001
0100
1000
,  // measure 16
0010
0001
0100
1000
,  // measure 17
0001
0100
1000
0100
,  // measure 18
0001
0100
1000
0100
,  // measure 19
0010
1000
0010
0001
,  // measure 20
1000
0100
0001
0100
1000
0000
1001
0000
,  // measure 21
0010
0001
0010
1000
,  // measure 22
0010
0000
0001
0000
0010
1000
0010
0000
,  // measure 23
0001
0100
1000
0010
,  // measure 24
1000
0000
0001
0000
0100
0001
1000
0000
,  // measure 25
1000
0100
0010
0001
0010
0100
1000
0100
,  // measure 26
0010
0001
0010
0100
1000
0100
0010
0000
,  // measure 27
0010
1000
0100
0001
0010
0100
1000
0100
,  // measure 28
0001
0010
0100
1000
0001
0100
0001
0000
,  // measure 29
1000
0010
0100
0001
1000
0010
0100
1000
,  // measure 30
0001
0100
0010
0100
1001
1001
0110
0000
,  // measure 31
1000
0100
0001
0100
0010
1000
0001
0100
,  // measure 32
0010
0010
1000
1000
0001
1000
1100
0000
,  // measure 33
0001
0000
0000
0000
,  // measure 34
1000
0000
0000
0000
,  // measure 35
0100
0000
0000
0000
,  // measure 36
0010
0000
0000
0000
,  // measure 37
0100
0000
0000
0000
,  // measure 38
0001
0000
0000
0000
,  // measure 39
1000
0000
0000
0000
,  // measure 40
0000
0100
0000
0000
0000
0000
0000
0000
,  // measure 41
0000
0010
0000
0000
0010
0000
0010
0000
,  // measure 42
1001
0100
1001
0010
,  // measure 43
1001
0100
1001
0010
,  // measure 44
1000
0100
1000
0010
0100
0001
1000
0010
,  // measure 45
0100
0100
0001
0001
1000
1000
0010
0000
,  // measure 46
1000
0100
0001
0100
0010
0001
1000
0010
,  // measure 47
0100
0001
1000
0010
0100
1001
1001
0000
,  // measure 48
1000
0100
0010
0001
0010
0100
0001
0100
,  // measure 49
0010
1000
0100
0010
0001
1001
1001
0000
,  // measure 50
0002
0100
0100
0100
,  // measure 51
2003
0000
0100
0000
0100
0000
0100
3000
,  // measure 52
0020
0000
1000
0000
1000
0000
1000
0030
,  // measure 53
1000
0001
0100
0010
1001
1001
0220
0000
,  // measure 54
0330
0000
0000
0000
;

//---------------dance-single - ----------------
#NOTES:
     dance-single:
     :
     Easy:
     3:
     0.228,0.332,0.086,0.102,0.000,180.000,11.000,13.000,0.000,0.000:  // measure 1
1000
0001
1000
0001
,  // measure 2
1000
0001
1000
0001
,  // measure 3
0010
0100
0010
0100
,  // measure 4
0010
0100
0010
0100
,  // measure 5
2000
0000
3000
0000
,  // measure 6
0002
0000
0003
0000
,  // measure 7
0020
0000
0030
0000
,  // measure 8
0200
0000
0300
0000
,  // measure 9
1000
0100
1000
0100
,  // measure 10
0010
0001
0010
0001
,  // measure 11
0001
0100
0001
0100
,  // measure 12
1000
0100
1000
0100
,  // measure 13
0001
0000
0010
0000
,  // measure 14
0100
0000
1000
0000
,  // measure 15
1000
0000
0100
0000
,  // measure 16
0010
0000
0001
0000
,  // measure 17
1000
0100
1000
0100
,  // measure 18
0010
0001
0010
0001
,  // measure 19
0001
0010
0100
1000
,  // measure 20
1000
0100
0010
0001
,  // measure 21
1000
0100
0010
0001
,  // measure 22
0001
0010
0100
0010
,  // measure 23
1000
0100
0010
0100
,  // measure 24
1000
0100
0010
1000
,  // measure 25
0100
0010
0100
1000
,  // measure 26
0100
0001
0010
0010
,  // measure 27
0010
0001
0100
1000
,  // measure 28
0010
0001
0100
1000
,  // measure 29
1001
0110
1100
0011
,  // measure 30
0101
0101
1010
0001
,  // measure 31
0100
0010
1000
0001
,  // measure 32
0100
0000
0010
0000
1000
0001
1000
0000
,  // measure 33
0002
0000
0000
0000
,  // measure 34
0000
0000
0000
0003
,  // measure 35
2000
0000
0000
0000
,  // measure 36
0000
0000
0000
3000
,  // measure 37
0000
0200
0000
0000
0000
0000
0000
0000
,  // measure 38
0000
0020
0000
0000
0000
0000
0000
0000
,  // measure 39
0330
2002
0000
0000
0000
0000
0000
0000
,  // measure 40
3003
0200
0000
0000
,  // measure 41
0000
0000
0310
0010
,  // measure 42
1001
0100
0010
0100
,  // measure 43
1001
0001
1000
0001
,  // measure 44
1000
0000
0100
0010
0100
0000
0001
0000
,  // measure 45
0100
0000
1000
0100
1000
0000
0001
0000
,  // measure 46
1000
0010
0001
0100
,  // measure 47
0001
0010
1000
0100
,  // measure 48
1000
0001
1000
0000
0010
0000
0100
0000
,  // measure 49
1000
0100
1000
0000
0001
0000
0010
0000
,  // measure 50
0100
0001
0100
0000
0010
1000
0010
0000
,  // measure 51
1000
0001
1000
0000
0001
0100
0001
0000
,  // measure 52
1000
0100
0010
0001
0010
0100
0001
0100
,  // measure 53
0010
1000
0100
0001
0100
1000
2002
0000
,  // measure 54
3003
0000
0000
0000
;
