#TITLE:Pure Ruby;
#SUBTITLE:;
#ARTIST:Shiki;
#TITLETRANSLIT:;
#SUBTITLETRANSLIT:;
#ARTISTTRANSLIT:;
#CREDIT:;
#BANNER:purebanner.bmp;
#BACKGROUND:pureruby.bmp;
#LYRICSPATH:;
#CDTITLE:!cartoonTitle.png;
#MUSIC:Pure Ruby.mp3;
#OFFSET:-0.720;
#SAMPLESTART:19.440;
#SAMPLELENGTH:11.500;
#SELECTABLE:YES;
#BPMS:0.000=178.000,12.000=355.999,12.750=178.000,13.000=355.999,13.750=178.000,14.000=355.999,14.750=178.000;
#STOPS:12.000=0.120
,13.000=0.120
,14.000=0.120
;
#BGCHANGES:;
// cache tags:
#FIRSTBEAT:0.000;
#LASTBEAT:380.000;
#SONGFILENAME:Songs/Definitive Keyboard Megapack/Pure Ruby(Cartoon)/Pure Ruby.sm;
#HASMUSIC:1;
#HASBANNER:1;
#MUSICLENGTH:133.674;
// end cache tags

//---------------dance-single - Pure Ruby----------------
#NOTES:
     dance-single:
     Pure Ruby:
     Hard:
     12:
     1.000,1.000,1.000,0.561,1.000,898.000,330.000,75.000,0.000,159.000:

1101
0000
1000
0000
0110
0001
1000
0100
0010
0001
1000
0001
0110
0000
0100
0000
,
1011
0000
0010
0000
1100
0001
0010
1000
0100
0001
1000
0100
0011
0000
0100
0000
,
1110
0000
0001
0000
0110
0001
0010
0001
0100
0010
0001
1000
0110
0000
0101
0000
,
1020
0030
0000
0000
0000
0000
0000
0000
0201
0300
0000
0000
0000
0000
0000
0000
0021
0030
0000
0000
0000
0000
0000
0000
0110
0000
1001
0000
0010
0000
0000
0000
,
0220
0000
0000
0000
0330
0000
0000
0000
0001
0100
0010
0001
1000
0010
0100
1000
,
0210
0300
0001
0120
0030
1001
0110
0101
,
2020
0000
0000
0000
0000
0000
0000
0000
0000
0000
0000
0000
0000
0000
0000
0000
0000
0000
3030
0000
0000
0000
0000
0000
1000
0000
0000
0010
0000
0000
0100
0000
0000
0010
0000
0000
1000
0000
0000
0010
0000
0000
0100
0000
0000
0010
0000
0100
,
1002
0000
0113
0021
0030
1100
0202
0303
,
1200
0000
0000
0000
0300
0000
0000
0000
0001
0010
0100
0010
0100
1000
0001
0010
,
1200
0000
1310
0102
0000
0003
0120
0030
,
1101
0010
0001
0010
0101
0010
0001
1000
0110
1000
0001
0010
1100
0010
0001
1000
,
0111
1000
0100
0010
0101
1000
0001
0010
0101
0010
0100
1000
0110
1000
0001
1000
,
0220
0000
0000
0000
,
0000
0000
0000
0000
0000
0000
0000
0030
,
1311
0100
0110
0010
0110
0010
1100
0100
,
1011
0000
0000
0100
0000
0000
0011
0000
0000
0100
0000
0000
0011
0000
1100
0000
0011
0000
0110
0000
1001
0000
0110
0000
,
0011
0001
0110
0010
0110
0100
1011
0100
,
1101
0010
0110
1000
0111
0100
1110
0010
,
0111
0001
1010
1011
1100
0010
1110
0100
,
1101
0100
1001
1011
1100
0010
0111
1000
,
1011
0100
0011
0100
1010
0001
0111
1101
,
1110
0010
0011
0010
1011
0010
0110
1010
,
1101
1000
1001
0100
1001
0010
0110
0100
,
1011
0000
0000
0100
0000
0000
1001
0000
0000
1000
0000
0000
0011
0000
1100
0000
0011
0000
0110
0000
1001
0000
0110
0000
,
0011
0100
1001
0001
1010
0100
0111
1000
,
1101
0010
1001
0100
0111
1000
0111
0010
,
1110
0100
1001
1110
0110
0010
1101
0100
,
1011
0100
0011
0111
1100
1000
1011
0100
,
1101
0010
1001
0100
0011
0100
1101
1101
,
1011
0001
1001
0001
0111
0001
1001
0001
,
0111
0010
1110
0111
1000
1011
0111
1011
,
0111
1000
1011
1101
1000
1011
0111
1101
,
2110
0000
3121
0000
1231
1321
0000
1132
,
0000
0000
2113
0000
0000
0000
3211
0000
0000
0000
1312
0000
0103
0010
0100
0010
,
1102
0000
0000
0000
0003
0121
0000
1132
,
0000
2113
0000
3112
0000
1213
2311
3121
,
2131
0011
0100
0110
,
0001
0110
0100
0011
,
3011
0100
1000
0011
0100
1000
0011
0100
1000
0011
0100
1000
0011
0000
0110
0000
,
1100
0000
0000
1100
0000
0000
1100
0000
0011
0000
0110
0000
1001
0000
0110
0000
,
1100
0010
0001
1100
0010
0001
1100
0010
0001
1100
0010
0001
1000
0000
0100
0000
,
0011
0100
0000
0011
0100
0000
0011
0000
1100
0010
0000
1100
0010
0000
1100
0000
,
0111
1000
0100
0010
0001
0010
0100
1000
0100
0010
0100
1000
0100
0010
0001
0010
,
1101
0010
0001
0010
0100
1000
0100
0010
1101
0010
0100
1000
0111
1000
0010
0100
,
1011
0100
0010
0001
0010
0100
0010
0001
1110
0001
0010
0100
0010
0100
0001
1000
,
0111
1000
0100
0010
0001
1000
0100
0010
1101
0010
0100
0010
0001
0010
0100
0010
,
1100
0010
0001
1100
0010
0001
1100
0010
0001
1100
0010
0001
1100
0000
0011
0000
,
1100
0000
0000
1100
0000
0000
1100
0000
0110
0000
1100
0000
0011
0000
1100
0000
,
0011
0100
1000
0011
0100
1000
0011
0100
1000
0011
0100
1000
0001
0000
0100
0000
,
0101
0010
0000
0101
0010
0000
0101
0000
1010
0100
0000
1010
0100
0000
1010
0000
,
0111
1000
0100
0010
0001
0010
0100
1000
0100
0010
0100
1000
0100
0010
0100
0001
,
1110
0001
0010
0100
1000
0100
0010
0100
1011
0100
0010
0100
1011
0100
0001
0010
,
1101
0010
0001
0010
0100
1000
0100
0001
1110
0001
0010
0100
0010
0100
0010
1000
,
0111
1000
0100
0010
0001
1000
0010
0100
1011
0100
0010
0001
0010
0100
0010
0001
,
2100
0011
0000
0011
,
3000
0000
0000
0211
0000
0000
1321
0000
1132
0000
1213
0000
,
2311
0101
0000
0101
,
3121
0000
0000
2131
0000
0000
3121
0000
,
1232
1010
0000
1010
,
2313
0000
0000
3112
0000
0000
1213
0000
,
1321
0000
0000
1132
0000
0000
0110
0000
,
1013
0110
0011
1001
,
2101
0011
0110
0110
,
0011
0000
0000
0000
0000
0000
0000
0000
0000
0000
0000
0000
3211
0000
0000
0000
0000
0000
0000
0000
0000
0300
0000
0000
1201
0000
0000
0000
0000
0000
0000
0000
1321
0000
0000
0000
0030
0000
0000
0000
1021
0000
0000
0000
0030
0000
0000
0000
,
1201
1001
1010
1010
,
1321
0000
0000
2131
0000
0000
3112
0000
,
2123
0101
0101
0101
,
3231
0000
0000
0000
0000
0000
2312
0000
0000
0000
0000
3000
2213
0000
0000
0000
,
3322
0000
0000
0000
0000
0003
1231
0000
0000
0000
0000
0000
1321
0000
0000
0030
,
1120
0101
1100
0101
,
0031
0001
0001
0001
0001
0000
0010
0010
0010
0010
0010
0000
1000
1000
1000
1000
,
0010
0010
0010
0010
0010
0000
0001
0001
0001
0001
0001
0000
0100
0100
0100
0100
,
0010
0010
0010
0010
0010
0000
0010
0010
0010
0010
0010
0000
1000
1000
1000
1000
,
0100
0100
0100
0100
0100
0000
0001
0001
0001
0001
0001
0000
0100
0100
0100
0100
,
0001
0001
0001
0001
0001
0000
0010
0010
0010
0010
0010
0000
1000
1000
1000
1000
,
0100
0100
0100
0100
0100
0000
0010
0010
0010
0010
0010
0000
0001
0001
0001
0001
,
0100
0100
0100
0100
0100
0000
0010
0010
0010
0010
0010
0000
0001
0001
0001
0001
,
0010
0010
0010
0010
0010
0000
0100
0100
0100
0100
0100
0000
0010
0010
0010
0010
,
1100
0010
0001
1100
0010
0001
1100
0010
0001
1100
0010
0001
1000
0000
0100
0000
,
0011
0000
0000
0011
0000
0000
0011
0000
0110
0000
1100
0000
0110
0000
0011
0000
,
0011
0100
1000
0011
0100
1000
0011
0100
1000
0011
0100
1000
0010
0000
0100
0000
,
1001
0010
0000
1001
0010
0000
1001
0000
0110
0001
0000
0110
0001
0000
0110
0000
,
1110
0001
0010
0100
0010
0100
0010
0100
1000
0100
0010
0100
1000
0100
0010
0001
,
1110
0001
0010
0100
0010
0100
1000
0100
1011
0100
0010
0100
1011
0100
0001
0010
,
1101
0010
0001
0010
0100
1000
0010
0100
1011
0100
0010
0001
0010
0100
0010
0001
,
1110
0001
0010
0001
0010
0100
0010
1000
0111
1000
0100
0010
0100
0010
0001
0000
,
0011
0100
1000
0011
0100
1000
0011
0100
1000
0011
0100
1000
0010
0000
0100
0000
,
0110
0000
0000
0110
0000
0000
0110
0000
0011
0000
0110
0000
1100
0000
0110
0000
,
1100
0010
0001
1100
0010
0001
1100
0010
0001
1100
0010
0001
0010
0000
0100
0000
,
1100
0010
0000
1100
0010
0000
1100
0000
1100
0010
0000
1100
0010
0000
1100
0000
,
0111
1000
0100
0010
0100
0010
0100
1000
0100
0010
0001
0010
0100
0010
0100
0001
,
1110
0001
0010
0100
1000
0100
0010
0100
1011
0100
0001
0100
1011
0100
0010
0001
,
1110
0001
0010
0100
1000
0100
0010
0001
1110
0001
0010
0100
1000
0100
0010
1000
,
0111
1000
0100
0010
0001
1000
0100
0001
1110
0001
0010
0100
0010
0001
0010
0100
,
2020
0000
0000
0000
,
3030
0000
0000
0000
;
