#TITLE:As Do I;
#SUBTITLE:;
#ARTIST:Prophecy;
#TITLETRANSLIT:;
#SUBTITLETRANSLIT:;
#ARTISTTRANSLIT:;
#CREDIT:;
#BANNER:asdoi-bn.png;
#BACKGROUND:asdoi-bg.png;
#LYRICSPATH:;
#CDTITLE:cdtitle.png;
#MUSIC:Prophecy - As Do I.mp3;
#OFFSET:-0.058;
#SAMPLESTART:103.145;
#SAMPLELENGTH:15.130;
#SELECTABLE:YES;
#BPMS:0.000=130.000,156.000=65.000,158.000=130.000;
#STOPS:;
#BGCHANGES:;
// cache tags:
#FIRSTBEAT:0.000;
#LASTBEAT:287.500;
#SONGFILENAME:Songs/Keyboard Collaboration II/Zaghurim - As Do I/As Do I.sm;
#HASMUSIC:1;
#HASBANNER:1;
#MUSICLENGTH:134.243;
// end cache tags

//---------------dance-single - ----------------
#NOTES:
     dance-single:
     :
     Hard:
     10:
     0.907,0.883,0.462,0.007,1.000,789.000,62.000,1.000,0.000,0.000:  // measure 1
0100
0000
0000
0100
0000
0000
0100
0010
,  // measure 2
0001
0000
0100
0000
0010
0000
0001
0000
0010
0000
0000
0000
0100
0000
0001
0010
,  // measure 3
0100
0000
1000
0000
0001
0010
0100
0000
1000
0000
0000
0000
0100
0000
0010
0000
,  // measure 4
0001
0100
0010
0001
0010
0000
0100
0000
,  // measure 5
1000
0000
0000
0000
0000
0000
0100
0010
,  // measure 6
0001
0000
0100
0000
0010
0000
0001
0000
0010
0000
0000
0000
0100
0000
0001
0010
,  // measure 7
0100
0000
1000
0000
0001
0010
0100
0000
1000
0000
0000
0000
0100
0000
0010
0000
,  // measure 8
0001
0100
0010
0001
0010
0000
0100
0000
,  // measure 9
1000
0000
0000
0000
0000
0000
0100
0010
,  // measure 10
0001
0000
0100
0000
0010
0000
0001
0000
0010
0000
0000
0000
0100
0000
0001
0010
,  // measure 11
0100
0000
1000
0000
0001
0010
0100
0000
1000
0000
0000
0000
0100
0000
0010
0000
,  // measure 12
0001
0100
0010
0001
0010
0000
0100
0000
,  // measure 13
1000
0001
1000
0000
0001
1000
0001
0000
1000
0010
1000
0000
0001
0100
0001
0000
,  // measure 14
0010
1000
0010
0000
0100
0001
0100
0000
0100
1000
0010
0000
0010
0001
0100
0000
,  // measure 15
0001
1000
0010
0000
0010
1000
0001
0000
0100
0001
1000
0000
0010
1000
0001
0000
,  // measure 16
0100
0010
0001
0000
0001
0010
0100
0000
0100
1000
0100
0000
0100
0010
0100
0000
,  // measure 17
0010
0000
1000
0001
1000
0010
1000
0000
0001
0000
1000
0001
0100
0000
0100
0000
,  // measure 18
0100
0000
0001
1000
0001
0100
0001
0000
1000
0000
0001
1000
0010
0000
0010
0000
,  // measure 19
0100
0000
0001
0010
0001
0100
0001
0000
0010
0000
0001
0010
1000
0000
1000
0000
,  // measure 20
1000
0000
0100
0010
0100
1000
0100
0000
0010
0000
0100
0010
0001
0000
0001
0000
,  // measure 21
0100
1000
0001
0010
0001
0100
0001
0000
0010
1000
0001
0010
1000
0001
1000
0000
,  // measure 22
1000
0001
0100
0010
0100
1000
0100
0000
0010
0001
0100
0010
0001
1000
0001
0000
,  // measure 23
0010
0001
1000
0100
1000
0010
1000
0000
0100
0001
1000
0100
0001
1000
0001
0000
,  // measure 24
0001
1000
0010
0100
0010
0001
0010
0000
0100
1000
0010
0100
1000
0001
1000
0000
,  // measure 25
0110
0000
1000
0001
0000
0010
1000
0100
0010
0000
0100
0010
0101
0000
0010
0000
,  // measure 26
1001
0000
0010
0100
0000
1000
0010
0001
0100
0000
1000
0100
0011
0000
0100
0000
,  // measure 27
1001
0000
1000
0001
0000
0010
1000
0100
0010
0000
0100
0010
0101
0000
0100
0000
,  // measure 28
1001
0000
0010
0100
0000
1000
0010
0001
0100
0000
0100
0010
0101
0000
1000
0000
,  // measure 29
1001
0000
0100
0010
0000
0001
0100
1000
0001
0000
1000
0001
1010
0000
0001
0000
,  // measure 30
0110
0000
0001
1000
0000
0100
0001
0010
1000
0000
0100
1000
0011
0000
1000
0000
,  // measure 31
0110
0000
0100
0010
0000
0001
0100
1000
0001
0000
1000
0001
1010
0000
1000
0000
,  // measure 32
0110
0000
0001
1000
0000
0100
0001
0010
1000
0000
1000
0001
1010
0000
0100
0000
,  // measure 33
1001
0000
0100
0010
0000
0010
0100
1000
0100
0000
0100
1000
0110
0000
0010
0000
,  // measure 34
0110
0000
0010
0100
0000
0100
1000
0100
0010
0000
0010
0100
0011
0000
0010
0000
,  // measure 35
0110
0000
0010
0001
0100
0001
0010
0000
1001
0000
0100
1000
0110
0000
0100
0000
,  // measure 36
1001
0000
0000
0010
0100
0010
0000
0010
1001
0000
0000
0000
1000
0100
0000
0010
,  // measure 37
0101
0000
0010
1000
0000
1000
0010
0100
0010
0000
0010
0100
1010
0000
1000
0000
,  // measure 38
1010
0000
1000
0010
0000
0010
0100
0010
1000
0000
1000
0010
1001
0000
1000
0000
,  // measure 39
1010
0000
1000
0001
0010
0001
1000
0000
0101
0000
0010
0100
1010
0000
0010
0000
,  // measure 40
1001
0000
0000
0000
0000
0000
0010
0000
0000
0000
0000
0000
0000
0010
0000
0010
1001
0000
0100
0000
0010
0000
0000
0000
1000
0000
0100
0000
0010
0000
0001
0000
,  // measure 41
1000
0100
0010
0000
1000
0100
0010
0001
0100
0010
1000
0010
0100
0001
0100
0010
,  // measure 42
0100
0010
1000
0010
0100
0001
0100
0010
0001
0010
0100
0000
0001
0010
0100
1000
,  // measure 43
0001
0010
0100
0000
0001
0010
0100
1000
0010
0100
0001
0100
0010
1000
0010
0100
,  // measure 44
0010
0100
0001
0100
0010
1000
0010
0100
1000
0100
0010
0000
0100
0010
1000
0001
,  // measure 45
0100
0010
1000
0000
0100
0010
1000
0001
0010
1000
0100
1000
0010
0001
0010
1000
,  // measure 46
0010
1000
0100
1000
0010
0001
0010
1000
0100
0001
1000
0000
0100
0001
1000
0010
,  // measure 47
0100
0001
1000
0000
0100
0001
1000
0010
0001
1000
0100
1000
0001
0010
0001
1000
,  // measure 48
0001
1000
0100
1000
0001
0010
0001
1000
0010
1000
0001
0000
0010
1000
0001
0100
,  // measure 49
0010
1000
0001
0000
0010
1000
0001
0100
1000
0001
0010
0001
1000
0100
1000
0001
,  // measure 50
1000
0001
0010
0001
1000
0100
1000
0001
0100
0001
1000
0000
0010
1000
0100
0010
,  // measure 51
1000
0100
0010
0000
1000
0100
0001
0010
0100
0001
1000
0010
0100
1000
0100
0010
,  // measure 52
0100
1000
0100
1000
0010
0100
0010
1000
0001
0010
0100
0000
0001
0010
0100
1000
,  // measure 53
0001
0010
0100
0000
0001
0010
0100
1000
0010
0100
0001
0100
0010
1000
0010
0100
,  // measure 54
0010
0100
0001
0100
0010
1000
0010
0100
1000
0100
0010
0000
1000
0100
0010
0001
,  // measure 55
1000
0100
0010
0000
1000
0100
0010
0001
0100
0010
1000
0010
0100
0001
0100
0010
,  // measure 56
0100
0010
1000
0010
0100
0001
0100
0010
1001
0000
0100
0010
0001
0010
1100
0000
,  // measure 57
0100
1000
0011
0100
0010
0000
1010
0000
0101
0000
1000
0100
0010
0001
0110
0000
,  // measure 58
0010
0001
1100
0010
0001
1010
0000
0000
1001
0000
0001
0100
0010
0100
1010
0000
,  // measure 59
0010
0100
0011
0000
0110
0000
1000
0001
0110
0000
1000
0100
0001
0010
0101
0000
,  // measure 60
0000
0000
0001
0010
0100
1000
0100
0000
0110
0000
1000
0100
0001
0010
1100
0000
,  // measure 61
0010
0000
1100
0000
0010
0000
0101
0000
1010
0000
1000
0010
0001
0010
0101
0010
,  // measure 62
0100
0000
1010
0001
0010
0101
0000
1000
0011
0000
1000
0100
0001
0010
0101
0000
,  // measure 63
0000
0000
1100
0000
0011
0000
0000
0000
1010
0000
0100
0010
0001
0010
1001
0000
,  // measure 64
0010
0000
1000
0100
0001
0010
0100
0000
1000
0001
0100
0000
0001
1000
0100
0010
,  // measure 65
0100
0001
0010
0000
1000
0100
0000
0100
0010
0001
0010
0000
0010
0100
0000
0100
,  // measure 66
1000
0100
0010
0000
0010
0001
0000
0001
0010
0100
1000
0000
1000
0100
0000
0100
,  // measure 67
0010
0001
0010
0000
1000
0100
0000
0100
0010
0001
0010
0000
0010
0001
0000
0001
,  // measure 68
0010
0100
1000
0000
1000
0100
0000
0100
0010
0000
0000
0000
0000
0000
0000
0000
,  // measure 69
0000
0000
0100
0010
0001
0000
0010
0001
,  // measure 70
0010
0000
0000
0000
0100
0000
0000
0001
0010
0000
0100
0000
0000
0000
0000
0000
,  // measure 71
0000
0000
0100
0010
0001
0000
0010
0001
,  // measure 72
0010
0000
0100
0000
2000
0000
0000
3000
;
