#TITLE:Ice Capped;
#SUBTITLE:(Ultimate Mix);
#ARTIST:winKoneR;
#TITLETRANSLIT:;
#SUBTITLETRANSLIT:;
#ARTISTTRANSLIT:;
#CREDIT:;
#BANNER:BN.PNG;
#BACKGROUND:BG.PNG;
#LYRICSPATH:;
#CDTITLE:ov1_title.png;
#MUSIC:Ice Capped (Ultimate Mix).mp3;
#OFFSET:1.214;
#SAMPLESTART:82.000;
#SAMPLELENGTH:29.999;
#SELECTABLE:YES;
#BPMS:0.000=35.000,25.000=140.000;
#STOPS:;
#BGCHANGES:;
// cache tags:
#FIRSTBEAT:0.875;
#LASTBEAT:881.000;
#SONGFILENAME:Songs/Owenviau1 Simfiles 4/Ice Capped (Ultimate Mix) [owenviau1]/Ice Capped (Ultimate Mix).sm;
#HASMUSIC:1;
#HASBANNER:1;
#MUSICLENGTH:414.928;
// end cache tags

//---------------dance-single - ----------------
#NOTES:
     dance-single:
     :
     Challenge:
     10:
     0.846,0.770,1.000,0.166,0.386,1798.000,589.000,69.000,0.000,4.000:

0000
0000
0000
0000
0000
0000
0000
2000
0000
0000
0000
3020
0000
0000
0000
0230
0000
0000
0000
0302
0000
0000
0000
2003
0000
0000
0000
3200
0000
0000
0000
0320
,
0000
0000
0000
0000
0000
0000
0000
0032
0000
0000
0000
2003
0000
0000
0000
3020
0000
0000
0000
2030
0000
0000
0000
3002
0000
0000
0000
0203
0000
0000
0000
0320
,
0000
0000
0000
0000
0130
1000
0001
0000
1000
0100
0010
0000
0010
0001
0100
0000
,
0001
1000
0010
0000
1000
0001
0100
0000
1000
0001
0010
0000
0100
1000
0010
0000
,
0001
0100
0010
0000
1000
0100
0010
0000
0001
0010
0100
0000
0001
1000
0100
0000
,
0010
1000
0001
0000
1000
0100
0010
0000
0010
0001
0100
0000
1000
0001
0100
0000
,
0010
0000
1000
0000
0001
0000
1010
0100
1001
0000
0000
0000
0010
0000
1000
0000
0000
0000
1000
0000
0001
0000
0000
0000
1001
0000
0000
0000
0010
0000
0000
0000
,
1100
0000
0001
0000
0110
0000
1000
0001
0000
0001
0100
0000
1010
0000
0100
0000
,
1001
0010
0101
0100
1001
1000
0011
0010
,
0101
0000
1000
0000
0110
0000
1000
0001
0000
0001
1000
0000
0110
0000
1000
0000
,
0101
0000
0010
0000
1001
0000
1000
0010
0000
0010
0100
0000
0101
0000
0010
0000
,
1100
0000
0001
0000
0110
0000
0001
1000
0000
0010
1000
0000
0110
0000
0001
0000
,
1100
0010
0110
0001
1010
0100
1001
0001
,
1010
0000
0001
0000
0110
0000
1000
0010
0000
0001
1000
0000
0110
0000
0001
0000
,
1010
0000
0100
0000
1001
0000
1000
0001
0000
0001
1000
0000
0110
0000
1000
0000
,
0101
0000
0010
0000
1001
0000
1000
0010
0000
0010
0100
0000
0101
0000
0010
0000
,
1100
0001
0110
1000
0101
1000
0110
0001
,
1100
0000
0010
0000
0110
0000
0001
1000
0000
1000
0100
0000
1001
0000
0010
0000
,
1100
0000
0001
0000
0101
0000
0010
1000
0000
1000
0001
0000
1001
0000
0010
0000
,
1100
0000
0001
0000
0110
0000
1000
0001
0000
0001
0100
0000
1010
0000
0100
0000
,
1001
0010
0101
0100
1001
1000
0011
0010
,
0101
0000
1000
0000
0110
0000
1000
0001
0000
0001
1000
0000
0101
0000
0010
0000
,
2000
3002
0203
0000
,
0320
0000
0000
2030
0000
0000
3002
0000
0203
0000
0000
0000
0000
0000
0000
0000
,
0320
2030
3002
0000
,
0200
0000
0000
0000
,
2303
3002
0203
0000
,
0320
0000
0000
2030
0000
0000
3002
0000
0203
0000
0000
0000
0000
0000
0000
0000
,
0302
2003
3020
0000
,
0200
0000
0000
0000
,
1331
0000
0100
0000
1010
0000
0001
1000
0000
1000
0100
0000
1001
0000
0010
0000
,
1100
0000
0001
0000
0110
0000
1000
0001
0000
0001
0100
0000
1010
0000
0100
0000
,
1001
0010
0101
0100
1001
1000
0011
0010
,
0101
0000
1000
0000
0110
0000
1000
0001
0000
0001
1000
0000
0110
0000
1000
0000
,
0101
0000
0010
0000
1001
0000
1000
0010
0000
0010
0100
0000
0101
0000
0010
0000
,
1100
0000
0001
0000
0110
0000
0001
1000
0000
0010
1000
0000
0110
0000
0001
0000
,
1100
0010
0110
0001
1010
0100
1001
0001
,
1010
0000
0001
0000
0110
0000
1000
0010
0000
0001
1000
0000
0110
0000
0001
0000
,
1010
0000
0100
0000
1001
0000
1000
0001
0000
0001
1000
0000
0110
0000
1000
0000
,
0101
0000
0010
0000
1001
0000
1000
0010
0000
0010
0100
0000
0101
0000
0010
0000
,
1100
0001
0110
1000
0101
1000
0110
0001
,
1100
0000
0010
0000
0110
0000
0001
1000
0000
1000
0100
0000
1001
0000
0010
0000
,
1100
0000
0001
0000
0101
0000
0010
1000
0000
1000
0001
0000
1001
0000
0010
0000
,
1100
0000
0001
0000
0110
0000
1000
0001
0000
0001
0100
0000
1010
0000
0100
0000
,
1001
0010
0101
0100
1001
1000
0011
0010
,
0101
0000
1000
0000
0110
0000
1000
0001
0000
0001
1000
0000
0110
0000
0001
0000
,
1001
0000
0100
0000
0011
0000
0001
0010
0000
0100
1000
0000
1001
0000
0010
0000
,
1100
0000
0001
0000
0110
0000
1000
0001
0000
0001
0100
0000
1010
0000
0100
0000
,
1001
0010
0101
0100
1001
1000
0011
0010
,
0101
0000
1000
0000
0110
0000
1000
0001
0000
0001
1000
0000
0110
0000
1000
0000
,
0101
0000
0010
0000
1001
0000
1000
0010
0000
0010
0100
0000
0101
0000
0010
0000
,
1100
0000
0001
0000
0110
0000
0001
1000
0000
0010
1000
0000
0110
0000
0001
0000
,
1100
0010
0110
0001
1010
0100
1001
0001
,
1010
0000
0001
0000
0110
0000
1000
0010
0000
0001
1000
0000
0110
0000
0001
0000
,
1010
0000
0100
0000
1001
0000
1000
0001
0000
0001
1000
0000
0110
0000
1000
0000
,
0101
0000
0010
0000
1001
0000
1000
0010
0000
0010
0100
0000
0101
0000
0010
0000
,
1100
0001
0110
1000
0101
1000
0110
0001
,
1100
0000
0010
0000
0110
0000
0001
1000
0000
1000
0100
0000
1001
0000
0010
0000
,
1100
0000
0001
0000
0101
0000
0010
1000
0000
1000
0001
0000
1001
0000
0010
0000
,
1100
0000
0001
0000
0110
0000
1000
0001
0000
0001
0100
0000
1010
0000
0100
0000
,
1001
0010
0101
0100
1001
1000
0011
0010
,
0101
0000
1000
0000
0110
0000
1000
0001
0000
0001
1000
0000
0110
0000
0001
0000
,
1001
0110
1001
0000
,
1100
0000
0000
0110
0000
0000
0011
0000
0101
0000
0000
0000
0000
0000
0000
0000
,
1001
1100
0110
0000
,
1001
0000
0001
0010
0100
0000
1000
0100
0010
0000
0001
0100
0001
0000
1000
0010
,
1001
0101
0011
0000
,
1010
0000
0000
0110
0000
0000
0101
0000
1001
0000
0000
0000
0000
0000
0000
0000
,
0110
1100
0011
0000
,
1001
0000
0100
0010
0001
0000
0001
0010
0100
0000
1000
0100
0010
0000
0001
0100
,
1001
1100
0110
0000
,
0101
0000
0000
1010
0000
0000
0110
0000
1001
0000
0000
0000
0000
0000
0000
0000
,
1100
0011
1100
0000
,
1001
0000
1000
0100
0010
0000
0001
0100
0010
0000
1000
0010
0100
0000
0001
0100
,
0010
0000
1000
0001
0100
0000
0010
1000
0001
0000
1000
0100
0010
0000
0100
0010
,
0001
0000
0010
1000
0001
0000
0100
0001
1000
0000
0010
1000
0001
0000
0100
0001
,
0010
0000
1000
0100
0010
0000
0001
0100
0010
0000
1000
0001
0010
0000
1000
0001
,
0100
0000
1000
0100
0010
0000
0001
0100
0010
0000
1000
0001
0010
0000
1000
0100
,
1001
0000
0100
0000
0011
0000
1000
0001
0000
0001
1000
0000
0110
0000
1000
0000
,
0101
0000
0010
0000
1001
0000
1000
0010
0000
0010
0100
0000
0101
0000
0010
0000
,
1100
0001
0110
1000
0101
1000
0110
0001
,
1100
0000
0010
0000
0110
0000
0001
1000
0000
1000
0100
0000
1001
0000
0010
0000
,
1100
0000
0001
0000
0101
0000
0010
1000
0000
1000
0001
0000
1001
0000
0010
0000
,
1100
0000
0001
0000
0110
0000
1000
0001
0000
0001
0100
0000
1010
0000
0100
0000
,
1001
0010
0101
0100
1001
1000
0011
0010
,
0101
0000
1000
0000
0110
0000
1000
0001
0000
0001
1000
0000
0110
0000
1000
0000
,
1001
0000
0100
0000
1010
0000
1000
0001
0000
0001
1000
0000
0110
0000
1000
0000
,
0101
0000
0010
0000
1001
0000
1000
0010
0000
0010
0100
0000
0101
0000
0010
0000
,
1100
0001
0110
1000
0101
1000
0110
0001
,
1100
0000
0010
0000
0110
0000
0001
1000
0000
1000
0100
0000
1001
0000
0010
0000
,
1100
0000
0001
0000
0101
0000
0010
1000
0000
1000
0001
0000
1001
0000
0010
0000
,
1100
0000
0001
0000
0110
0000
1000
0001
0000
0001
0100
0000
1010
0000
0100
0000
,
1001
0010
0101
0100
1001
1000
0011
0010
,
0101
0000
1000
0000
0110
0000
1000
0001
0000
0001
1000
0000
0110
0000
0001
0000
,
2000
3002
0203
0000
,
0320
0000
0000
2030
0000
0000
3002
0000
0203
0000
0000
0000
0000
0000
0000
0000
,
0320
2030
3002
0000
,
0200
0000
0000
0000
,
2303
3002
0203
0000
,
0320
0000
0000
2030
0000
0000
3002
0000
0203
0000
0000
0000
0000
0000
0000
0000
,
0302
2003
3020
0000
,
0200
0000
0000
0000
,
1331
0110
1100
1001
,
1010
0000
0000
0110
0000
0000
0101
0000
1001
0000
0000
0000
0110
0000
0000
0000
,
1100
0000
0001
0100
0010
0000
1000
0100
0010
0000
0001
1000
0010
0000
1000
0001
,
0100
0000
0001
1000
0010
0000
0100
0001
1000
0000
0001
0010
0100
0000
1000
0010
,
0101
0000
1000
0000
1010
0000
0100
0001
0010
0000
0100
0000
1001
0000
0010
0100
,
1000
0000
0001
0000
1010
0000
1000
0001
0100
0000
1000
0000
0011
0000
1000
0001
,
0010
0000
1000
0000
0110
0000
0001
0010
0100
0000
0010
0000
1001
0000
0100
0001
,
0010
0000
0100
0000
1010
0000
0001
1000
0010
0000
1000
0000
0101
0000
1000
0001
,
0010
0000
1000
0000
0110
0000
0001
0100
0010
0000
1000
0000
1001
0000
0100
0010
,
0001
0000
0100
0000
1010
0000
1000
0001
0100
0000
0001
0000
0110
0000
1000
0100
,
0010
0000
1000
0000
0101
0000
0010
0100
0001
0000
0010
0000
1001
0000
0100
0001
,
1000
0000
0001
0000
0110
0000
1000
0001
1000
0000
0100
0000
1010
0000
0001
0010
,
0100
0000
0001
0000
1100
0000
1000
0001
0010
0000
0100
0000
0011
0000
1000
0100
,
0010
0000
1000
0000
0101
0000
0001
1000
0010
0000
1000
0000
0110
0000
0001
0100
,
0010
0000
0100
0000
1001
0000
1000
0100
0010
0000
1000
0000
0101
0000
1000
0001
,
0010
0000
0001
0000
0110
0000
1000
0100
1000
0000
0001
0000
1100
0000
0010
0100
,
0001
0000
0100
0000
1001
0000
0010
1000
0001
0000
1000
0000
0110
0000
0001
1000
,
0001
0000
0100
0000
1001
0000
0010
1000
0001
0000
0010
0000
0101
0000
1000
0100
,
0010
0000
0100
0000
1001
0000
0010
1000
0001
0000
0100
0000
0011
0000
1000
0100
,
0010
0000
0001
0000
0110
0000
0001
0010
0100
0000
1000
0000
0011
0000
0100
0000
,
1001
0000
0001
0000
0000
0000
1000
0010
1000
0000
0100
0000
0000
0000
0001
1000
,
0010
0000
0100
0000
0000
0000
0001
0010
0100
0000
1000
0000
0000
0000
0001
0100
,
0010
0000
1000
0000
0000
0000
0100
0010
0001
0000
1000
0000
0000
0000
0010
0100
,
0001
0000
1000
0000
0000
0000
0100
1000
0001
0000
0100
0000
0000
0000
0001
0100
,
0010
0000
1000
0000
0000
0000
0100
0010
0001
0000
1000
0000
0000
0000
0010
0100
,
0001
0000
1000
0000
0000
0000
0010
0100
0001
0000
1000
0000
0000
0000
1000
0100
,
0010
0000
0001
0000
0000
0000
0100
0001
1000
0000
0010
0000
0000
0000
0100
0001
,
0010
0000
1000
0000
0000
0000
1000
0100
0010
0000
0001
0000
0000
0000
0010
0100
,
1001
0100
0011
0010
1001
1000
0110
0001
,
1001
0010
0101
1000
0110
0100
1001
0001
,
0110
1000
0101
0100
1010
0001
0110
0001
,
1100
1000
0011
0001
1100
0001
0110
1000
,
0101
0010
1001
1000
0110
0001
1010
0100
,
1001
0010
0110
1000
0011
1000
0101
0010
,
1001
0100
0110
0001
1001
0010
1100
0001
,
0110
1000
0011
0100
1001
0010
0110
0001
,
1001
0100
0011
0010
1001
1000
0110
0001
,
1001
0010
0101
1000
0110
0100
1001
0001
,
0110
1000
0101
0100
1010
0001
0110
0001
,
1100
1000
0011
0001
1100
0001
0110
1000
,
0101
0010
1001
1000
0110
0001
1010
0100
,
1001
0010
0110
1000
0011
1000
0101
0010
,
1001
0100
0110
0001
1001
0010
1100
0001
,
0110
1000
0011
0100
1001
0010
0110
0001
,
1001
0100
0011
0010
1001
1000
0110
0001
,
1001
0010
0101
1000
0110
0100
1001
0001
,
0110
1000
0101
0100
1010
0001
0110
0001
,
1100
1000
0011
0001
1100
0001
0110
1000
,
0101
0010
1001
1000
0110
0001
1010
0100
,
1001
0010
0110
1000
0011
1000
0101
0010
,
1001
0100
0110
0001
1001
0010
1100
0001
,
0110
1000
0011
0100
1001
0010
0110
0001
,
2000
3002
0003
0000
2000
3002
0003
0000
2000
3002
0003
0000
2000
3002
0003
0000
,
2000
3002
0003
0000
0000
0000
0000
0000
0000
0000
0000
0000
0000
0000
0000
0000
,
1001
0000
0100
0000
1010
0000
0001
1000
0000
1000
0100
0000
1001
0000
0010
0000
,
1100
0000
0001
0000
0110
0000
1000
0001
0000
0001
0100
0000
1010
0000
0100
0000
,
1001
0010
0101
0100
1001
1000
0011
0010
,
0101
0000
1000
0000
0110
0000
1000
0001
0000
0001
1000
0000
0110
0000
1000
0000
,
0101
0000
0010
0000
1001
0000
1000
0010
0000
0010
0100
0000
0101
0000
0010
0000
,
1100
0000
0001
0000
0110
0000
0001
1000
0000
0010
1000
0000
0110
0000
0001
0000
,
1100
0010
0110
0001
1010
0100
1001
0001
,
1010
0000
0001
0000
0110
0000
1000
0010
0000
0001
1000
0000
0110
0000
0001
0000
,
1010
0000
0100
0000
1001
0000
1000
0001
0000
0001
1000
0000
0110
0000
1000
0000
,
0101
0000
0010
0000
1001
0000
1000
0010
0000
0010
0100
0000
0101
0000
0010
0000
,
1100
0001
0110
1000
0101
1000
0110
0001
,
1100
0000
0010
0000
0110
0000
0001
1000
0000
1000
0100
0000
1001
0000
0010
0000
,
1100
0000
0001
0000
0101
0000
0010
1000
0000
1000
0001
0000
1001
0000
0010
0000
,
1100
0000
0001
0000
0110
0000
1000
0001
0000
0001
0100
0000
1010
0000
0100
0000
,
1001
0010
0101
0100
1001
1000
0011
0010
,
0101
0000
1000
0000
0110
0000
1000
0001
0000
0001
1000
0000
0110
0000
0001
0000
,
1001
0000
0100
0000
0011
0000
0001
0010
0000
0100
1000
0000
1001
0000
0010
0000
,
1100
0000
0001
0000
0110
0000
1000
0001
0000
0001
0100
0000
1010
0000
0100
0000
,
1001
0010
0101
0100
1001
1000
0011
0010
,
0101
0000
1000
0000
0110
0000
1000
0001
0000
0001
1000
0000
0110
0000
1000
0000
,
0101
0000
0010
0000
1001
0000
1000
0010
0000
0010
0100
0000
0101
0000
0010
0000
,
1100
0000
0001
0000
0110
0000
0001
1000
0000
0010
1000
0000
0110
0000
0001
0000
,
1100
0010
0110
0001
1010
0100
1001
0001
,
1010
0000
0001
0000
0110
0000
1000
0010
0000
0001
1000
0000
0110
0000
0001
0000
,
1010
0000
0100
0000
1001
0000
1000
0001
0000
0001
1000
0000
0110
0000
1000
0000
,
0101
0000
0010
0000
1001
0000
1000
0010
0000
0010
0100
0000
0101
0000
0010
0000
,
1100
0001
0110
1000
0101
1000
0110
0001
,
1100
0000
0010
0000
0110
0000
0001
1000
0000
1000
0100
0000
1001
0000
0010
0000
,
1100
0000
0001
0000
0101
0000
0010
1000
0000
1000
0001
0000
1001
0000
0010
0000
,
1100
0000
0001
0000
0110
0000
1000
0001
0000
0001
0100
0000
1010
0000
0100
0000
,
1001
0010
0101
0100
1001
1000
0011
0010
,
0101
0000
1000
0000
0110
0000
1000
0001
0000
0001
1000
0000
0110
0000
0001
0000
,
1010
0000
0001
0000
0110
0000
0001
1000
0000
1000
0100
0000
1001
0000
0010
0000
,
1100
0000
0001
0000
0110
0000
1000
0001
0000
0001
0100
0000
1010
0000
0100
0000
,
1001
0010
0101
0100
1001
1000
0011
0010
,
0101
0000
1000
0000
0110
0000
1000
0001
0000
0001
1000
0000
0110
0000
1000
0000
,
0101
0000
0010
0000
1001
0000
1000
0010
0000
0010
0100
0000
0101
0000
0010
0000
,
1100
0000
0001
0000
0110
0000
0001
1000
0000
0010
1000
0000
0110
0000
0001
0000
,
1100
0010
0110
0001
1010
0100
1001
0001
,
1010
0000
0001
0000
0110
0000
1000
0010
0000
0001
1000
0000
0110
0000
0001
0000
,
1010
0000
0100
0000
1001
0000
1000
0001
0000
0001
1000
0000
0110
0000
1000
0000
,
0101
0000
0010
0000
1001
0000
1000
0010
0000
0010
0100
0000
0101
0000
0010
0000
,
1100
0001
0110
1000
0101
1000
0110
0001
,
1100
0000
0010
0000
0110
0000
0001
1000
0000
1000
0100
0000
1001
0000
0010
0000
,
1100
0000
0001
0000
0101
0000
0010
1000
0000
1000
0001
0000
1001
0000
0010
0000
,
1100
0000
0001
0000
0110
0000
1000
0001
0000
0001
0100
0000
1010
0000
0100
0000
,
1001
0010
0101
0100
1001
1000
0011
0010
,
0101
0000
1000
0000
0110
0000
1000
0001
0000
0001
1000
0000
0110
0000
0001
0000
,
1001
0000
0100
0000
0011
0000
0001
0010
0000
0100
1000
0000
1001
0000
0010
0000
,
1100
0000
0001
0000
0110
0000
1000
0001
0000
0001
0100
0000
1010
0000
0100
0000
,
1001
0010
0101
0100
1001
1000
0011
0010
,
0101
0000
1000
0000
0110
0000
1000
0001
0000
0001
1000
0000
0110
0000
1000
0000
,
0101
0000
0010
0000
1001
0000
1000
0010
0000
0010
0100
0000
0101
0000
0010
0000
,
1100
0000
0001
0000
0110
0000
0001
1000
0000
0010
1000
0000
0110
0000
0001
0000
,
1100
0010
0110
0001
1010
0100
1001
0001
,
1010
0000
0001
0000
0110
0000
1000
0010
0000
0001
1000
0000
0110
0000
0001
0000
,
1010
0000
0100
0000
1001
0000
1000
0001
0000
0001
1000
0000
0110
0000
1000
0000
,
0101
0000
0010
0000
1001
0000
1000
0010
0000
0010
0100
0000
0101
0000
0010
0000
,
1100
0001
0110
1000
0101
1000
0110
0001
,
1100
0000
0010
0000
0110
0000
0001
1000
0000
1000
0100
0000
1001
0000
0010
0000
,
1100
0000
0001
0000
0101
0000
0010
1000
0000
1000
0001
0000
1001
0000
0010
0000
,
1100
0000
0001
0000
0110
0000
1000
0001
0000
0001
0100
0000
1010
0000
0100
0000
,
1001
0010
0101
0100
1001
1000
0011
0010
,
0101
0000
1000
0000
0110
0000
1000
0001
0000
0001
1000
0000
0110
0000
0002
0000
,
0000
0003
0000
0000
;

//---------------dance-single - ----------------
#NOTES:
     dance-single:
     :
     Hard:
     8:
     0.402,0.716,0.005,0.130,0.042,1112.000,2.000,54.000,0.000,0.000:

0000
0000
0000
0000
0000
0000
0000
2000
0000
0000
0000
3020
0000
0000
0000
0230
0000
0000
0000
0302
0000
0000
0000
2003
0000
0000
0000
3200
0000
0000
0000
0320
,
0000
0000
0000
0000
0000
0000
0000
0032
0000
0000
0000
2003
0000
0000
0000
3020
0000
0000
0000
2030
0000
0000
0000
3002
0000
0000
0000
0203
0000
0000
0000
0320
,
0000
0000
0000
0000
0130
1000
0001
0000
1000
0100
0010
0000
0010
0001
0100
0000
,
0001
1000
0010
0000
1000
0001
0100
0000
1000
0001
0010
0000
0100
1000
0010
0000
,
0001
0100
0010
0000
1000
0100
0010
0000
0001
0010
0100
0000
0001
1000
0100
0000
,
0010
1000
0001
0000
1000
0100
0010
0000
0010
0001
0100
0000
1000
0001
0100
0000
,
0010
0000
1000
0000
0001
0000
1000
0001
0100
0000
0000
0000
0000
0000
0000
0000
0010
0000
0000
0000
1000
0000
0000
0000
0001
0000
0000
0000
0000
0000
0000
0000
,
1000
0100
1000
0000
0001
0100
0010
0000
,
0001
1000
0001
0000
0010
0100
0010
0000
,
0001
1000
0001
0000
0100
0000
0010
0000
,
1000
0001
1000
0000
0100
0010
0001
0000
,
0001
0100
0010
0000
1000
0010
0100
0000
,
0001
1000
0001
0000
0100
0010
0100
0000
,
0001
0010
0100
1000
,
1000
0001
0100
0000
0100
0010
1000
0000
,
1000
0001
0010
0000
0010
0001
0100
0000
,
0100
0001
0010
0000
1000
0001
0100
0000
,
1000
0001
0010
0000
0100
0000
0001
0000
,
1000
0010
1000
0000
0100
0010
0100
0000
,
0100
0001
0100
0000
0010
0001
0010
0000
,
1000
0001
1000
0000
0100
0010
0100
0000
,
1000
0001
0100
0000
0010
0000
0001
0000
,
2000
3002
0203
0000
,
0320
0000
0000
2030
0000
0000
3002
0000
0203
0000
0000
0000
0000
0000
0000
0000
,
0320
2030
3002
0000
,
0203
0000
0000
0000
,
2300
3002
0203
0000
,
0320
0000
0000
2030
0000
0000
3002
0000
0203
0000
0000
0000
0000
0000
0000
0000
,
0302
2003
3020
0000
,
0230
0000
0000
0000
,
0301
0010
0100
0000
1000
0001
1000
0000
,
1000
0010
0100
0000
0001
0100
0001
0000
,
1000
0001
0010
0000
0100
0010
0001
0000
,
0001
0100
0010
0000
1000
0000
0001
0000
,
1000
0001
0100
0000
0100
0010
1000
0000
,
1000
0001
0010
0000
0010
0001
0100
0000
,
0100
0010
1000
0000
1000
0001
1000
0000
,
0010
0100
0010
0000
0001
0000
1000
0000
,
1000
0100
1000
0000
0010
0100
0010
0000
,
0100
0001
0100
0000
0001
0010
0001
0000
,
1000
0001
1000
0000
0010
0100
0010
0000
,
1000
0010
1000
0000
0100
0000
0010
0000
,
0001
0100
0001
0000
1000
0001
1000
0000
,
0100
0010
0100
0000
0010
0001
1000
0000
,
0010
0100
0001
0000
1000
0001
1000
0000
,
0100
0010
0001
0000
0001
0000
1000
0000
,
1000
0010
1000
0000
0100
0010
0100
0000
,
0001
0100
0001
0000
1000
0100
1000
0000
,
0010
1000
0010
0000
0010
0100
0010
0000
,
0010
0001
0010
0000
1000
0000
0001
0000
,
1000
0100
1000
0000
0001
0100
0001
0000
,
1000
0010
1000
0000
0100
0010
0100
0000
,
0001
0100
0001
0000
1000
0001
1000
0000
,
1000
0100
0001
0000
0100
0000
0010
0000
,
1000
0010
0001
0000
0001
0100
0001
0000
,
1000
0100
0001
0000
0010
0001
1000
0000
,
0100
0001
0010
0000
0010
1000
0001
0000
,
0001
0100
0010
0000
1000
0000
0001
0000
,
1000
0100
1000
0000
0001
0100
0001
0000
,
0010
0100
0010
0000
0001
1000
0100
0000
,
1000
0001
0100
0000
0010
1000
0001
0000
,
0001
1000
0100
0000
1000
0000
0001
0000
,
0100
0010
1000
0000
,
0001
0100
0010
0000
,
1000
0001
0010
0000
,
0100
0000
0000
0000
,
1000
0010
1000
0000
,
0001
0100
0001
0000
,
1000
0100
0010
0000
,
0001
0000
0000
0000
,
0100
0010
1000
0000
,
0001
0100
0010
0000
,
1000
0001
0010
0000
,
0100
0000
0000
0000
,
1000
0010
0100
0001
,
1000
1000
0100
0010
,
0001
0001
0100
0010
,
1000
0001
0100
0010
,
1000
0001
0010
0000
0100
1000
0001
0000
,
0100
0010
1000
0000
1000
0001
0010
0000
,
0100
0001
1000
0000
1000
0010
0100
0000
,
0100
0001
0010
0000
0100
0000
1000
0000
,
0001
1000
0001
0000
0100
0010
1000
0000
,
1000
0010
0100
0000
0100
0001
0010
0000
,
0010
0001
0100
0000
0100
0001
1000
0000
,
0010
0001
1000
0000
0100
0000
0010
0000
,
1000
0010
0100
0000
0001
1000
0010
0000
,
1000
0100
0010
0000
0001
1000
0100
0000
,
0010
0001
1000
0000
0100
0001
0010
0000
,
1000
0001
0100
0000
0010
0000
1000
0000
,
0001
1000
0001
0000
0010
0100
0010
0000
,
0001
0100
0001
0000
1000
0010
1000
0000
,
0100
0010
0001
0000
1000
0010
0100
0000
,
0001
1000
0010
0000
0100
0000
0001
0000
,
1000
0100
0010
0000
,
0001
0100
0010
0000
,
1000
0001
0100
0000
,
0010
0000
0000
0000
,
1000
0001
0100
0000
,
1000
0100
0010
0000
,
0001
0100
0010
0000
,
1000
0000
0000
0000
,
0001
0100
0010
1000
,
0001
0001
0010
0100
,
1000
1000
0100
0001
,
1000
0010
0100
0001
,
1001
0000
0010
0000
0100
0001
0010
0000
,
1000
0001
0010
0000
0100
0001
0010
0000
,
1000
0001
0010
0000
1000
0010
0100
0000
,
0100
0010
1000
0000
1000
0001
0010
0000
,
1000
0001
0100
0000
0010
1000
0001
0000
,
0100
0001
0010
0000
1000
0100
0001
0000
,
0001
0100
1000
0000
1000
0010
0100
0000
,
0100
0001
0010
0000
0001
0010
1000
0000
,
0001
0100
0010
0000
1000
0001
0100
0000
,
0001
0010
0100
0000
1000
0001
0100
0000
,
0010
1000
0001
0000
0100
0001
0010
0000
,
0100
1000
0001
0000
0001
0100
0010
0000
,
1000
0001
1000
0000
0100
0010
0100
0000
,
1000
0100
1000
0000
0001
0100
0001
0000
,
0010
1000
0010
0000
0100
0010
0100
0000
,
0001
0100
0001
0000
1000
0010
1000
0000
,
0200
0000
0302
0000
,
2003
0000
3200
0000
,
0320
0000
0230
0000
,
0302
0000
2003
0000
,
3200
0000
0320
0000
,
0032
0000
2003
0000
,
3020
0000
0230
0000
,
0302
0000
0000
0000
,
1003
0100
0010
0001
,
1000
0000
0001
0100
0010
0000
1000
0000
,
0100
0010
0001
1000
,
0020
1000
1000
1000
,
1030
0100
0010
0001
,
1000
0000
0001
0010
0100
0000
0001
0000
,
1000
0000
0010
1000
0001
0000
0100
0000
,
0001
0000
0010
0100
1000
0000
0001
0000
,
0100
0000
0010
0000
1000
0001
0100
0000
,
0010
1000
0001
0010
,
0100
1000
0001
0000
0100
0000
0010
0000
,
2000
0100
0001
0100
,
3001
0010
0100
1000
,
0001
0000
1000
0010
0100
0000
0001
0000
,
0100
0000
1000
0100
0001
0000
0100
0000
,
0010
0000
1000
0001
0010
0000
0100
0000
,
1000
0001
0100
0010
,
1000
0000
0000
0001
0000
0000
0010
0000
0100
0000
0000
0000
1000
0000
0000
0000
,
0001
0100
0010
1000
,
0002
0010
0010
0010
,
0013
0100
1000
0001
,
0100
0010
0010
1000
,
0001
0010
0010
0001
,
1000
0010
1000
0001
,
0010
0000
0000
0000
,
0000
0000
0000
0000
,
1000
0001
0100
0010
,
1000
0001
0010
0000
0100
0001
0010
0000
,
1000
0001
0100
0000
0010
1000
0001
0000
,
1000
0001
0010
0000
0100
0000
1000
0000
,
1000
0001
0100
0000
0100
0010
1000
0000
,
1000
0010
0100
0000
0100
0001
0010
0000
,
1000
0001
0100
0000
0010
1000
0001
0000
,
0001
0100
0010
0000
1000
0000
0100
0000
,
0001
1000
0001
0000
0100
0010
0100
0000
,
0001
0010
0001
0000
1000
0100
1000
0000
,
0010
0100
0010
0000
0001
1000
0001
0000
,
0010
0100
1000
0001
,
1000
0001
1000
0000
1000
0010
1000
0000
,
1000
0100
1000
0000
0001
0100
0001
0000
,
0001
0010
0001
0000
0100
0010
0100
0000
,
0001
0010
0100
0000
1000
0000
0001
0000
,
0100
0010
1000
0000
0001
1000
0001
0000
,
0100
0010
0100
0000
0001
0010
0001
0000
,
1000
0100
1000
0000
0010
0100
0010
0000
,
0001
0010
0001
0000
1000
0000
0001
0000
,
0100
0010
0100
0000
0001
1000
0001
0000
,
0100
0010
0100
0000
1000
0100
1000
0000
,
0001
0100
0001
0000
0010
1000
0010
0000
,
0100
0010
0100
0000
0001
0000
1000
0000
,
0100
1000
0100
0000
0001
0100
0001
0000
,
0010
0100
0010
0000
0001
1000
0001
0000
,
0100
0010
0100
0000
1000
0100
1000
0000
,
0001
0100
0001
0000
0010
0000
0100
0000
,
1000
0001
1000
0000
0100
0010
0100
0000
,
1000
0100
1000
0000
0001
0100
0001
0000
,
0010
0100
0010
0000
1000
0010
1000
0000
,
0100
1000
0100
0000
0001
0000
0100
0000
,
0010
0000
1000
0000
0001
0010
0100
0000
,
0001
1000
0001
0000
0100
0010
0100
0000
,
0001
1000
0001
0000
0010
0100
0010
0000
,
0001
1000
0010
0000
0100
0000
0001
0000
,
1000
0001
0100
0000
0010
1000
0001
0000
,
1000
0100
0010
0000
0001
0010
0100
0000
,
1000
0001
0100
0000
0010
1000
0001
0000
,
0100
0001
0010
0000
1000
0000
0100
0000
,
0001
1000
0001
0000
0100
0010
1000
0000
,
0001
0100
0010
0000
0001
1000
0001
0000
,
0010
0100
1000
0000
0001
0100
0001
0000
,
1000
0100
0010
0000
0001
0000
0100
0000
,
0010
1000
0001
0000
0100
0010
0100
0000
,
0001
0010
0100
0000
1000
0100
1000
0000
,
0010
0100
0001
0000
1000
0001
1000
0000
,
0001
1000
0010
0000
0100
0000
0001
0000
,
1000
0000
0100
0000
0010
0001
1000
0000
,
0100
0010
0100
0000
0001
1000
0001
0000
,
1000
0100
1000
0000
0010
0100
0010
0000
,
0100
0001
0100
0000
0001
0000
0010
0000
,
0100
1000
0001
0000
0100
0001
0100
0000
,
0100
0010
0100
0000
0100
1000
0100
0000
,
0100
0001
0100
0000
0100
0010
0100
0000
,
1000
0001
0100
0000
0010
0000
1000
0000
,
0001
1000
0010
0000
0010
0100
0001
0000
,
0001
0010
0100
0000
0100
1000
0100
0000
,
0100
0001
0100
0000
0100
1000
0001
0000
,
0001
0010
0100
0000
1000
0000
0001
0000
,
1000
0010
0100
0000
0001
1000
0001
0000
,
0010
0000
0100
1000
0001
0000
0100
0000
,
0010
0000
1000
0001
0010
0000
0100
0000
,
1000
0000
0001
0100
0010
0000
0100
0000
,
1001
0000
0000
0000
;
