#TITLE:Maxx DrunxX;
#SUBTITLE:;
#ARTIST:t+pazolite;
#TITLETRANSLIT:;
#SUBTITLETRANSLIT:;
#ARTISTTRANSLIT:;
#CREDIT:;
#BANNER:banner.png;
#BACKGROUND:bg.png;
#LYRICSPATH:;
#CDTITLE:../cdtitle.png;
#MUSIC:maxxdrunxx.mp3;
#OFFSET:-1.580;
#SAMPLESTART:88.760;
#SAMPLELENGTH:12.000;
#SELECTABLE:YES;
#BPMS:0.000=329.999,56.000=165.000,60.000=330.000,188.000=165.000,204.000=330.000,304.000=220.000,308.000=165.000,310.000=82.000,312.000=41.000,320.000=329.999;
#STOPS:311.500=1.760
;
#BGCHANGES:;
// cache tags:
#FIRSTBEAT:32.000;
#LASTBEAT:464.000;
#SONGFILENAME:Songs/Japanese Collaboration Mix/maxxdrunxx/maxxdrunxx.sm;
#HASMUSIC:1;
#HASBANNER:1;
#MUSICLENGTH:104.483;
// end cache tags

//---------------dance-single - ----------------
#NOTES:
     dance-single:
     :
     Hard:
     10:
     0.760,1.000,0.287,0.191,0.067,506.000,30.000,20.000,0.000,0.000:
0000
0000
0000
0000
,
0000
0000
0000
0000
,
0000
0000
0000
0000
,
0000
0000
0000
0000
,
0000
0000
0000
0000
,
0000
0000
0000
0000
,
0000
0000
0000
0000
,
0000
0000
0000
0000
,
0010
1000
0100
1000
,
0010
1000
0200
0000
,
0310
0001
0100
0001
,
0010
0001
0200
0000
,
0310
1000
0010
0001
,
0010
1000
0100
0001
,
0200
0000
0000
0000
,
1300
0000
1000
0000
0100
0010
0001
0000
,
0100
0000
0010
0000
0100
0001
0010
0000
,
0100
0000
1000
0000
0010
1000
0100
0000
,
0010
0001
0200
0000
,
0310
0000
1000
0000
0001
0010
0100
0000
,
1000
0000
0100
0000
0010
0001
0100
0000
,
0010
0000
1000
0000
0001
0010
0100
0000
,
1000
0000
0010
0000
0100
0010
0100
0010
,
1000
0000
0001
0000
0010
0100
1000
0000
,
0001
0000
0010
0000
0100
1000
0001
0000
,
0100
0000
0010
0000
1000
0001
0010
0000
,
0100
1000
2001
0000
,
3001
0000
0100
0000
0010
1000
0010
0000
,
0100
0000
0001
0000
0010
0100
0010
0000
,
0001
0000
1000
0000
0010
0100
0010
0000
,
0001
0000
0100
0010
1000
0100
1000
0001
,
0000
0000
1000
0000
0100
0010
0001
0000
,
0100
0000
0010
0000
1000
0001
0100
0000
,
0010
0000
1000
0000
0001
0010
0100
0000
,
1000
0010
0200
0000
,
0301
0000
1000
0000
0100
0010
0001
0000
,
1000
0000
0100
0000
0010
0100
1000
0000
,
0010
0000
0100
0000
0001
1000
0010
0000
,
0100
0000
0001
0000
1000
0001
1000
0001
,
1000
0000
0010
0000
0100
0001
0010
0000
,
0100
0000
1000
0000
0010
0100
0001
0000
,
1000
0000
0010
0000
1000
0100
0010
0000
,
0001
1000
0210
0000
,
0301
0000
1000
0000
0010
0100
0001
0000
,
1000
0000
0010
0000
0100
0001
1000
0000
,
0100
0000
0010
0000
0001
1000
0100
0000
,
0010
0000
0001
1000
0010
0100
0001
2000
,
0001
0001
0001
3002
,
1000
1000
1000
1003
,
0210
0000
0010
0000
0010
0000
0010
0302
,
1000
1000
1003
0210
,
0301
0001
1010
0000
,
0100
0001
0010
0110
,
0000
1000
0001
0100
,
0010
0000
0110
0000
,
0010
1000
0101
0000
,
0001
1100
0000
0011
,
0000
0001
1000
0100
,
0110
0000
1001
0000
,
0010
0000
0100
0000
0101
0000
0001
1000
,
0010
0100
0001
0010
,
0100
0000
1000
0000
1001
0000
0100
0010
,
0001
0100
0010
1000
,
0001
0000
0010
0000
1100
0000
0100
0010
,
0001
0100
0010
1000
,
0001
0000
0010
0000
1100
0000
0100
0010
,
0001
0100
0010
1000
,
0001
0000
0100
0000
1010
0000
1000
0001
,
0010
0100
1000
0001
,
0010
0000
0100
0000
1100
0000
0100
0010
,
0001
1000
1000
0100
,
0010
0010
0001
0100
,
0100
0010
1000
1000
,
0010
0100
0100
0001
,
1000
0001
0100
0110
,
2002
0000
0000
0000
,
0000
0000
0000
0000
,
0000
0000
0000
0000
0000
0000
0000
0000
0000
0000
0000
0000
0000
0000
0000
0000
0000
0000
0000
0000
0000
0000
0000
0000
0000
0000
0000
0000
0000
0000
0000
0000
0000
0000
0000
0000
0000
0000
0000
0000
0000
0000
0000
0000
0000
0000
0000
0000
0000
0000
0000
0000
0000
0000
0000
0000
0000
3003
0000
0000
0000
0000
0000
0000
,
1001
0000
0000
0000
0000
0000
0000
0000
1000
0000
0000
0100
0000
0000
0010
0000
0001
0000
0000
0000
0000
0000
0000
0000
1010
0000
0000
0001
0000
0000
0100
0000
,
0110
0000
0000
0000
0000
0000
0000
0000
1100
0000
0000
0001
0000
0000
0100
0000
0110
0000
0000
0000
1001
0000
0000
0000
1100
0000
0101
0000
1000
0001
0010
0100
,
1000
0100
0010
0000
0001
0000
0100
0000
,
0010
1000
0001
0000
0100
0000
0010
0000
,
1000
0001
0010
0000
0100
0000
1000
0000
,
0001
0100
0010
0000
1000
0001
0010
0000
,
0100
0000
1000
0000
0100
0010
0001
0000
,
0100
0000
0010
0000
1000
0001
0100
0000
,
0010
0000
1000
0001
0010
0000
0100
0000
,
1000
0001
0010
0000
0100
1000
0001
0000
,
1000
0001
0000
1000
0001
0000
0100
0001
,
0000
0100
0001
0000
1000
0010
0000
1000
,
0010
0000
0100
0001
0000
0100
0001
0000
,
0010
0100
1000
0000
0001
0010
0100
0000
,
1000
0001
0000
1000
0001
0000
0100
0010
,
0000
0100
0010
0000
1000
0001
0000
1000
,
0001
0000
0010
0100
0000
0010
0100
0000
,
1000
0100
0000
0010
0000
0000
0001
0000
,
1000
0001
0010
0000
0100
1000
0001
0000
,
0010
0100
1000
0000
0001
0010
0100
0000
,
1000
0010
0100
0000
0001
1000
0010
0000
,
0100
0001
1000
0000
0010
0100
0001
0000
,
0010
0100
1000
0000
0010
0100
0001
0000
,
0010
0100
1000
0000
0001
0010
0100
0000
,
1000
0010
0100
0000
0001
0000
0010
0000
,
0100
1000
0010
1000
0100
0010
0001
0100
,
0010
0000
1000
0000
0001
0010
0100
0000
,
1000
0000
0001
0000
0010
0100
1000
0000
,
0010
0100
1001
0010
,
0001
1000
0010
0100
0001
1000
0100
0000
,
0010
0000
0001
0000
1000
0100
0010
0000
,
0001
0000
0100
0000
0010
1000
0001
0000
,
1000
0100
0010
0001
0100
0010
1000
0100
,
0010
0001
0100
0010
1000
0100
0010
0100
,
2000
0100
3002
0100
,
2003
0010
3002
0010
,
1003
0000
1000
0000
1000
0000
0001
0000
0001
0000
0001
0000
,
2002
0000
0000
0000
,
3003
0000
0000
0000
;
