#TITLE:Dream a Dream;
#SUBTITLE:;
#ARTIST:Captain Jack;
#TITLETRANSLIT:;
#SUBTITLETRANSLIT:;
#ARTISTTRANSLIT:;
#CREDIT:;
#BANNER:dadBAN.png;
#BACKGROUND:dadBG.png;
#LYRICSPATH:;
#CDTITLE:;
#MUSIC:Dream a Dream.ogg;
#OFFSET:-0.260;
#SAMPLESTART:34.000;
#SAMPLELENGTH:15.000;
#SELECTABLE:YES;
#DISPLAYBPM:141.000;
#BPMS:0.000=141.050,92.000=564.200,108.000=141.050,264.000=564.200,280.000=141.050;
#STOPS:;
#BGCHANGES:;
// cache tags:
#FIRSTBEAT:32.000;
#LASTBEAT:282.000;
#SONGFILENAME:Songs/Rodd's Revival/Dream a Dream (Rodd steps)/Dream a Dream (Rodd Steps).sm;
#HASMUSIC:1;
#HASBANNER:1;
#MUSICLENGTH:112.082;
// end cache tags

//---------------dance-single - RODD Steps----------------
#NOTES:
     dance-single:
     RODD Steps:
     Challenge:
     10:
     0.693,1.000,0.143,0.321,0.567,492.000,16.000,36.000,61.000,0.000:



0000
0000
0000
0000
,
0000
0000
0000
0000
,
0000
0000
0000
0000
,
0000
0000
0000
0000
,
0000
0000
0000
0000
,
0000
0000
0000
0000
,
0000
0000
0000
0000
,
0000
0000
0000
0000
,
0002
0000
0203
0000
0320
0000
1030
0100
,
0001
0100
0010
0001
0200
0300
0010
0100
,
0001
1000
0100
0010
0200
0300
1000
0001
,
0100
0010
1000
0001
0000
0000
0000
0000
,
0101
0000
1010
0000
1100
0000
0100
0010
,
0001
0010
0100
1000
0100
0010
0001
0010
0100
0010
0100
1000
0100
0010
0001
0100
,
0010
0100
0001
1000
0100
0010
0001
0010
0100
1000
0100
0010
0100
0010
0001
0100
,
0010
0100
0001
1000
0100
0010
0001
0010
0100
1000
0100
1000
0100
0000
2100
0000
,
0000
3100
0010
0002
0000
0103
1000
0200
,
0000
0000
0310
1000
0100
0010
0001
0010
0100
1000
0001
1000
0100
0010
0001
0010
,
0100
1000
0001
0100
0010
0100
0001
1000
,
0100
0010
0100
0010
0001
0100
0010
0200
,
0000
0301
0010
2000
0000
3010
0001
0200
,
0000
0310
1000
0100
1000
0100
0010
0100
0010
0001
0100
0010
1000
0000
0001
0000
,
0100
0010
0100
0001
1000
0100
0010
0100
,
0220
M000
0000
000M
0000
0000
M000
0000
,
0000
000M
0000
0000
M000
0000
0000
000M
,
0000
0000
0000
M000
0000
0000
000M
0000
0000
M000
0000
0000
000M
0000
0000
0000
M000
0000
000M
0000
M000
0000
000M
0000
,
M000
0000
0000
0000
000M
0000
0000
0000
0000
000M
0000
0000
0000
0000
0000
0000
0000
0000
000M
0000
0000
0000
0000
0000
000M
0000
0000
0000
0000
0000
000M
0000
0000
0000
0000
0000
000M
0000
0000
0000
0000
0000
0330
0000
0000
0000
0000
0000
,
0001
0100
0010
1000
0100
0001
0200
0000
,
1300
0010
0002
0000
0013
0100
0002
0000
,
0013
0100
1000
0001
0100
0010
0100
0001
,
1000
0000
0100
0000
0010
0000
0001
0000
0100
0000
0010
0100
0010
0000
0110
0000
,
0010
1000
0100
0010
0001
0100
2000
0000
,
3100
0010
2000
0000
3100
0001
0200
0000
,
0310
0001
0100
0010
0100
0001
1000
0100
,
0010
0000
0100
0000
1000
0000
0001
0000
0100
0000
0010
1000
0010
0000
1010
0000
,
2200
0000
0000
0300
3100
0010
0002
0000
,
0100
0000
0000
0000
0013
0000
0100
0000
1000
0000
0001
0100
0010
0000
1000
0000
,
0000
0000
2100
0000
0000
0000
0000
0000
3100
0010
0100
0010
0100
0000
0010
0000
,
0001
0000
0101
0000
0100
0000
0010
1000
0100
0000
0010
0000
0010
0000
0001
0000
,
0200
00M0
0300
0000
0010
1000
0100
0000
,
0000
0110
0000
0010
0001
0100
0010
1000
,
0200
0000
0300
0000
0010
0001
1000
0000
,
0001
0000
0100
0010
1000
0100
0010
0000
0001
0000
0100
0000
0010
0000
0100
0000
,
0001
1000
0100
0001
1000
0010
0001
0100
,
0010
0100
0001
1000
0100
0001
0100
0010
,
0001
0100
1000
0100
0010
1000
0100
0110
,
0010
0001
0100
0010
0100
0001
1000
0100
,
0010
0100
1000
0001
0100
0010
0100
0210
,
0310
1000
0100
0010
0100
1000
0001
0100
,
1000
0100
0010
1000
0100
0010
0100
0010
,
0001
0100
0010
0100
0002
0000
0000
0000
,
1003
0100
0010
0001
0010
0100
1000
0001
0100
0010
0100
0010
0100
0001
1000
0100
,
0010
0100
1000
0100
0010
0001
0010
0100
0010
0001
0100
0010
1000
0001
0100
0010
,
1000
0100
0010
0100
1000
0100
0010
0001
0010
0100
1000
0001
0100
0010
0100
0001
,
1000
0100
0010
0100
0010
0001
0100
0000
0010
0000
0100
0000
0001
0000
1000
0000
,
0100
0010
0001
0010
0100
1000
0001
0100
0010
1000
0001
0100
0010
0100
0001
1000
,
0100
0010
0100
1000
0001
0100
0001
0100
0010
1000
0010
1000
0100
1000
0100
0010
,
0100
0010
0001
0010
0100
1000
0100
0010
0001
0100
0010
0100
0001
1000
0100
0010
,
0001
1000
0100
0010
0001
0000
0200
0000
0000
0000
0000
0000
0000
0000
0320
0000
,
0000
1030
0100
0002
0000
0103
0010
0002
,
0003
0100
0010
1000
0100
0010
0001
0010
0100
1000
0001
0100
0010
0000
0100
0000
,
0001
1000
0100
0001
0100
0010
0001
0100
,
0010
0000
0100
0000
0001
0000
1000
0000
0100
0010
0001
0010
0100
1000
0002
0000
,
0000
0103
0100
0200
0000
0010
0010
0320
,
0000
1030
0100
0010
0001
1000
0100
0010
0001
0010
0100
1000
0001
0000
0100
0000
,
0101
0100
0010
0100
0001
1000
0100
1000
,
2M02
00M0
0000
0M00
00M0
0000
0000
0M00
,
00M0
0000
0000
0MM0
0000
0M00
00M0
0000
0000
0M00
00M0
0000
,
00M0
0000
0000
0000
0000
0000
0000
0000
0M00
0000
0000
0000
0000
0000
0000
0000
0000
0000
00M0
0000
0000
0000
0000
0000
0M00
0000
0000
0000
0000
0000
0000
0000
0000
0MM0
0000
0000
0000
0000
0000
0M00
0000
0000
00M0
0000
0000
0000
0000
0000
,
0M00
0000
0MM0
0000
0MM0
0000
0000
00M0
0M00
0000
0000
0000
0MM0
0000
0M00
0000
0000
0000
00M0
0000
0M00
0000
00M0
0000
0000
0000
0000
0000
3003
0000
0000
0000
,
0110
0000
0000
0000
0000
0000
0MM0
M00M
0MM0
0000
0000
0000
0000
0000
0000
0000
;

//---------------dance-single - RODD Steps----------------
#NOTES:
     dance-single:
     RODD Steps:
     Beginner:
     1:
     0.139,0.219,0.045,0.000,0.000,104.000,5.000,0.000,0.000,0.000:

0000
0000
0000
0000
,
0000
0000
0000
0000
,
0000
0000
0000
0000
,
0000
0000
0000
0000
,
0000
0000
0000
0000
,
0000
0000
0000
0000
,
0000
0000
0000
0000
,
0000
0000
0000
0000
,
1000
0000
0000
0000
,
0001
0000
0000
0000
,
0100
0000
0000
0000
,
0010
0000
0000
0000
,
0100
0000
0000
0000
,
0001
0000
0000
0000
,
1000
0000
0000
0000
,
0100
0000
0000
0000
,
0010
0010
0010
0010
,
0010
0000
0000
0000
,
0001
0000
1000
0000
,
0100
0000
1000
0000
,
0001
0000
0001
0000
,
0100
0000
0100
0000
,
0010
0000
0010
0000
,
1000
0000
0000
0000
,
0000
0000
0000
0000
,
0000
0000
0000
0000
,
0000
0000
0000
0000
,
0100
0000
0010
0000
,
0001
0000
0100
0000
,
0010
0000
1000
0000
,
0001
0000
0100
0000
,
0010
0000
0010
0000
,
1000
0000
0100
0000
,
0010
0000
0010
0000
,
0001
0000
0001
0000
,
1001
0000
0000
0000
,
0110
0000
0000
0000
,
1010
0000
0000
0000
,
1000
0000
0001
0000
,
0100
0000
0000
0000
,
0010
0000
0000
0000
,
1000
0000
0000
0000
,
0001
0000
0000
0000
,
0100
0100
0100
0000
,
0010
0010
0010
0000
,
1000
1000
1000
0000
,
0001
0001
0001
0000
,
0100
0000
0010
0000
,
0100
0000
0001
0000
,
1000
0000
0100
0000
,
0110
0000
0000
0000
,
0010
0000
0001
0000
,
1000
0000
0001
0000
,
0100
0000
0010
0000
,
1000
0000
0001
0000
,
0100
0000
0010
0000
,
0100
0000
0001
0000
,
1000
0000
0100
0000
,
0010
0000
0010
0000
,
0001
0001
0001
0000
,
1000
1000
1000
0000
,
0100
0000
0010
0000
,
0001
0000
0100
0000
,
0010
0010
0010
0000
,
0100
0100
0100
0000
,
0010
0000
1000
0000
,
0001
0000
0000
0000
,
0000
0000
0000
0000
,
0000
0000
0000
0000
,
0000
0000
0000
0000
,
0101
0000
0000
0000
;

//---------------dance-single - RODD Steps----------------
#NOTES:
     dance-single:
     RODD Steps:
     Easy:
     3:
     0.224,0.343,0.089,0.143,0.000,150.000,10.000,16.000,0.000,0.000:

0000
0000
0000
0000
,
0000
0000
0000
0000
,
0000
0000
0000
0000
,
0000
0000
0000
0000
,
0000
0000
0000
0000
,
0000
0000
0000
0000
,
0000
0000
0000
0000
,
0000
0000
0000
0000
,
2000
0000
0000
0000
,
3002
0000
0000
0000
,
0203
0000
0000
0000
,
0320
0000
0000
0000
,
1030
1000
1000
0000
,
0100
0100
0100
0000
,
0010
0010
0010
0000
,
0001
0000
0000
0011
0000
0000
0000
0000
,
0001
0001
0100
0000
,
0010
0010
1000
0000
,
0100
0010
0001
0000
,
0100
0000
0000
0110
0000
0000
0000
0000
,
0010
0000
1000
0000
,
0001
0000
1000
0000
,
0100
0000
0010
0001
,
2002
0000
0000
0000
,
0000
0000
0000
0000
,
0000
0000
0000
0000
,
0000
0000
0000
3003
,
1001
0000
0001
0000
0100
0010
0100
0000
,
0010
0100
0010
0000
0100
0010
0100
0000
,
0010
1000
0001
0100
,
0010
0100
0001
0000
,
1000
0000
0100
0000
0010
0001
0010
0000
,
0001
0010
0001
0000
0010
0001
0010
0000
,
0001
0100
0010
1000
,
0100
1000
0001
0000
,
0200
0000
0010
0000
,
0320
0000
1000
0000
,
2030
0000
0100
0000
,
3100
0010
0001
0100
,
0010
0000
1000
0000
,
0100
0000
0010
0000
,
0001
0000
0100
0000
,
0001
1000
0100
0010
,
0100
0000
1000
0000
0001
0000
0000
0101
,
0000
0100
0010
1000
,
0100
0000
0010
0000
0001
0000
0000
1000
,
0000
0001
0100
0010
,
0100
0000
0001
0000
1000
0000
0000
0100
,
0000
0010
0001
0100
,
0010
0000
1000
0000
,
2002
0000
0000
3003
,
0100
0010
0100
0000
,
0010
1000
0010
0000
,
1000
0100
1000
0000
,
0001
0000
0000
0101
0000
0000
0000
0000
,
0100
0001
0100
0000
,
0010
1000
0010
0000
,
1000
0001
1000
0000
,
0100
0000
0000
1100
0000
0000
0000
0000
,
2000
0000
0000
0000
,
3002
0000
0000
0000
,
0203
0000
0010
0000
,
0010
0000
0310
0000
,
1000
0000
0001
0000
,
1000
0000
0100
0000
,
0010
0000
0001
0000
,
2002
0000
0000
0000
,
0000
0000
0000
0000
,
0000
0000
0000
0000
,
0000
0000
0000
3003
,
1001
0000
0000
0000
;

//---------------dance-single - RODD Steps----------------
#NOTES:
     dance-single:
     RODD Steps:
     Medium:
     7:
     0.331,0.468,0.071,0.152,0.000,235.000,8.000,17.000,0.000,0.000:

0000
0000
0000
0000
,
0000
0000
0000
0000
,
0000
0000
0000
0000
,
0000
0000
0000
0000
,
0000
0000
0000
0000
,
0000
0000
0000
0000
,
0000
0000
0000
0000
,
0000
0000
0000
0000
,
0002
2003
3002
1003
,
0100
1000
0100
0010
,
0100
0010
0001
0010
,
0001
0000
0000
0200
0000
0000
0000
0000
,
0310
1000
0001
1000
,
0100
0010
0001
0010
,
0100
1000
0001
0100
,
0010
0000
0000
2000
0000
0000
0000
0100
,
3000
0010
0001
0010
0000
0001
0100
0001
,
0000
0100
0010
1000
,
0001
0100
0010
0100
,
0001
0000
0000
2000
0000
0000
0000
3100
,
0000
0010
0100
0010
0000
0100
0010
0100
,
0000
0010
0001
1000
,
0001
0100
0010
1000
,
2200
0000
0000
0000
,
0000
0000
0000
0000
,
0000
0000
0000
0000
,
0000
0000
0000
3300
,
0100
0000
0010
0000
0001
0001
0001
0000
,
1000
1000
1000
0000
0100
0100
0100
0000
,
0010
0001
0010
0001
0010
0001
1000
0001
,
1000
0001
1000
0100
2000
0000
0000
0000
,
3001
0000
0100
0000
0010
0100
0010
0000
,
1000
0010
1000
0000
0100
1000
0100
0000
,
0010
0001
1000
0001
,
0100
0010
1000
0000
,
2100
0000
0001
0000
,
3010
0000
0100
0001
,
1000
0000
0100
0010
,
0001
0000
1001
0000
,
0101
0000
0000
0000
0100
0010
1000
0000
,
0100
0010
0001
0000
0001
0010
0100
0000
,
1100
0000
0000
0000
0100
0010
0001
0000
,
0100
0010
0100
0010
0100
0010
1000
0000
,
0100
1000
0100
1000
0100
0000
0010
0000
,
0001
0100
0010
1000
,
0100
0010
0100
0010
0100
0000
0010
0000
,
0100
1000
0001
0100
,
0001
0100
0001
0100
0001
0000
0100
0000
,
0010
1000
0001
0100
,
0010
1000
0100
1000
0100
0000
0010
0000
,
0001
0100
0101
0000
,
0100
0010
1000
0001
,
0100
0010
0100
0010
0100
0000
0001
0000
,
1000
0001
1000
0001
1000
0000
0100
0000
,
0010
0000
0000
0110
0000
0000
0000
0000
,
0010
0001
1000
0001
,
0100
0010
1000
0100
,
1000
0001
0100
0001
,
1000
0000
0000
1100
0000
0000
0000
0200
,
0000
0010
0010
0320
0000
0001
0001
0031
,
0000
0100
0010
0100
,
0001
1000
0100
0010
,
0001
0010
0100
1000
,
0002
0000
0203
0000
,
0320
0000
0230
0000
,
0301
1000
0001
1000
0100
1000
0100
0010
,
0200
0000
0000
0000
,
0000
0000
0000
0000
,
0000
0000
0000
0000
,
0000
0000
0000
0000
,
0310
0000
0000
0000
;

//---------------dance-single - RODD Steps----------------
#NOTES:
     dance-single:
     RODD Steps:
     Hard:
     9:
     0.635,0.906,0.232,0.303,0.335,438.000,26.000,34.000,47.000,0.000:

0000
0000
0000
0000
,
0000
0000
0000
0000
,
0000
0000
0000
0000
,
0000
0000
0000
0000
,
0000
0000
0000
0000
,
0000
0000
0000
0000
,
0000
0000
0000
0000
,
0000
0000
0000
0000
,
0002
0000
0203
0000
0320
0000
0130
0001
,
1000
0100
0010
0001
0100
0000
0010
0100
,
0001
1000
0100
1000
0100
0000
0010
0001
,
0100
0010
0100
0002
0000
0000
0000
0000
,
2003
0000
3200
0000
0320
0000
0130
1000
,
0001
0100
0010
0100
0001
0000
1000
0100
,
0010
0100
1000
0001
1000
0000
0001
0100
,
0010
0100
0001
1000
0000
0000
0000
1100
,
0000
0100
0010
0001
0000
0001
0010
0100
,
1000
0001
1000
0001
1000
0001
1000
0001
1000
0000
0100
0000
1000
0000
0001
0000
,
0100
0010
0100
0001
1000
0100
0010
0100
,
1000
0000
0001
0000
0100
0000
0010
0000
1000
0100
0000
0100
0010
0000
0021
0000
,
0000
0001
0031
0002
0000
0100
0100
0100
,
0103
0010
0100
0010
0100
0010
0100
0000
0010
0000
1000
0000
0001
0000
1000
0000
,
0100
0010
0001
0010
0100
1000
0001
0100
,
0002
0000
M000
0000
0000
0000
0000
M000
0000
0000
0000
0000
0000
M000
0000
0000
0000
0000
0000
0000
M000
0000
0000
0000
,
0000
0000
0000
0000
M000
0000
0000
0000
0000
0000
0000
M000
0000
0000
0000
0000
0000
0000
0000
M000
0000
0000
0000
0000
,
0000
0000
M000
0000
0000
0000
0000
0000
0000
M000
0000
0000
0000
0000
0000
M000
0000
0000
0000
M000
0000
0000
M000
0000
,
0000
0000
0000
0000
M000
0000
0000
M000
0000
0000
M000
0000
0M00
M000
0M00
M000
0000
0000
0000
0000
0000
0000
0000
0000
,
1003
0100
0010
0001
0100
1000
0200
0000
,
0310
1000
0200
0000
0301
0100
0020
0000
,
0031
0100
0010
0100
0010
1000
0100
1000
,
0100
0000
0010
0000
0001
0000
0100
0000
0010
0000
1000
0100
1000
0000
1100
0000
,
1001
0001
0100
0010
0100
0001
2000
0000
,
3100
0010
0002
0003
0001
0010
0200
0000
,
1300
0001
0100
0010
0100
0001
1000
0001
,
1000
0100
0010
0100
0020
0000
0030
0000
,
0021
0000
0030
0000
0001
0100
0020
0000
,
1030
0000
0100
0000
0010
0000
0001
0000
0100
0000
0010
0100
0010
0000
1000
0000
,
0100
0000
0110
0000
0010
0000
0001
0000
0100
0001
0100
0001
0100
0000
0010
0000
,
1000
0000
1100
0000
1000
0000
0001
0100
0001
0000
0100
0000
0010
0000
0100
0000
,
0110
0000
0010
0000
1000
0100
0010
0001
,
1000
1100
0100
0010
0100
1000
0001
0100
,
0101
0100
0010
0100
0001
1000
0200
0000
,
0300
0000
0010
0000
0001
0010
0001
0000
0100
0000
0010
0000
0100
0000
0000
0000
,
0001
0001
1000
1000
0100
0100
0100
0210
,
0010
0310
0020
0000
0001
0001
0032
0000
,
0103
0100
0010
0010
1000
1000
1000
1200
,
1000
0000
1000
0000
2300
0000
0001
0000
0001
0000
3001
0100
0001
0000
0101
0000
,
0100
0010
0100
0001
1000
0100
0010
0110
,
0010
0100
1000
0001
0100
0010
0100
0001
,
1000
0100
0010
0001
1000
0100
0010
0001
,
0101
0000
0000
0000
0110
0000
0000
0000
1010
0000
0000
1000
0100
0000
1100
0000
,
0100
0010
0001
0010
0100
1000
0001
0100
0010
0000
0100
0000
0001
0000
1000
0000
,
0100
0010
0100
0010
0001
0100
0010
0100
0001
0000
1000
0000
0100
0000
0010
0000
,
0001
0100
0010
1000
0001
0100
0010
0100
0001
0000
1000
0000
0100
0000
0010
0000
,
0100
0000
1000
0000
0001
0000
0101
0000
0000
0100
0010
0000
1010
0000
1100
0000
,
1000
0001
1000
0001
1000
0001
1000
0000
0100
0000
0010
0000
0001
0000
0100
0000
,
0010
1000
0100
0010
0001
0010
0100
1000
0001
0000
0100
0000
0010
0000
0100
0000
,
0001
1000
0100
0010
0100
1000
0001
0100
0010
0000
0100
0000
0001
0000
1000
0000
,
0100
1000
0100
0020
0000
0000
0000
0032
,
0000
0103
0010
2000
0000
3100
0010
0200
,
0000
0010
0301
0010
0001
0100
0010
1000
0100
0010
0001
0010
0100
0000
1000
0000
,
0001
0100
0010
0100
0001
0000
1000
0100
,
0010
0000
0100
0000
0010
0000
0110
0000
0000
0010
0001
0000
0101
0000
0201
0000
,
0000
0010
0010
0320
0000
1000
1000
2030
,
0000
3100
0010
0001
0010
0100
1000
0001
0100
0010
0100
0001
1000
0100
0010
0001
,
0010
0100
1000
0001
0100
0010
0100
0001
1000
0000
0001
0000
0100
0000
0010
0000
,
0220
M00M
M00M
0000
M00M
0000
M00M
0000
,
M00M
M00M
M00M
0000
0000
M00M
M00M
M00M
,
0000
M000
0000
000M
0000
0000
0000
M000
,
0000
0000
0000
000M
0000
0000
M00M
0000
0000
M00M
0000
0330
,
1001
0000
0000
0000
;
