#TITLE:Ashen Paradise;
#SUBTITLE:;
#ARTIST:Heavenly;
#TITLETRANSLIT:;
#SUBTITLETRANSLIT:;
#ARTISTTRANSLIT:;
#CREDIT:;
#BANNER:ashen bn.png;
#BACKGROUND:ashen bg.png;
#LYRICSPATH:;
#CDTITLE:;
#MUSIC:06 Ashen Paradise.ogg;
#OFFSET:0.085;
#SAMPLESTART:49.899;
#SAMPLELENGTH:20.000;
#SELECTABLE:YES;
#DISPLAYBPM:90.000:180.000;
#BPMS:0.000=90.000,50.000=180.000,81.000=90.000,81.333=360.000,82.000=180.000,82.500=360.000,84.000=180.000;
#STOPS:82.500=0.040
,82.750=0.040
,83.000=0.042
,83.250=0.040
,83.500=0.040
,83.750=0.040
,245.000=1.000
;
#BGCHANGES:;
// cache tags:
#FIRSTBEAT:1.000;
#LASTBEAT:904.000;
#SONGFILENAME:Songs/SSSC Pack 2/Ashen Paradise - [Xynn]/sm.sm;
#HASMUSIC:1;
#HASBANNER:1;
#MUSICLENGTH:105.000;
// end cache tags

//---------------dance-single - Xynn----------------
#NOTES:
     dance-single:
     Xynn:
     Challenge:
     14:
     1.000,1.000,1.000,1.000,1.000,2277.000,107.000,132.000,79.000,0.000:



0000
00M0
0000
0000
,
0M00
0000
0000
0000
0000
0000
1001
1001
,
M00M
0000
0000
0000
0000
0000
0110
1001
,
M00M
0000
0000
0000
0000
0000
0000
0000
0000
0000
00M0
0000
0000
M110
0102
0000
,
0M00
0000
0000
0000
0000
0000
1003
1100
,
1100
MM00
0000
0101
0101
0M0M
0000
0220
,
0000
0000
0000
0000
0000
0000
0330
0022
,
0000
0000
0000
0000
0000
0000
0000
0000
0000
0000
0000
0000
0033
0000
0000
0001
0010
0100
1000
0010
0100
0110
0000
0000
,
0110
0MM0
0000
0000
0000
0000
0110
0101
,
0101
0M0M
0000
1001
1001
M00M
0000
2020
,
0000
0000
000M
000M
0000
0000
0M00
0M00
,
0000
0000
000M
000M
0000
0000
0M00
0M00
,
0000
0000
000M
000M
0030
00M0
0000
0000
,
0000
0000
3010
0100
0001
0001
0010
0100
,
0010
0000
0110
0000
0000
0000
1100
0000
0000
0000
1000
0000
1000
0010
0100
0000
,
0001
0100
0001
0000
1000
0000
1000
0000
0100
0000
0010
0000
0100
0000
0010
0000
,
0010
0000
0000
0011
0000
0000
0000
0000
0000
0101
0000
0000
0000
0000
0000
0001
0100
0001
0200
0000
0000
0300
0000
0000
,
0202
0303
0010
1000
0100
0010
0100
0010
,
0010
0000
0011
0000
0000
0000
1001
0000
0000
0000
0001
0000
1000
0100
0010
0000
,
0001
0010
0001
0010
0100
0000
0010
0000
0100
0000
1000
0000
0100
0000
1000
0000
,
0010
0000
0000
0000
0000
0000
0110
0000
0000
0000
0000
0000
000M
0000
0000
0000
0M00
0000
0000
0000
00M0
0000
0000
0000
M000
0000
0000
0000
0000
0000
000M
0000
0000
0M00
0000
0000
00M0
0000
0000
M000
0000
0000
000M
0000
0000
0M00
0000
0000
,
00M0
0000
1001
1000
0010
0010
0100
0001
,
0010
0000
0110
0000
0000
0000
1100
0000
0000
0000
0001
0000
0100
0001
1000
0000
,
0100
1000
0100
0000
0010
0000
0100
0000
1000
0000
0001
0000
1000
0000
0001
0000
,
0001
0000
0101
0000
0000
0000
1010
0000
0000
0000
1000
0010
0200
0000
0300
0000
,
0220
0330
0100
0100
0001
1000
0001
0010
,
0010
0000
0110
0000
0000
0000
1100
0000
0000
0000
1000
0000
0100
1000
0001
0000
,
1000
0010
0100
0001
1000
0000
0100
0000
0100
0000
0010
0000
0100
0000
1000
0000
,
0001
0000
0000
0001
0000
0000
1000
0000
0000
0010
0000
0000
0100
0000
0000
0010
0000
0000
1000
0000
0100
0000
0010
0000
,
0001
0100
0010
1000
0010
1000
0001
0010
0001
1000
0100
1000
,
0001
0100
0001
1000
0010
1000
0001
0010
0001
1000
0100
1000
,
0001
0100
0001
1000
0100
0010
0001
0100
0001
1000
0010
1000
,
0001
0100
0001
1000
0100
0010
0001
0100
0001
1001
0000
0000
,
0110
0000
0000
2002
0000
0000
0003
0000
0000
3000
0001
0000
1000
0000
0010
0000
1000
0000
0001
0000
0010
0000
0001
0000
,
1000
0100
1000
0001
0100
0001
1000
0010
1000
0001
0010
0001
,
1000
0100
1000
0001
0100
0010
1000
0100
1000
0001
0010
0001
,
1000
0100
1000
0001
0100
0010
1000
0100
1000
0001
0010
0001
,
1000
0000
0010
0000
0100
0000
0001
0000
0000
0100
0000
0000
0101
0000
0000
0100
0000
0000
0001
0000
0000
0010
0000
0000
,
0011
0010
0100
1000
1001
1000
0010
0100
,
0101
0001
0010
0100
0110
0010
0001
1000
,
1001
0001
0100
0010
1010
1000
0010
0100
,
0110
0010
2002
0003
3010
0100
0001
0010
,
0110
0100
1000
0001
0101
0001
0010
0100
,
1100
1000
0010
0100
0110
0100
0001
1000
,
1001
0000
0001
0000
0100
0000
0010
0000
1010
0000
0010
0100
0001
0000
1000
0000
,
0001
0000
0100
0010
1000
0000
0001
0000
1000
0000
1000
0000
0001
0000
0001
0000
,
0010
0010
0100
0100
0010
0010
0001
0001
,
0100
0100
0010
0010
1000
1000
0001
0001
,
0010
0000
0010
0100
1000
0000
0001
0100
0001
0100
0001
0000
1000
0010
1000
0010
,
1000
0000
0010
0100
0010
0000
0000
0000
0210
0000
0002
0000
0300
0000
0013
0000
,
0100
0000
1000
0100
1000
0000
0001
1000
0001
1000
0001
0000
1000
0010
0100
0001
,
1000
0000
2002
3003
0010
0010
0100
0001
,
0010
0000
0010
0100
0010
0000
0100
0000
1000
0000
0001
0000
1000
0010
1000
0010
,
0100
0001
0100
0001
1000
0100
0010
0001
0100
0000
0001
0100
0001
0000
1000
0000
,
0001
0010
0001
0000
0010
0000
0100
1000
0100
0000
0010
0000
0100
1000
0100
1000
,
0002
0000
0203
0000
0310
0000
0100
0001
0100
0000
0001
0100
0001
0000
1000
0000
,
0001
0010
0001
0000
1000
0000
0010
0000
0100
0000
0001
0000
1000
0100
1000
0000
,
0010
0000
1000
0000
0001
0000
1000
0100
1000
0000
0100
1000
0100
0000
0010
0000
,
0100
1000
0001
0000
1000
0000
0010
1000
0010
0000
0100
0000
0001
1000
0001
1000
,
0020
0000
0230
0000
0301
0000
1000
0010
1000
0000
0010
1000
0010
0000
0100
0000
,
0001
1000
0001
0000
1001
0000
0100
0000
0010
0000
1001
0000
0100
0000
0010
0000
,
1001
0000
0100
0000
MMMM
0000
0000
0000
1000
0000
0010
0000
0100
0010
0100
0000
,
0001
0000
1000
0000
0001
0010
0001
0000
0010
0000
0100
0000
1000
0100
1000
0000
,
0001
0010
0001
0010
0100
1000
0100
0000
1000
0000
0100
0000
0010
0001
0010
0000
,
0001
0000
1000
0000
0010
1000
0010
0000
0100
0000
0001
0000
1000
0001
1000
0000
,
0001
0100
0001
0100
0010
1000
0010
0000
0100
0000
0001
0000
1000
0001
1000
0000
,
0001
0000
0010
0000
0100
0010
0100
0000
1000
0000
0001
0000
0100
0001
0100
0000
,
0010
1000
0010
1000
0001
1000
0001
0000
0100
0000
0001
0000
0010
0001
0010
0000
,
0100
0000
1000
0000
0100
1000
0100
0000
1000
0100
1000
0100
0010
0001
0010
0001
,
1000
0010
1000
0010
0100
0001
0100
0001
2000
0000
3001
0100
0010
1000
0001
0100
,
0001
1000
0100
0010
0001
1000
0100
1000
0001
1000
0002
0000
0000
0000
0023
0000
,
0032
0000
1003
0100
1000
0100
1000
0100
0020
0000
0130
1000
0001
0100
0001
1000
,
0010
0100
0001
0100
0001
1000
0001
0010
0001
1000
0100
0010
0100
1000
0001
0010
,
0001
0010
0100
1000
0001
0100
0001
1000
0010
0100
0010
0100
0010
0100
0010
0100
,
0001
0100
0001
0100
0001
0100
0001
0100
0010
1000
0010
1000
0010
1000
0010
1000
,
0001
1000
0001
1000
0001
1000
0001
1000
0001
0010
0100
1000
0001
0010
0100
1000
,
0001
0010
0001
1000
0010
1000
0001
0100
0010
1000
0010
0100
0001
0100
0001
1000
,
0010
1000
0010
0100
0001
1000
0100
1000
0002
0000
1003
0010
0100
0001
2000
0000
,
3001
0010
0001
0010
0100
0000
0200
0000
1300
0001
0100
0000
0200
0000
0310
0100
,
0001
0010
0100
1000
0001
0010
0100
1000
1001
0000
0000
0000
M00M
0000
0000
0000
,
0000
0000
0000
0000
,
M00M
0000
0000
0000
0000
0000
0000
0000
1000
0100
0010
0001
1000
0100
1000
0001
,
0010
0100
0010
0001
1000
0001
0100
0010
0100
0001
1000
0010
1000
0001
0100
0010
,
1000
0001
0010
0001
1000
0100
0010
0001
0010
0100
1000
0001
0100
0010
0100
0010
,
1000
0001
1000
0100
0010
0100
1000
0001
0010
0001
0100
0001
0100
0010
1000
0001
,
0100
0010
1000
0001
0100
0001
0100
0010
1000
0010
1000
0001
1000
0100
1000
0001
,
0010
0100
1000
0001
0010
0100
1000
0001
0010
0001
0100
0010
1000
0010
0100
0001
,
1000
0010
1000
0010
0100
0001
0100
0001
1000
0001
0010
0001
1000
0100
1000
0001
,
1000
0100
0010
0001
1000
0100
0010
0001
1000
0001
0100
0010
0100
0001
1000
0010
,
1000
0001
1000
0010
0100
0001
1000
0010
0100
0001
1000
0100
1000
0001
0010
0001
,
0010
0100
0010
0100
1000
0001
0010
0100
1000
0001
0100
0010
1000
0010
1000
0001
,
0100
0001
0100
0010
1000
0001
0010
0001
0010
0100
1000
0001
0010
0100
0010
0001
,
1000
0001
1000
0010
1000
0010
0100
0010
0100
0001
0100
0001
1000
0001
0100
0010
,
0100
0001
1000
0100
1000
0001
0010
0100
0010
0001
1000
0100
0010
0001
1000
0100
,
0010
0001
1000
0100
1000
0001
0100
0001
1000
0010
1000
0001
0100
0010
1000
0010
,
0100
0001
0100
0001
1000
0001
0010
0001
0010
0100
1000
0100
1000
0001
1000
0100
,
0010
0001
1000
0100
1000
0001
1000
0010
0100
0010
1000
0001
0100
0001
0100
0010
,
0100
0001
1000
0010
0100
0001
1000
0001
0010
0001
0010
0100
0010
0001
1000
0100
,
1000
0000
0000
0001
0000
0000
1000
0000
0000
0010
0000
0000
0100
0000
0000
0001
0000
0000
1000
0000
0000
0001
0000
0000
1000
0000
0000
0000
0000
0000
0000
0000
M010
0000
0000
0000
0000
0000
0000
0000
01M0
0000
0000
0000
0000
0000
0000
0000
,
0M01
0000
0000
0000
0000
0000
0000
0000
100M
0000
0000
0000
0000
0000
0000
0000
M100
0000
0000
0000
0000
0000
0000
0000
0010
0000
0000
0100
0000
0000
1000
0000
0000
0000
0000
0000
0001
0000
0000
0000
0000
0000
1000
0000
0000
0010
0000
0000
,
1000
0000
0001
0100
0001
0000
1000
0000
0001
0010
0100
0000
0010
0100
0010
0100
,
1000
0000
0001
1000
0001
0000
0100
0000
0010
0100
0010
0000
0010
0000
0100
0000
,
0001
0000
1000
0010
1000
0000
0001
0000
0100
0010
0100
0000
0001
0100
0001
0100
,
0020
0000
0000
0000
0230
0000
0000
0000
0301
1000
0010
0000
0100
0000
0001
1000
,
0001
0000
1000
0100
1000
0000
0001
0000
0010
0100
0010
0000
0100
1000
0100
0000
,
1000
0000
0001
1000
0001
0000
0100
0000
0010
0100
0010
0000
0010
0000
0100
0000
,
0001
0000
1000
0100
0010
0000
0100
0000
1000
0100
1000
0100
0010
0001
0010
0001
,
1000
0010
1000
0010
0100
0001
0100
0001
1000
0100
0010
0001
1000
0100
0010
0001
,
0010
0100
1000
0001
0100
0010
1000
0010
0100
0000
0000
0000
0000
0000
0000
0000
,
0000
0020
0230
0000
,
0000
0000
0302
0000
,
0023
0000
0230
0000
,
0300
0100
2000
3020
,
0230
0302
0020
0000
,
0000
0030
2000
3000
,
0200
0003
0020
0000
,
0300
0000
0000
0030
0000
0000
0100
0001
1000
0010
0100
0001
,
1000
0000
0000
0100
0000
0000
1000
0000
0000
0100
0000
0000
0010
0000
0000
0001
0000
0000
0010
0000
0000
0001
0000
0000
1000
0000
0000
0000
0010
0000
0000
0000
1000
0000
0000
0000
0001
0000
0000
0000
0100
0000
0000
0000
0001
0000
0000
0000
,
1000
0000
0000
0100
0000
0000
0010
0000
0000
0001
0000
0000
1000
0000
0000
0100
0000
0000
0010
0000
0000
0001
0000
0000
1000
0000
0000
0000
0100
0000
0000
0000
1000
0000
0000
0000
0001
0000
0000
0000
0100
0000
0000
0000
0001
0000
0000
0000
,
1000
0000
0000
0010
0000
0000
0100
0000
0000
0010
0000
0000
1000
0000
0000
0001
0000
0000
0100
0000
0000
0001
0000
0000
0100
0000
0000
0000
0010
0000
0000
0000
0100
0000
0000
0000
0001
0000
0000
0000
1000
0000
0000
0000
0001
0000
0000
0000
,
1000
0000
0000
0010
0000
0000
0100
0000
0000
0001
0000
0000
1000
0000
0000
0010
0000
0000
0100
0000
0000
0001
0000
0000
1000
0000
0000
0000
0100
0000
0000
0000
0010
0000
0000
0000
0001
0000
0000
0000
0010
0000
0000
0000
0100
0000
0000
0000
,
1000
0000
0000
0001
0000
0000
0010
0000
0000
0001
0000
0000
0100
0000
0000
0001
0000
0000
1000
0000
0000
0010
0000
0000
0100
0000
0000
0000
0001
0000
0000
0000
1000
0000
0000
0000
0100
0000
0000
0000
0010
0000
0000
0000
0100
0000
0000
0000
,
1000
0000
0000
0001
0000
0000
0010
0000
0000
0100
0000
0000
1000
0000
0000
0001
0000
0000
0100
0000
0000
0001
0000
0000
0100
0000
0000
0000
0010
0000
0000
0000
1000
0000
0000
0000
0001
0000
0000
0000
0010
0000
0000
0000
0100
0000
0000
0000
,
0010
0100
0010
0100
1000
0001
0010
0100
1000
0100
0010
0001
1000
0100
0010
0001
,
1000
0001
0100
0001
0100
0010
1000
0010
1000
0001
0100
0010
0100
0001
1000
0001
,
1000
0100
1000
0001
0020
0000
0230
0000
1300
0001
1000
0001
0100
0001
0100
0001
,
1000
0010
1000
0010
0100
0010
0100
0010
1000
0001
1000
0001
0010
0001
0010
0001
,
1000
0100
1000
0100
0010
0100
0010
0100
1000
0100
1000
0100
1000
0001
1000
0001
,
0100
0001
0100
0001
1000
0010
1000
0010
1000
0001
0010
0100
1000
0001
0010
0100
,
1000
0001
0100
0010
1000
0001
0100
0010
1000
0001
1000
0001
0100
0001
0100
0001
,
1000
0010
1000
0010
0100
0010
0100
0010
0100
0001
0100
0001
0010
0001
0010
0001
,
1000
0100
1000
0100
0010
0001
0010
0001
0200
0000
0000
0000
0000
0000
0000
0000
,
0320
0000
2030
0000
3200
0000
0000
0310
,
0001
0000
0000
0000
1000
0000
0000
0000
0010
0000
0000
0000
0200
0000
0000
0000
0000
0000
0000
0000
0000
0310
0000
0000
,
0220
0330
0202
0303
0022
0000
0003
0130
,
0220
0330
2200
3300
2002
0000
0000
3003
,
2002
0000
0000
3003
0002
0000
0000
0000
,
0023
0000
0130
1000
0002
0000
0000
0103
,
0202
0303
2020
3030
0220
0000
0030
0301
,
2002
3003
2200
3300
0220
0000
0000
0000
,
0300
0130
0100
0100
0010
0100
0100
1000
,
0100
0100
0010
0001
0200
0000
0000
0000
,
0310
0000
0000
0000
0000
0000
0000
0000
0100
0000
0000
0000
0000
0000
0000
0000
0001
0000
0000
0000
0000
0000
0000
0000
2000
0000
0000
0000
0000
0000
0000
0000
0000
0000
0000
0000
3000
0000
0000
0000
0000
0000
0100
0000
0000
0010
0000
0000
,
0200
0000
0000
0000
0000
0000
0310
0000
0002
0000
0000
0000
0000
0000
0103
0010
,
0100
0000
0000
0000
0000
0000
0000
0000
0001
0000
0000
0000
0000
0000
0000
0000
1000
0000
0000
0000
0000
0000
0000
0000
0010
0000
0000
0100
0000
0000
0010
0000
0000
0100
0000
0000
0001
0000
0000
0100
0000
0000
0001
0000
0000
0100
0000
0000
,
0010
0000
0000
1000
0000
0000
0010
0000
0000
1000
0000
0000
0001
0000
0000
1000
0000
0000
0001
0000
0000
1000
0000
0000
0200
0000
0000
0000
0000
0000
0000
0000
0320
0000
0000
0000
0000
0000
0000
0000
0230
0000
0000
0000
0000
0000
0000
0000
,
2300
0000
0000
0000
0000
0000
0000
0000
3002
0000
0000
0000
0000
0000
0000
0000
0000
0000
0000
0000
0003
0000
0000
0000
1000
0000
0000
0010
0000
0000
0100
0000
0000
0001
0000
0000
1000
0000
0000
0010
0000
0000
1000
0000
0000
0010
0000
0000
,
0100
0001
0100
0001
1000
0100
0010
0001
2000
0000
0000
0000
3010
0100
0002
0000
,
0000
0000
0000
0000
0000
0000
1003
0100
0010
0001
1000
0010
,
1000
0001
0100
0001
0010
0100
0010
0001
1000
0010
0100
0001
,
1000
0000
0010
0000
1000
0000
0001
0000
0100
0000
0001
0000
1001
0000
0000
1000
0000
0000
0010
0000
0000
0010
0000
0000
,
0100
0001
0010
0110
0000
0011
0000
0100
,
1000
0001
1000
0000
0001
0100
0001
0000
0100
0000
0100
0000
0010
0000
1000
0000
,
0010
0000
0000
1000
0000
0000
1000
0000
0000
1010
0000
0000
0000
0000
0000
0110
0000
0000
0000
0000
0000
0010
0100
0010
,
0200
0300
0220
0330
0100
0100
0001
1000
,
0001
1000
1000
1001
0000
0011
0000
0010
,
0100
1000
0100
0000
1000
0001
1000
0010
0100
0000
0010
0000
0010
0000
0100
0000
,
0001
0000
0010
0000
0100
0000
0100
0000
1000
0000
0001
0000
1000
0000
0010
0100
,
0020
0030
0220
0330
0100
0001
0010
0010
,
0100
0010
0010
0001
1000
0010
0100
0010
,
0100
0001
0100
0000
0001
1000
0001
0000
1000
0000
0001
0000
0010
0000
0001
0000
,
0100
0000
0001
0000
1000
0000
0001
0000
1000
0100
1000
0100
1000
0000
0000
0000
,
0001
0100
0001
0100
0001
0000
0000
0000
1000
0000
0010
0000
0100
0000
0100
0000
,
0001
0100
0100
0001
1000
0100
1000
0010
,
0100
0010
0100
0000
0010
1000
0010
0000
1000
0000
0001
0000
0010
0000
0001
0000
,
1000
0000
0001
0000
0100
0000
0010
0000
2000
0000
3100
0000
1100
0000
1000
0100
,
0020
0130
0110
0100
1001
0100
0010
1000
,
1010
1000
0100
0010
0110
0010
0001
0100
,
0101
0100
0010
1000
1001
0001
0010
0100
,
0110
0000
0100
0000
1000
0000
0001
0000
0100
0000
0100
0000
0010
0000
1000
0001
,
0010
0100
0220
0330
1100
1000
0001
0100
,
0101
0001
1000
0010
1010
1000
0001
0010
,
0011
0001
0010
0100
0110
0100
1000
0001
,
1001
0000
0000
0001
0000
0000
0100
0000
0000
0010
0100
0010
0200
0000
0000
0300
0000
0000
0220
0000
0000
0330
0000
0000
,
0202
0303
0022
0033
0220
0330
2200
3300
,
2020
3030
2002
3003
0120
0000
0000
0000
,
0030
0100
0001
1000
0001
1000
0100
0010
,
0001
1000
0010
0100
0002
0000
0003
0010
,
0200
0000
0000
0300
1000
0010
0100
0001
,
0010
0100
1000
0001
2000
0000
0000
0000
,
3000
0001
0010
0100
1000
0001
0100
0010
,
0100
0000
0000
0001
0000
0000
1000
0000
0000
0100
0000
0000
0010
0000
0000
0000
0100
0000
0000
0000
1000
0000
0000
0000
,
0001
0000
0100
0000
0010
0000
0100
0000
0001
0000
1000
0000
,
0001
0000
0000
0000
0100
0000
0000
0000
0010
0000
0000
0000
1000
0000
0000
0000
0100
0000
0000
0000
0010
0000
0000
0000
0001
0000
0000
0010
0000
0000
0001
0000
0000
0010
0000
0000
0100
0000
0000
1000
0000
0000
0001
0000
0000
0010
0000
0000
,
0100
1000
0001
0100
0010
1000
0001
0100
0001
1000
0010
1000
0010
0100
0001
0100
,
0001
1000
0100
0010
0001
0010
0100
1000
0001
0010
0001
1000
0100
0010
0100
1000
,
0001
0100
0001
0100
0010
1000
0001
1000
0010
0100
0010
1000
0001
1000
0100
1000
,
0001
0010
0100
0010
0001
1000
0100
0010
0001
1000
0001
0100
0001
0100
0010
1000
,
0010
1000
0001
0010
0100
0010
0001
1000
0100
0010
0001
1000
0100
1000
0001
0100
,
0010
0000
0000
0100
0000
0000
0001
0000
0000
1000
0000
0000
0010
0000
0000
0100
0000
0000
0001
0000
0000
1000
0000
0000
0001
0000
0000
0000
0000
0000
1000
0000
0010
0000
1000
0000
0010
0000
0000
0000
0000
0000
0100
0000
0001
0000
0100
0000
,
0001
0000
1000
0100
0010
0000
0100
1000
0001
0010
0100
1000
0001
0010
0100
1000
,
0001
0100
0010
1000
0001
0100
0010
1000
0002
0000
1003
0100
1000
0100
0020
0000
,
0130
1000
0001
1000
0002
0000
0103
0001
0100
0001
2000
0000
3010
0100
0010
0100
,
0002
0000
1003
0100
0010
0000
0001
1000
1001
0000
0000
0000
M00M
0000
0000
0000
,
0000
0000
0000
0000
,
M00M
0000
0000
0000
0000
0000
0000
0000
0001
0010
0100
1000
0001
0010
0001
1000
,
0100
0010
0100
1000
0001
1000
0010
0100
0010
1000
0001
0100
0001
1000
0010
0100
,
0001
1000
0100
1000
0001
0010
0100
1000
0100
0010
0001
1000
0010
0100
0010
0100
,
0001
1000
0001
0010
0100
0010
0001
1000
0100
1000
0010
1000
0010
0100
0001
1000
,
0010
0100
0001
1000
0010
1000
0010
0100
0001
0100
0001
1000
0001
0010
0001
1000
,
0100
0010
0001
1000
0100
0010
0001
1000
0100
1000
0010
0100
0001
0100
0010
1000
,
0001
0100
0001
0100
0010
1000
0010
1000
0001
1000
0100
1000
0001
0010
0001
1000
,
0001
0010
0100
1000
0001
0010
0100
1000
0010
0000
0000
0000
MMMM
0000
0000
0000
,
0000
0000
0000
0000
0000
0000
0000
0000
1000
0100
0010
0001
1000
0100
1000
0001
,
0010
0100
0010
0001
1000
0001
0100
0010
0100
0001
1000
0010
1000
0001
0100
0010
,
1000
0001
0010
0001
1000
0100
0010
0001
0010
0100
1000
0001
0100
0010
0100
0010
,
1000
0001
1000
0100
0010
0100
1000
0001
0010
0001
0100
0001
0100
0010
1000
0001
,
0100
0010
1000
0001
0100
0001
0100
0010
1000
0010
1000
0001
1000
0100
1000
0001
,
0010
0100
1000
0001
0010
0100
1000
0001
0010
0001
0100
0010
1000
0010
0100
0001
,
1000
0010
1000
0010
0100
0001
0100
0001
1000
0001
0010
0001
1000
0100
1000
0001
,
1000
0100
0010
0001
1000
0100
0010
0001
1000
0001
0100
0010
0100
0001
1000
0010
,
1000
0001
1000
0010
0100
0001
1000
0010
0100
0001
1000
0100
1000
0001
0010
0001
,
0010
0100
0010
0100
1000
0001
0010
0100
1000
0001
0100
0010
1000
0010
1000
0001
,
0100
0001
0100
0010
1000
0001
0010
0001
0010
0100
1000
0001
0010
0100
0010
0001
,
1000
0001
1000
0010
1000
0010
0100
0010
0100
0001
0100
0001
1000
0001
0100
0010
,
0100
0001
1000
0100
1000
0001
0010
0100
0010
0001
1000
0100
0010
0001
1000
0100
,
0010
0001
1000
0100
1000
0001
0100
0001
1000
0010
1000
0001
0100
0010
1000
0010
,
0100
0001
0100
0001
1000
0001
0010
0001
0010
0100
1000
0100
1000
0001
1000
0100
,
0010
0001
1000
0100
1000
0001
1000
0010
0100
0010
1000
0001
0100
0001
0100
0010
,
0100
0001
1000
0010
0100
0001
1000
0001
0010
0001
0010
0100
0010
0001
1000
0100
,
1000
0000
0000
0001
0000
0000
1000
0000
0000
0010
0000
0000
0100
0000
0000
0001
0000
0000
1000
0000
0000
0001
0000
0000
0100
0000
0000
0000
0000
0000
0000
0000
0M10
0000
0000
0000
0000
0000
0000
0000
10M0
0000
0000
0000
0000
0000
0000
0000
,
M100
0000
0M10
0000
00M1
0000
100M
0000
M010
0000
01M0
0000
,
0M01
0000
100M
0000
M100
0000
0M10
0000
00M0
0000
0000
0000
,
MMMM
0000
0000
0000
0000
0000
0000
0000
1000
0100
0010
0001
1000
0100
0010
0001
,
1000
0010
0100
0001
1000
0010
0100
0001
1000
0100
1000
0100
0010
0001
0010
0001
,
1000
0010
0100
0001
1000
0000
2002
0000
0000
0000
0000
0000
0000
0000
0000
0000
,
3003
0000
0000
0000
;
