#TITLE:ZⅢ;
#SUBTITLE:;
#ARTIST:P-ST.;
#TITLETRANSLIT:Z3;
#SUBTITLETRANSLIT:;
#ARTISTTRANSLIT:;
#CREDIT:;
#BANNER:banner.png;
#BACKGROUND:bg.png;
#LYRICSPATH:;
#CDTITLE:../cdtitle.png;
#MUSIC:z3.mp3;
#OFFSET:-0.080;
#SAMPLESTART:82.220;
#SAMPLELENGTH:12.000;
#SELECTABLE:YES;
#DISPLAYBPM:1.000;
#BPMS:0.000=400.000,386.000=200.002,389.000=100.002,389.500=50.001,390.000=200.002,423.000=400.000;
#STOPS:127.500=0.600
,390.000=2.400
;
#BGCHANGES:;
// cache tags:
#FIRSTBEAT:64.000;
#LASTBEAT:631.000;
#SONGFILENAME:Songs/Japanese Collaboration Mix/z3/z3.sm;
#HASMUSIC:1;
#HASBANNER:1;
#MUSICLENGTH:120.664;
// end cache tags

//---------------dance-single - ----------------
#NOTES:
     dance-single:
     :
     Challenge:
     12:
     0.819,1.000,0.141,0.083,0.004,665.000,17.000,10.000,0.000,0.000:
0000
0000
0000
0000
,
0000
0000
0000
0000
,
0000
0000
0000
0000
,
0000
0000
0000
0000
,
0000
0000
0000
0000
,
0000
0000
0000
0000
,
0000
0000
0000
0000
,
0000
0000
0000
0000
,
0000
0000
0000
0000
,
0000
0000
0000
0000
,
0000
0000
0000
0000
,
0000
0000
0000
0000
,
0000
0000
0000
0000
,
0000
0000
0000
0000
,
0000
0000
0000
0000
,
0000
0000
0000
0000
,
1000
0100
1000
0100
1000
0000
0001
0100
,
0001
0100
0001
0000
1000
0001
1000
0000
,
0010
0100
0010
0100
0010
0000
1000
0010
,
1000
0010
1000
0000
0001
0100
0001
0000
,
1000
0001
1000
0001
1000
0000
0010
0100
,
0010
0100
0010
0000
1000
0001
1000
0000
,
0001
0010
0001
0010
0001
0000
1000
0010
,
1000
0010
1000
0000
0001
0010
0001
0010
,
0100
1000
0100
1000
0100
0000
1000
0001
,
1000
0001
1000
0000
0010
0100
0010
0000
,
1000
0001
1000
0001
1000
0000
0001
0010
,
0001
0010
0001
0000
1000
0010
1000
0000
,
0010
0100
0010
0100
0010
0000
1000
0001
,
1000
0001
1000
0000
0001
0100
0001
0000
,
1000
0100
1000
0100
1000
0000
0001
0010
,
0001
0010
0001
0000
1000
0001
1000
0001
,
0100
0001
1000
0001
,
0100
0001
1000
0001
0100
0000
0010
0000
,
1000
0010
0100
0001
,
1000
0001
0010
0001
1000
0000
0100
0000
,
0010
0001
1000
0001
,
0010
0001
1000
0001
0010
0000
0100
0000
,
0010
0001
1000
0001
,
1000
0010
1000
0010
0100
0001
0100
0000
,
0001
0010
0100
1000
,
0001
0010
0100
1000
0100
0000
0010
0000
,
0001
1000
0010
0100
,
0001
1000
0010
0100
0001
0000
1000
0000
,
0001
0010
0100
1000
,
0001
0010
0100
1000
0100
0000
0010
0000
,
0001
1000
0001
1000
0001
0000
0100
0010
,
0000
0100
0010
0000
1000
0010
1000
0010
,
1000
0100
0010
0001
,
1000
0000
0001
0010
0001
1000
0001
0000
,
0010
0100
1000
0100
,
0010
0000
0100
1000
0100
0010
0100
0000
,
1000
0001
0010
0001
,
1000
0000
0010
0001
0010
0100
0010
0000
,
1000
0001
0010
0001
,
1000
0000
0100
0010
0100
1000
0100
0000
,
1000
0001
0010
0001
,
1000
0000
0010
0100
0001
0000
1000
0000
,
0001
0010
0100
1000
,
0001
0000
0010
0001
1000
0000
0010
0000
,
0100
0000
0010
1000
0010
0000
0100
0000
,
0001
0000
1000
0001
1000
0000
0010
0000
,
0100
0001
0100
0000
0010
0000
1000
0000
,
0100
0010
0100
0000
1000
0000
0001
0000
,
1002
0000
0000
0000
,
0000
0000
0000
0000
,
0000
0000
0000
0000
,
0000
0000
0000
0013
,
0210
0000
0000
0000
,
0000
0000
0000
0000
,
0000
0000
0000
0000
,
0000
0000
0000
1300
,
1002
0000
0000
0103
,
0120
0000
0000
1030
,
1200
0000
0000
0310
,
0012
0000
0000
1003
,
0010
0100
0001
1000
,
0010
0100
0001
1000
,
0001
0010
0001
0010
0001
0000
1000
0100
,
1000
0100
1000
0000
0001
0010
0001
0010
,
0001
1000
0001
0010
,
0001
1000
0100
0010
,
0001
1000
0001
0010
,
0001
1000
0100
0010
,
0001
1000
0001
0010
,
0001
1000
0010
0001
,
0010
0100
0001
1000
,
0100
0010
0001
1000
,
1001
0100
0010
1000
,
0100
0010
0001
1000
,
1001
0001
0010
0100
,
1000
0100
0010
0001
,
1001
0100
0010
1000
,
1001
0010
0001
0100
,
1001
0000
0100
0010
0000
1000
0010
0000
,
0100
0001
0000
1000
0100
0000
0010
0000
,
2002
0000
0000
0000
,
0000
0000
0000
0000
0000
0000
0000
0000
0000
0000
0000
0000
0000
0000
0000
0000
0000
0000
0000
0000
0000
0000
0000
0000
0000
0000
0000
0000
0000
0000
0000
0000
0000
3003
0000
0000
0000
0000
0000
0000
0000
0000
0000
0000
0000
0000
0000
0000
0100
0000
0000
0000
0000
0000
0000
0000
0000
0000
0000
0000
0000
0000
0000
0000
,
0100
0100
0100
0100
,
0100
0100
0100
0100
,
0100
0100
0100
0100
,
0100
0000
0100
0000
0100
0001
1000
0100
,
0010
0001
1000
0001
0010
0001
1000
0010
,
0001
0010
0100
0001
1000
0001
1000
0100
,
0010
1000
0010
0100
1000
0010
0001
0010
,
0100
0000
0001
0000
1000
0000
0100
0000
0001
0000
0100
1000
0100
0000
0000
0000
,
1000
0001
0010
0001
,
1000
0100
0010
0000
0001
0000
1000
0000
,
0001
0010
0100
1000
,
0001
0010
0100
0000
1000
0000
0001
0000
,
1000
0010
0100
0001
,
1000
0001
0100
0000
0010
0000
1000
0000
,
0100
0010
0001
1000
,
0001
0010
0100
1000
0001
0010
0100
0000
,
1000
0001
0010
0001
,
1000
0010
0100
0000
0001
0000
1000
0000
,
0001
0010
0100
1000
,
0100
0010
0001
0000
1000
0000
0010
0000
,
1000
0100
0010
0000
0001
0000
1000
0000
,
0100
0010
1000
0000
0010
0000
0100
1000
,
0100
0000
0010
0000
0001
0000
0010
0001
,
0010
0100
1000
0001
,
0010
0001
0010
0000
0001
0000
1000
0000
,
0010
0100
0010
0000
1000
0000
0001
0000
,
1000
0100
1000
0000
0001
0000
0100
0000
,
0010
1000
0100
0010
0001
0000
0100
0000
,
0001
1000
0010
0000
0001
0000
0010
0000
,
0100
0001
1000
0000
0001
0000
0010
0000
,
0001
1000
0001
0000
0100
0000
0010
0000
,
1000
0010
0100
0010
1000
0000
0001
0000
,
0100
0001
1000
0000
0100
0000
0010
0000
,
0100
1000
0001
0000
0100
0000
0010
0000
,
0001
0010
0100
0000
0001
0000
1000
0000
,
0001
0100
0001
1000
0001
0000
0100
0000
,
0010
1000
0010
0000
0100
0000
0001
0000
,
0100
0001
0100
0000
0010
0000
1000
0000
,
0001
1000
0001
0000
0100
0000
0010
0100
,
0010
0100
0001
1000
0001
0000
0100
0000
,
0001
1000
0001
0000
0100
0000
0010
0000
,
1000
0100
0010
0001
0100
0000
0010
0000
,
0001
1000
0001
0000
0100
0000
0010
0000
,
1000
0001
0010
0100
1000
0000
0100
0000
,
1000
0001
0100
0000
0001
0000
1000
0000
,
0010
0001
0010
0100
0010
0000
0100
0000
,
0001
1000
0100
0000
0010
0000
0001
0000
,
1000
0100
0010
0001
1000
0000
0001
0100
,
0001
0000
1000
0001
1000
0000
0010
0100
,
0010
0000
1000
0010
1000
0000
0001
1000
,
0001
0000
0100
0010
0100
0000
0001
1000
,
0001
0000
0010
0100
0010
0000
0001
0000
,
0100
0110
0010
1000
,
0100
0110
0010
0001
,
1000
1001
0010
0100
,
0010
0110
0100
2002
,
0000
0000
0000
0000
,
0000
0000
0000
0000
,
0000
0000
0000
0000
,
0000
0000
0000
3003
;
