#TITLE:You're Not Alone;
#SUBTITLE:FFIX;
#ARTIST:植松伸夫;
#TITLETRANSLIT:;
#SUBTITLETRANSLIT:;
#ARTISTTRANSLIT:Nobuo Uematsu;
#CREDIT:;
#BANNER:You're Not Alone!-bn.jpg;
#BACKGROUND:You're Not Alone!-bg.jpg;
#LYRICSPATH:;
#CDTITLE:;
#MUSIC:You're Not Alone!.mp3;
#OFFSET:-6.905;
#SAMPLESTART:41.195;
#SAMPLELENGTH:12.560;
#SELECTABLE:YES;
#BPMS:0.000=140.020;
#STOPS:;
#BGCHANGES:;
// cache tags:
#FIRSTBEAT:0.000;
#LASTBEAT:242.000;
#SONGFILENAME:Songs/mike songs/You're Not Alone!/You're Not Alone!.sm;
#HASMUSIC:1;
#HASBANNER:1;
#MUSICLENGTH:113.379;
// end cache tags

//---------------dance-single - ----------------
#NOTES:
     dance-single:
     :
     Hard:
     7:
     0.446,0.450,0.300,0.326,0.079,283.000,34.000,37.000,0.000,0.000:
1000
0000
0100
0000
0100
0010
0100
0000
,
2000
3000
0002
0003
,
0020
0100
0130
0010
,
0002
0100
1000
0103
,
0001
0000
0001
0010
0100
0000
1000
0010
,
0100
1001
1001
0000
,
0010
0000
0001
0000
0010
0001
0100
0000
,
0010
2000
0002
3003
,
0100
0000
0010
1000
0001
0000
0100
0000
,
0020
0030
1000
0100
,
0010
0001
1000
0000
0100
1000
0100
0000
,
0020
0001
0100
0031
,
0100
0000
0001
1000
0010
0000
0100
0001
,
0010
0000
0100
1000
0200
0000
0310
0000
,
0100
0000
0100
0000
1000
0010
0100
0000
,
0001
0010
0100
0000
0011
0000
0000
0000
,
1000
0100
1000
0100
1000
0000
0011
0000
,
0210
0000
1000
1300
,
0001
0000
0010
0000
0100
1000
0010
0000
,
0200
0000
0301
0100
0001
0000
2001
0000
,
3100
0010
1001
0100
,
1010
0000
0101
0000
1010
0000
0001
0010
,
0200
0000
1000
0000
1300
0010
0100
0001
,
1000
0010
0102
0003
,
0001
0010
0001
0010
0001
0000
0201
0000
,
2000
0300
0100
3100
,
1000
0100
0010
1000
0001
1000
0100
0000
,
0210
0000
1000
0310
,
0100
0000
0000
0100
0000
0000
1000
0000
0001
0000
0000
0000
0100
0000
0010
0000
,
1000
0000
0000
0001
0000
0000
0100
0000
0100
0000
0000
0000
0010
0000
1000
0000
,
0001
0000
0000
0010
0000
0000
0001
0000
0001
0000
0000
0000
1000
0000
0010
0000
,
0100
0000
0000
0001
0000
0000
1000
0000
0100
0000
0000
0000
0010
0000
0001
0000
,
1000
0100
0000
1000
0000
0000
0001
0000
0100
0000
0000
0000
0010
0000
0000
0000
,
1000
0001
0000
0010
0000
0000
0100
0000
1000
0000
0000
0000
0001
0000
0000
0000
,
0100
0001
0000
0100
0000
0000
0001
0000
0100
0000
0000
0000
0101
0000
0001
0000
,
1000
0100
0000
1000
0000
0000
0100
0000
1000
0000
0000
0000
1100
0000
1000
0000
,
0002
0010
2003
0010
,
0002
3000
1000
0100
,
2000
0003
0001
0010
,
0001
3100
0220
0330
,
0001
1000
0000
0001
0000
0000
0100
0000
0020
0000
0000
0000
1030
0000
0000
0000
,
0100
0010
0000
0001
0000
0000
1000
0000
0020
0000
0000
0000
1030
0000
0000
0000
,
1002
0000
0000
1003
0001
0000
1100
0000
,
0012
0000
0000
0103
0001
0000
1010
0000
,
0100
0000
0001
1000
0001
0000
0010
0100
,
1000
0000
0010
1000
0100
1000
0001
0100
,
0020
0030
1001
0102
,
1003
1010
1100
0000
,
0010
0000
0001
0100
0020
0000
2030
0000
,
3001
0000
1000
0100
0010
0000
0001
0000
,
2100
0000
0000
0010
3010
0000
1001
0000
,
0102
0000
0000
0010
0013
0000
1100
0000
,
0010
0001
0100
0000
0010
1000
0100
0000
,
2100
0000
0000
0100
0000
0000
0010
0000
0010
3000
0000
0000
0001
0000
0000
0000
,
1020
0000
0000
1000
0000
0000
0100
0000
0130
0000
0000
0000
0001
0000
0000
0000
,
1000
0001
0100
0000
0020
0000
1030
0000
,
1010
0000
0100
0000
1001
0000
1000
0100
,
0010
0000
1001
0000
,
1200
0000
0000
0010
0010
0000
0001
0000
,
1000
0000
0000
0010
0010
0000
0001
0000
,
1300
0000
0000
0000
;

//---------------dance-single - ----------------
#NOTES:
     dance-single:
     :
     Medium:
     5:
     0.300,0.347,0.159,0.159,0.000,202.000,18.000,18.000,0.000,0.000:
2000
3000
1000
1000
,
0002
0003
0020
0030
,
0100
0000
0100
1000
,
0010
0000
0010
1000
,
0001
0000
1000
0000
,
0100
0100
0100
0000
,
0010
0000
0001
0000
0010
0001
0100
0000
,
0010
1000
0101
0000
,
0010
0010
1000
0100
,
0010
0000
0001
1000
,
0100
0000
0010
0000
0001
1000
0010
0000
,
2002
0000
0000
3003
,
0011
0100
1000
0010
,
1001
1001
1001
0000
,
0100
0000
0010
0000
1000
0001
1000
0000
,
0100
0010
0001
0000
,
1000
0010
0100
0001
,
2000
0000
0001
3001
,
1000
0000
0010
0000
1000
0001
0100
0000
,
0020
0000
0000
0030
,
1010
1000
0001
0010
,
0100
1001
1001
0000
,
0010
0000
0001
0000
0010
0001
1000
0000
,
0100
1000
0020
0030
,
1000
0001
0100
0010
,
2000
3000
1000
0100
,
0010
0000
0001
0000
1000
0010
1000
0000
,
0011
0000
0001
0100
,
1002
1003
0100
0010
,
2001
3001
0100
0010
,
1000
0000
0001
0100
,
1000
0100
0001
0000
,
1000
0100
0010
0001
,
0100
0000
0010
0000
,
1002
0000
1003
0000
,
2001
0000
3001
0000
,
1000
0100
0010
0001
,
0100
0000
0001
1000
,
0001
0000
0010
0100
,
1000
0001
1000
0000
,
1020
0000
0000
0000
0130
0000
0010
1000
,
0100
0000
0010
0000
,
0001
0000
0000
1000
0001
0000
0100
0000
,
0001
0000
0000
1000
0001
0000
1000
0000
,
0010
0100
0001
0001
,
0010
0100
1000
0010
,
1000
0000
0001
0010
,
0100
1000
0002
0003
,
0101
0001
1000
0100
,
0010
0000
1001
0000
,
0100
0000
0000
0001
0100
0000
0000
0000
,
0010
0000
0000
1000
0010
0000
0000
0000
,
1000
0100
0010
0001
,
0100
0000
0100
0001
,
0010
0000
0100
1000
,
0001
0100
2020
3030
,
0001
0000
0000
0000
1000
0000
0100
0010
,
0001
0100
0001
0010
,
0100
0000
0000
1000
0100
0000
1000
0000
,
0010
0000
0000
1000
0010
0000
0100
0000
,
0002
0000
0003
0000
;

//---------------dance-single - ----------------
#NOTES:
     dance-single:
     :
     Easy:
     3:
     0.194,0.212,0.062,0.053,0.000,141.000,7.000,6.000,0.000,0.000:
1000
0000
0000
0000
,
0001
0000
0010
0000
,
0100
0000
0000
0000
,
1000
0000
0000
0000
,
0010
0000
1000
0000
,
0001
0010
0001
0000
,
0100
0100
0001
0100
,
0001
0000
1000
0000
,
0100
0100
0100
1000
,
0100
0000
0010
0100
,
0010
0000
0001
0000
,
2002
0000
0000
3003
,
0001
0000
0010
0000
,
0001
1000
0001
0000
,
1000
0001
1000
0100
,
1000
0001
1000
0000
,
0001
0000
0010
0001
,
0010
0000
0001
0000
,
1000
0000
0100
1000
,
0100
0000
0000
0000
,
0010
0000
0100
0000
,
1000
0010
1000
0000
,
0001
0100
0001
0000
,
0100
0001
1000
0000
,
0100
0100
0100
1000
,
0100
0000
0010
0000
,
0100
1000
0010
0000
,
1000
0000
0001
0001
,
0100
0000
0001
0000
,
1000
0000
0010
1000
,
0001
0000
0010
0001
,
1000
0001
1000
0000
,
0100
0000
1000
0100
,
1000
0000
0001
0000
,
0200
0000
0300
0000
,
0200
0000
0300
0000
,
0010
0010
0010
1000
,
0001
0000
1000
0000
,
0001
0000
0010
0001
,
0010
0000
0100
0000
,
1000
0000
0001
0000
,
0100
0000
0010
0000
,
1001
0000
0000
0000
,
0110
0000
0000
0000
,
0001
0000
1000
0000
,
0100
0000
1000
0010
,
2000
3000
0001
0100
,
0001
1000
0001
0000
,
0010
0000
0100
0010
,
0100
0000
1000
0000
,
0002
0000
0003
0000
,
1001
0000
0000
0000
,
1000
0010
0100
0001
,
1000
0000
0001
0000
,
0010
0000
0001
0010
,
0100
0000
1000
0000
,
0010
0000
1000
0000
,
0001
0000
0101
0000
,
1010
0000
0000
0000
,
1001
0000
0000
0000
,
0100
0000
0000
0000
;
