#TITLE:Colors of the Heart;
#SUBTITLE:BLOOD+ Opening 3;
#ARTIST:UVERWORLD;
#TITLETRANSLIT:;
#SUBTITLETRANSLIT:;
#ARTISTTRANSLIT:;
#CREDIT:genrojo;
#BANNER:BLOOD+ Opening 3-bn.jpg;
#BACKGROUND:BLOOD+ Opening 3-bg1.jpg;
#LYRICSPATH:;
#CDTITLE:genrojo-cdtitle.png;
#MUSIC:BLOOD+ Opening 3.mp3;
#OFFSET:0.660;
#SAMPLESTART:35.325;
#SAMPLELENGTH:11.980;
#SELECTABLE:YES;
#BPMS:0.000=170.140;
#STOPS:24.500=0.100
,24.750=0.080
,25.000=0.100
,25.250=0.080
,25.500=0.100
,25.750=0.080
,26.000=0.100
,26.250=0.080
,171.000=0.080
,171.250=0.180
,171.500=0.100
,171.750=0.080
,172.000=0.100
,172.250=0.080
,172.500=0.100
;
#BGCHANGES:0.000=BLOOD+ Opening 3-bg1.jpg=1.000=0=0=1,
1.875=BLOOD+ Opening 3.avi=1.000=0=0=1,
249.000=BLOOD+ Opening 3-bg2.jpg=1.000=0=0=1,
99999=-nosongbg-=1.000=0=0=0 // don't automatically add -songbackground-
;
// cache tags:
#FIRSTBEAT:4.000;
#LASTBEAT:248.000;
#SONGFILENAME:Songs/toune 8/Colors of the Heart [BLOOD+ Opening 3]/BLOOD+ Opening 3.sm;
#HASMUSIC:1;
#HASBANNER:1;
#MUSICLENGTH:94.006;
// end cache tags

//---------------dance-single - ----------------
#NOTES:
     dance-single:
     :
     Easy:
     4:
     0.296,0.297,0.000,0.032,0.000,192.000,0.000,3.000,0.000,0.000:
0000
0000
0000
0000
,
0000
0000
0000
0000
,
0000
0000
0000
0000
,
0000
0000
0000
0000
,
0000
0000
0000
0000
,
0000
0000
0000
0000
,
0000
0000
0200
0000
0000
0000
0000
0000
0000
0300
0000
0000
1000
0000
0000
0000
,
0100
0010
0100
0001
,
0100
0010
1000
0100
,
0010
0100
0001
1000
,
0100
1000
0010
0100
,
0010
1000
0010
0100
,
0001
0010
1000
0010
,
0100
0001
0010
1000
,
0001
0100
0010
1000
,
0100
0001
0010
0100
,
0010
1000
0001
0100
,
0010
1000
0001
0100
,
0010
1000
0001
0100
,
0010
0100
0001
0010
,
1000
0001
0100
0010
,
1000
0001
0100
0000
,
0000
0000
0000
0000
0010
0010
0000
0000
,
0100
0100
0000
0000
0001
0001
0000
0000
,
0100
0100
0000
0000
1000
1000
0000
0000
,
0010
0010
0000
0000
0100
0000
0010
0000
,
0100
0001
0000
0100
,
0000
0010
0000
0001
,
0000
0100
0000
1000
,
0000
0001
0000
0010
,
0000
1000
0000
0010
,
0000
0100
0000
0001
,
0000
1000
0000
0100
,
0000
0010
0000
0100
,
0000
0001
0100
0010
,
0000
0001
0100
1000
,
0010
0100
0000
1000
,
0100
0010
0100
1000
,
0000
0001
0010
0100
,
0010
0000
1000
0100
,
0010
0100
0000
1000
,
0010
0100
0001
1000
,
0010
0100
0010
0020
,
0000
0030
0100
0000
0010
0000
1000
0000
,
0001
0100
0010
1000
,
0100
0010
1000
0100
,
0001
0100
0010
1000
,
0010
0100
0001
0100
,
0010
1000
0001
0100
,
0010
1000
0010
0100
,
0001
0100
0010
1000
,
0100
0010
0100
0010
,
1000
0001
0100
0010
,
0001
1000
0001
0100
,
0010
1000
0001
0100
,
0010
0100
0001
1000
,
0010
0100
0010
1000
,
0010
0100
0001
0010
,
1000
0001
0100
0010
,
0100
0010
0100
0001
,
1000
0010
0200
0000
,
0000
0000
0000
0000
,
0300
0000
0000
0000
;

//---------------dance-single - Copied from----------------
#NOTES:
     dance-single:
     Copied from:
     Medium:
     6:
     0.381,0.495,0.011,0.117,0.037,239.000,1.000,11.000,0.000,0.000:
0000
0000
0000
0000
,
0200
0000
0000
0000
,
0000
0000
0000
0300
,
0002
0000
0000
0000
,
0000
0000
0000
0003
,
0020
0000
0000
0000
,
0030
0000
1000
0001
1000
0001
1000
0001
1000
0002
0000
0000
0003
0000
0100
0000
,
0010
0000
0000
1000
0010
0000
0100
0000
,
0010
0000
0100
0010
0100
0000
0010
0000
,
1000
0000
0100
0000
0000
0000
0000
0001
,
0010
0100
0010
0000
0100
0000
0000
0010
,
0100
0000
0000
0010
0100
0000
1000
0000
,
0010
0100
0010
1000
,
0001
0100
0000
1000
,
0010
0001
1000
0100
0001
0000
0010
0100
,
0010
1000
0001
0010
,
0100
0000
0010
0100
1000
0000
0001
0000
,
0100
2000
0000
3000
,
0000
0000
0010
0000
1000
0100
0000
0100
,
1000
0000
0000
0001
0010
0000
0000
0001
,
0010
0000
0000
0100
0010
0000
0100
0010
,
1000
0000
0100
0010
0002
0000
0000
0000
,
0000
0000
0003
0000
0100
1000
0000
0000
,
0010
1000
0000
0000
0100
0010
1000
0000
,
0010
0000
0001
0000
0100
0010
0000
0000
,
0100
1000
0000
0000
0000
0000
0010
0000
,
0100
0000
0010
0000
0100
0010
1000
0000
,
0020
0000
0000
0000
,
0030
0000
0010
0100
1000
0000
0010
0100
,
0000
0001
0000
0100
0010
1000
0000
0000
,
0000
0000
0100
0010
0100
0000
0001
0100
,
0000
0010
0100
0010
,
0100
0000
0010
0001
0010
0000
0100
0010
,
1000
0000
0001
0100
1000
0000
0000
0000
,
0000
0000
0100
0000
0010
0100
0000
0000
,
0010
0001
0000
0000
0010
0000
0000
0100
,
0010
0000
0000
0000
0010
0000
0100
0010
,
0000
0100
0000
0001
0000
0010
0000
0100
,
1000
0000
0000
0000
0100
0001
0010
0000
,
0100
0010
0100
0000
0001
0010
1000
0000
,
0100
0010
1000
0000
0100
0010
0001
0000
,
0100
0010
0200
0000
,
0000
0000
0000
0000
0000
0000
0000
0000
0000
0000
0300
0000
0010
1000
0010
1000
,
0010
1000
0020
0000
0030
0000
0100
0000
0010
0000
0000
0000
0000
0000
0010
0000
,
0001
0100
0010
0001
,
0010
0100
1000
0010
,
0000
0000
0000
0000
0100
0010
0001
0010
,
0100
0000
0000
0010
0100
0000
0000
0010
,
0001
0000
0100
0010
0000
0100
0000
0010
,
0001
0000
0010
0100
0000
0010
0000
0100
,
0010
0100
0000
0000
0100
0010
0100
0010
,
0001
0000
1000
0100
0010
0000
0001
0000
,
0100
0000
0010
0000
1000
0000
0001
1000
,
0100
0001
0100
0010
,
0000
0000
0000
0010
,
0100
0000
0000
0010
0100
0000
0000
0100
,
0001
0000
0000
0010
0100
0000
0000
0100
,
1000
0010
1000
0010
0100
0000
0100
0000
,
0001
0010
0000
0000
0000
0000
0000
0010
,
0001
1000
0100
0010
0001
0000
0100
0000
,
0010
1000
0022
0000
,
0000
0000
0000
0000
,
0033
0000
0000
0000
;

//---------------dance-single - Copied from Copied f----------------
#NOTES:
     dance-single:
     Copied from Copied f:
     Hard:
     8:
     0.611,0.758,0.106,0.255,0.037,368.000,10.000,24.000,0.000,0.000:
0000
0000
0000
0000
,
0200
0000
0000
0302
0000
0000
0203
0000
,
0000
2300
0000
0000
3200
0000
0300
0000
,
0020
0000
0000
0230
0000
0000
0302
0000
,
0000
2003
0000
0000
3200
0000
0300
0000
,
0002
0000
0000
0203
0000
0000
0320
0000
,
0030
0000
1100
1000
1100
1000
1100
1000
1100
2000
0000
0000
3000
0000
0010
0000
,
0100
1000
0100
0010
0100
0001
0010
1000
,
0100
0010
1000
0100
0010
1000
0001
0010
,
0100
0010
1000
0000
0000
0000
0000
0010
,
0100
0001
1000
0100
0010
0001
0100
1000
,
0010
0100
0001
0100
0010
0100
0001
0010
,
0100
0010
1000
0100
1000
0100
0010
0001
,
0100
0010
0001
0000
0100
0000
0010
0000
,
0100
0010
0100
0010
0100
0010
0001
1000
,
0100
1000
0010
0100
0010
1000
0100
0001
,
0010
0100
1000
0001
0010
0100
0010
1000
,
0010
0001
0200
0000
0000
0000
0300
0000
,
0000
0000
0100
0010
0100
0001
0010
1000
,
0100
0010
0001
0100
1000
0010
0100
1000
,
0100
0010
0001
0010
0100
0001
1000
0100
,
0010
0100
1000
0001
0220
0000
0000
0000
,
0000
0000
0330
0000
0010
0001
0000
0100
,
1000
0010
0000
0100
0010
0001
0100
1000
,
0000
0100
0010
0000
0001
0100
0000
0010
,
0001
0100
0010
1000
0100
0010
0100
0010
,
0001
0100
1000
0010
0100
0000
0001
0100
,
2000
0000
0000
0000
,
3000
0000
0100
0010
0001
0010
0100
0010
,
1000
0100
0010
0001
0100
0010
0100
0000
,
0010
0000
0001
1000
0010
0100
1000
0010
,
0100
0001
0100
0010
1000
0100
0001
0010
,
0100
1000
0100
0010
0100
0010
0001
1000
,
0100
0010
0100
0010
0002
0000
0000
0000
,
0003
0000
0100
1000
0001
0010
0000
0100
,
1000
0010
0000
0000
0100
0000
1000
0001
,
0100
0000
0000
0000
0100
0010
1000
0100
,
0010
1000
0000
0010
0001
0100
0000
1000
,
0010
0000
0000
0000
0010
0100
1000
0100
,
0010
0000
0100
0000
0001
0010
1000
0010
,
0100
0000
1000
0000
0010
0100
0010
1000
,
0001
0100
1000
0010
0002
0000
0000
0000
,
0000
0000
0000
0000
0000
0000
0000
0000
0000
0000
0003
0000
0110
0100
0110
0100
,
0110
0100
0110
0000
1000
0000
0001
0000
0100
0000
0010
0000
0100
0000
1000
0000
,
0010
0100
0001
0010
1000
0100
0010
0100
,
0001
0010
1000
0100
0010
0100
0001
0000
,
0000
0000
0000
0000
0010
0100
0010
0001
,
0010
0100
0010
0100
1000
0010
0100
1000
,
0001
0010
1000
0100
0010
0001
0010
0100
,
0010
1000
0100
0010
0001
0100
0010
1000
,
0100
0001
0010
1000
0010
1000
0001
0010
,
0100
0010
0001
0010
1000
0100
0010
0100
,
1000
0010
0001
0100
0010
0100
1000
0010
,
0001
0010
0100
0010
1000
0100
0002
0000
,
0000
0000
0000
0000
0003
0000
0100
0010
,
0001
0010
0100
1000
0010
0100
0001
0010
,
0100
0010
1000
0100
0001
0100
0010
1000
,
0100
1000
0001
0100
0010
0001
1000
0010
,
0100
2000
0000
0000
0000
3000
0000
0100
,
0010
0001
0010
0100
0010
0100
1000
0010
,
0100
0010
0100
0000
0220
0000
0000
0000
,
0000
0000
0000
0000
,
0330
0000
0000
0000
;

//---------------dance-single - Copied from Copied f----------------
#NOTES:
     dance-single:
     Copied from Copied f:
     Challenge:
     13:
     1.000,1.000,1.000,0.223,0.851,628.000,167.000,21.000,0.000,2.000:
0000
0000
0000
0000
,
0010
0100
0020
0030
0200
0300
0010
0001
0200
0300
0020
0030
0001
0100
0020
0030
,
0200
0300
0010
1000
0020
0030
0002
0003
0010
0100
2000
3000
0020
0030
0000
0000
,
0100
0010
0001
0010
0100
0000
1010
0001
0100
0010
0100
1000
0001
0010
0100
0000
,
0011
0100
0010
0100
0001
0000
1010
0000
0001
0100
0010
0001
1000
0010
0001
0000
,
0100
0010
1000
0000
0020
0030
0001
0100
0010
0100
1000
0001
0010
0100
0010
0100
,
0001
0000
0110
1100
0011
0110
0101
1010
0110
2002
0000
0000
3103
0010
0100
0000
,
0110
0000
0011
0000
0100
0010
1000
0000
0101
0000
0110
0000
1000
0100
0010
0000
,
0101
0000
1100
0000
0010
0001
1000
0000
0100
0010
1001
0000
0110
0000
1000
0100
,
0001
0000
0100
0010
0001
0000
0110
0000
1100
0000
0010
0100
0001
0000
1100
0000
,
0010
0100
0010
0000
0100
1000
0001
0000
0100
0010
1001
0000
0110
0000
0011
0000
,
0100
0010
1000
0000
0100
1000
0001
0000
0100
0010
1000
0000
0110
0000
0011
0000
,
1000
0100
0001
0000
1000
0100
0010
0000
0001
0010
1000
0000
0100
0010
1000
0000
,
0011
0000
0100
0010
1000
0000
0100
0001
1000
0000
0110
0000
1001
0000
0010
0100
,
1000
0000
0011
0000
1000
0100
1000
0000
0001
0010
0100
0000
0100
0010
0001
0000
,
0110
0000
0011
0000
0100
0010
1100
0000
0100
1000
0010
0000
0001
0010
0100
0000
,
0100
0010
1000
0000
0010
0100
1000
0000
0011
0000
0110
0000
0100
0010
0100
0000
,
0001
0010
0100
0000
0011
0000
0100
0010
1000
0000
0100
0010
1000
0000
0011
0000
,
0110
0000
1100
0000
0001
0010
0100
0000
0010
0100
1000
0000
0100
1000
0011
0000
,
0110
0000
1000
0100
0010
0000
0001
0100
0010
0000
0100
0010
0001
0000
0110
0000
,
1100
0000
0001
0010
0100
0000
1000
0100
0010
0000
0100
0010
0100
0000
0010
0100
,
0011
0000
0110
0000
0011
0000
0100
0010
0201
0000
0000
0000
0010
0000
0000
0000
,
1000
0000
0310
0000
0011
0110
0000
0011
,
1100
0000
0110
0000
0000
0000
0001
0010
0100
0010
1000
0000
0011
0000
0110
0000
,
1001
0000
1000
0010
0100
0000
0000
0000
1010
0000
0101
0000
0010
0000
0100
0010
,
1000
0001
0010
0100
0001
1000
0010
0100
0001
0010
1000
0010
0001
0000
0100
0000
,
0011
0010
1100
0001
0010
0010
0110
0001
,
0120
1000
0100
0001
1000
0001
0100
1000
,
0130
0010
0100
0011
0100
1000
0110
0001
,
0100
1010
0001
0100
0010
1100
0010
0001
,
0110
0010
1000
0101
1000
0010
0101
1000
,
0010
1100
0010
0001
0110
0001
0010
0100
,
0011
0010
1000
0100
0010
1100
0010
0001
,
0010
0000
0100
0000
0001
0000
1000
0000
0120
0000
0001
0000
0100
0001
0100
1000
,
0130
0000
0001
0000
0110
0000
0011
0000
1100
0000
0011
0100
0010
1000
0011
0000
,
0110
0000
1100
0010
0001
0010
0100
1000
0011
0000
0100
0000
0110
0000
1100
0000
,
0011
0000
0100
0010
0100
0001
0010
0100
1001
0000
0110
0000
0011
0000
1100
0000
,
0110
0000
0011
0100
1000
0100
0011
0000
0110
0000
1100
0000
0010
0000
0011
0000
,
1100
0000
0010
0000
0001
0010
0100
1000
0011
1000
0100
0000
0010
0000
0001
0010
,
1100
0000
0010
0000
0011
0000
0100
0000
0110
0001
1000
0000
0010
0000
0001
0010
,
1100
0000
0001
0000
0110
0000
1000
0000
0101
1000
0010
0000
0001
0000
0110
0000
,
1000
0000
0100
0000
0011
0000
0110
0000
2100
0010
0100
0010
0001
0010
0100
0001
,
0010
0000
0100
0010
0001
0010
0100
0010
0100
0011
3100
0000
1100
0011
1100
0011
,
1010
0101
1001
0000
0010
0100
1000
0000
0011
0000
0110
0000
0100
0010
0001
0000
,
0100
0010
1000
0000
0100
0010
1000
0000
0110
0000
0011
0000
0100
0010
1000
0000
,
0110
0000
1001
0000
0010
0100
1000
0000
0001
0100
0010
0000
1100
0000
0011
0000
,
0100
0010
0100
0000
1000
0010
0100
0000
1010
0000
0011
0000
0100
0010
0100
0000
,
1000
0100
0010
0000
0101
0000
1100
0000
0010
0100
0001
0000
0010
0100
0010
0000
,
0100
0010
0001
0000
0110
0000
1100
0000
0001
0010
0100
0000
1100
0000
0011
0000
,
0110
0000
0010
0100
0001
0000
0100
0010
1000
0000
0001
0010
0100
0000
0110
0000
,
0001
0010
0100
0000
1100
0000
0011
0000
0100
0010
0100
0000
1000
0010
0001
0000
,
0010
0100
1000
0000
0110
0000
1001
0000
0010
0100
0001
0000
0100
0010
1000
0000
,
0100
0010
0001
0000
0010
0001
1100
0000
0011
0000
0110
0000
0010
0100
1000
0000
,
0100
0010
0001
0000
0010
0100
1000
0000
0010
0100
1001
0000
0210
0000
0001
0000
,
0010
0001
0010
0000
1000
0000
1000
0010
0301
0000
1010
0000
0011
0000
0100
0010
,
1000
0000
0100
0001
0010
0000
0100
0010
0001
0000
1010
0000
0110
0000
0001
0010
,
1100
0000
0100
0010
0001
0000
0010
0100
1000
0000
0010
0100
0001
0000
0110
0000
,
0011
0000
0110
0001
0110
0000
1000
0010
0100
0000
0010
0100
0001
0000
1100
0000
,
0010
0100
0012
0000
0100
1000
0010
0100
1000
0010
0100
0010
1003
0000
0110
0000
,
1001
0010
1100
0000
0011
0000
0110
1000
0011
0000
1010
0000
0011
0000
0110
0001
,
1100
0011
1100
0011
2002
0000
0000
0000
,
0000
0000
0000
0000
,
3003
0000
0000
0000
;
