#TITLE:Quasar;
#SUBTITLE:;
#ARTIST:Outphase;
#TITLETRANSLIT:;
#SUBTITLETRANSLIT:;
#ARTISTTRANSLIT:;
#CREDIT:;
#BANNER:quasar.png;
#BACKGROUND:quasar-bg.png;
#LYRICSPATH:;
#CDTITLE:BEN original.png;
#MUSIC:quasar.mp3;
#OFFSET:-0.500;
#SAMPLESTART:38.709;
#SAMPLELENGTH:12.000;
#SELECTABLE:YES;
#BPMS:0.000=155.000;
#STOPS:;
#BGCHANGES:0.000=quasar.avi=1.000=1=1=0,
318.500=quasar-bg.png=1.000=0=0=1,
99999=-nosongbg-=1.000=0=0=0 // don't automatically add -songbackground-
;
// cache tags:
#FIRSTBEAT:3.500;
#LASTBEAT:318.500;
#SONGFILENAME:Songs/new cc/quasar.2/Quasar.sm;
#HASMUSIC:1;
#HASBANNER:1;
#MUSICLENGTH:128.026;
// end cache tags

//---------------dance-single - ----------------
#NOTES:
     dance-single:
     :
     Beginner:
     2:
     0.179,0.304,0.133,0.078,0.000,133.000,17.000,10.000,0.000,0.000:
0000
0000
0000
0000
,
0001
0000
0000
0000
,
0100
0000
0000
0000
,
1000
0000
0000
0000
,
0010
0000
0000
0000
,
0001
0000
1000
0000
,
0010
0000
0100
0000
,
0001
0000
0000
0000
,
0000
0000
0000
0000
,
1000
0000
0010
0000
,
0100
0000
0001
0000
,
1000
0000
0000
0000
,
0000
0000
0000
0000
,
1000
0000
0100
0000
,
0010
0000
0100
0000
,
0001
0000
1000
0000
,
0010
0000
0100
0000
,
0001
0000
1000
0000
,
0010
0000
0100
0000
,
0001
0000
1000
0000
,
1001
0000
0000
0000
,
0110
0000
0011
0000
,
2002
0000
3003
0000
,
1010
0000
0101
0000
,
2002
0000
3003
0000
,
0011
0000
1001
0000
,
0220
0000
0330
0000
,
0011
0000
1100
0000
,
2002
0000
0000
3003
,
0100
0000
0100
0000
,
0010
0000
1000
0000
,
0100
0000
0001
0000
,
0010
0000
0100
0000
,
1000
0000
0100
0000
,
0010
0000
0100
0000
,
0001
0000
0010
0000
,
0100
0000
1000
0000
,
0100
0000
0010
0000
,
0001
0000
0010
0000
,
0100
0000
1000
0000
,
0100
0000
1000
0000
,
0010
0000
0001
0000
,
0010
0000
0100
0000
,
0010
0000
0100
0000
,
1000
0000
0100
0000
,
1000
0000
0100
0000
,
0010
0000
0100
0000
,
0010
0000
0001
0000
,
0010
0000
0010
0000
,
0100
0000
1000
0000
,
0100
0000
0010
0000
,
0001
0000
1000
0000
,
0100
0000
0010
0000
,
0100
0000
1000
0000
,
0001
0000
0010
0000
,
0100
0000
1000
0000
,
0100
0000
0010
0000
,
0001
0000
0100
0000
,
0010
0000
0100
0000
,
1000
0000
0010
0000
,
0100
0000
0001
0000
,
0010
0000
1000
0000
,
0100
0000
0001
0000
,
0010
0000
0100
0000
,
1000
0000
0100
0000
,
0010
0000
0001
0000
,
1000
0000
0100
0000
,
0010
0000
0100
0000
,
0001
0000
1000
0000
,
1001
0000
0000
0000
,
0000
0000
0000
0000
,
1000
0000
0100
0000
,
0010
0000
1000
0000
,
0001
0000
0010
0000
,
0100
0000
1000
0000
,
1001
0000
0000
0000
,
1010
0000
0000
0000
,
0202
0000
0000
0303
;

//---------------dance-single - ----------------
#NOTES:
     dance-single:
     :
     Easy:
     4:
     0.273,0.371,0.180,0.094,0.000,210.000,23.000,12.000,0.000,0.000:
0000
0000
0000
0000
,
1000
0100
0010
0001
,
1001
0100
0010
0100
,
1010
0100
0010
0001
,
0011
0000
0100
0000
,
0100
0000
1000
0000
,
0100
0000
0010
0000
,
1001
0000
0000
0000
,
0000
0000
0000
0000
,
1000
0000
0100
0000
,
0010
0000
0100
0000
,
1001
0000
0000
0000
,
0000
0000
0000
0000
,
0010
0000
1000
0000
,
0100
0000
1000
0000
,
1001
0000
0100
0000
,
0010
0000
0001
0000
,
1100
0000
0010
0000
,
0011
0000
0100
0000
,
1010
0000
0001
0000
,
2002
0000
0000
3003
,
0010
0000
0100
0000
,
0010
0000
0100
0000
,
1000
0000
0001
0000
,
0010
0010
0010
0000
,
1000
0000
0100
0000
,
1000
1000
1000
0000
,
0010
0000
0100
0000
,
2002
0000
0000
3003
,
0010
0000
0100
0000
,
1000
0000
0001
0000
,
0010
0000
0100
0000
,
1000
0000
0100
0000
,
0010
0000
0100
0000
,
0001
0000
1000
0000
,
0010
0000
0100
0000
,
0001
0000
1000
0000
,
0010
1000
0010
0100
,
0001
0010
0001
0010
,
0100
0010
0100
1000
,
0010
1000
0001
0010
,
0100
0010
0001
0010
,
0100
1000
0010
1000
,
0001
0010
0100
1000
,
0001
0010
0100
0000
,
1000
1000
0001
0001
,
0010
0010
0100
0100
,
1000
1000
0010
0010
,
1000
1000
0001
0001
,
0010
0010
0100
0100
,
1000
1000
0010
0010
,
0100
0100
0001
0001
,
1000
1000
0010
0010
,
0001
1000
0010
1000
,
0001
0100
0001
0010
,
0001
0100
0010
1000
,
0001
0010
0100
1000
,
0001
0100
0010
0100
,
0001
0010
0100
0010
,
0001
0010
0100
1000
,
0010
1000
0001
0010
,
0011
0100
0010
0100
,
1010
0100
0010
0100
,
0011
0100
1000
0010
,
1010
0001
0100
0010
,
0101
0010
1000
0001
,
0110
0001
1000
0010
,
1010
0001
0100
0010
,
0101
0010
1000
2002
,
0000
0000
0000
3003
,
0000
0000
0000
0000
,
1000
0000
0100
0000
,
0010
0000
0100
0000
,
1000
0000
0001
0000
,
0010
0000
0100
0000
,
2002
0000
0000
3003
,
0220
0000
0000
0000
,
0330
2002
0000
0000
,
0000
0000
0000
0000
,
0000
3003
0000
0000
;

//---------------dance-single - ----------------
#NOTES:
     dance-single:
     :
     Medium:
     6:
     0.375,0.466,0.125,0.062,0.000,312.000,16.000,8.000,0.000,0.000:
0000
0000
0000
0000
0000
0000
0000
0100
,
0100
0100
0100
0100
,
0100
1000
1000
1000
,
1000
0000
0100
0000
0100
0000
0100
0010
,
0100
0100
0100
0000
,
0001
1000
0010
1000
,
0100
0010
0001
0010
,
0100
1000
0100
0010
,
0100
0010
0001
0010
,
0100
0100
1000
1000
,
0010
0010
1000
1000
,
0001
0001
0010
0100
,
0010
0001
0010
0000
0100
0000
1000
0000
,
0100
1000
0100
0000
0010
0001
0010
0000
,
0100
1000
0100
0000
0010
0001
0010
0000
,
0010
1000
0010
0000
0100
0001
0100
0000
,
0001
0010
0001
0000
1000
0100
1000
0000
,
0010
1000
0010
0000
0001
0100
0001
0000
,
0001
0010
0001
0000
1000
0100
1000
0000
,
0010
1000
0010
0000
0001
1000
0001
0000
,
2002
0000
0000
3003
,
0010
1000
0100
0010
,
0001
0010
0100
1000
,
0001
1000
0001
0000
0010
0000
0100
0000
,
1000
0010
0100
0001
,
0010
0001
0010
0000
0100
0000
1000
0000
,
0001
0010
0100
1000
,
0010
1000
0010
0000
0100
0000
0001
0100
,
2002
0000
0000
3003
,
0100
0000
1000
0000
,
0010
0000
0100
0000
,
0001
0000
1000
0000
,
0010
0000
0100
0000
,
0001
0000
1000
0000
,
0010
0000
0100
0000
,
0001
0000
0010
0000
,
0100
0000
1000
0000
,
1000
0100
0010
0001
,
0010
0100
1000
0001
,
0010
0100
0010
0001
,
0100
0010
0100
0001
,
1000
0010
1000
0001
,
0010
0100
0010
0001
,
0010
0001
1000
0010
,
1000
0001
0010
0100
,
1000
0001
1000
0010
1000
0001
1000
0000
,
1001
1001
1001
0000
,
0001
0010
0001
1000
0001
0010
0001
0000
,
1001
1001
1001
0000
,
0010
1000
0010
1000
0010
1000
0010
0000
,
1001
1001
1001
0000
,
0100
0010
1000
0001
0010
0100
0010
0000
,
1001
1001
1001
0000
,
0100
1000
0010
1000
0010
0000
0100
1000
,
0001
0010
0100
0000
0001
0100
0010
1000
,
0001
0001
0001
0001
,
1000
1000
0010
0010
,
0001
0010
0100
0000
0001
0010
0100
0000
,
0010
1000
0001
0100
0010
0100
0001
0000
,
1000
1000
0010
0010
,
0100
0100
0001
0001
,
0001
0010
0100
1000
0001
0000
0100
0010
,
0001
0100
0010
0000
0001
0010
0100
1000
,
0001
0001
1000
1000
,
0010
0010
0100
0100
,
0001
0010
0100
1000
0001
0000
0100
0010
,
0001
0100
0010
0000
0001
0010
0100
1000
,
0001
0001
0010
0010
,
0100
0100
1000
2002
,
0000
0000
0000
0000
,
0000
0000
0000
0000
0000
0000
0000
3003
,
0000
0010
0000
0000
0000
1000
0000
0000
,
0000
0100
0000
0000
0000
0010
0000
0000
,
0000
0001
0000
0000
0000
1000
0000
0000
,
0000
0010
0000
0000
0000
0100
0000
0000
,
0000
0001
0000
0000
0000
0000
0000
0000
,
0000
1000
0000
0000
0000
0000
0000
0000
,
0000
2002
0000
0000
0000
0000
0000
0000
,
0000
0000
0000
0000
,
0000
0000
0000
0000
0000
3003
0000
0000
;

//---------------dance-single - Copied from----------------
#NOTES:
     dance-single:
     Copied from:
     Challenge:
     10:
     0.771,0.802,1.000,0.851,0.180,436.000,146.000,109.000,0.000,60.000:
0000
0000
0000
0000
0000
0000
0000
0100
,
0100
0100
0100
0100
,
0100
1000
1000
1000
,
1000
0000
0100
0000
0100
0000
0100
0010
,
0100
0000
0100
1000
0010
0001
0100
0000
,
2010
0010
0010
0010
3201
0001
0001
0001
,
1320
1000
1000
1000
0132
0100
0100
0100
,
1023
1000
1000
1000
1000
1000
1000
1000
,
1000
1000
1000
1000
1000
1000
1000
1000
,
2130
0100
0100
0100
3021
0001
0001
0001
,
1230
1000
1000
1000
1302
1000
1000
1000
,
0123
0100
0100
0100
0100
0100
0100
0100
,
0100
0100
0100
0100
0100
0100
0100
0100
,
2031
0001
0001
0001
3120
0100
0100
0100
,
1230
1000
1000
1000
0312
0010
0010
0010
,
0123
0100
0100
0100
0231
0001
0001
0001
,
2310
0010
0010
0010
3021
0001
0001
0001
,
1230
1000
1000
1000
0312
0010
0010
0010
,
1023
1000
1000
1000
0231
0001
0001
0001
,
2310
0010
0010
0010
3120
0100
0100
0130
,
2002
0000
0000
3003
,
0101
0000
0000
1010
0000
0000
0101
0000
0000
1100
0000
0000
0010
0000
0001
0000
,
0110
0000
0000
1100
0000
0000
0011
0000
0000
1010
0000
0000
0100
0000
1000
0000
,
0101
0000
0000
1001
0000
0000
0011
0000
0000
0110
0000
0000
0100
0000
1000
0000
,
0101
0000
0000
1001
0000
0000
0110
0000
0000
0011
0000
0000
0100
0000
1000
0000
,
0101
0000
0000
0011
0000
0000
1001
0000
0000
1010
0000
0000
0010
0000
0100
0000
,
1001
0000
0000
0101
0000
0000
1010
0000
0000
0011
0000
0000
0100
0000
1000
0000
,
0011
0000
0000
0101
0000
0000
1010
0000
0000
0011
0000
0000
0100
0000
1000
0000
,
2002
0000
0000
3003
,
2010
0000
0000
3000
0102
0000
0000
0003
,
0210
0000
0000
0300
0021
0000
0000
0030
,
1200
0000
0000
0300
0102
0000
0000
0003
,
2010
0000
0000
3000
0021
0000
0000
0030
,
1200
0000
0000
0300
0012
0000
0000
0003
,
2100
0000
0000
3000
0021
0000
0000
0030
,
1200
0000
0000
0300
2010
0000
0000
3000
,
0210
0000
0000
0300
2002
0000
0000
3003
,
0210
0010
0010
0310
2010
0010
0010
3010
,
0201
0001
0001
0301
1020
1000
1000
1030
,
0102
0100
0100
0103
1020
1000
1000
1030
,
0201
0001
0001
0301
2010
0010
0010
3010
,
1200
1000
1000
1300
0021
0001
0001
0031
,
0012
0010
0010
0013
0120
0100
0100
0130
,
1200
1000
1000
1300
2001
0001
0001
3001
,
0120
0100
0100
0130
0210
0010
0010
0310
,
1000
0100
1010
0001
0010
0100
1010
0001
,
0010
0100
1010
0001
0100
0010
1100
0001
,
0010
0100
1010
0001
0010
0100
1001
0010
,
1000
0100
1010
0010
1000
0001
1100
0010
,
0100
0001
1010
0100
0010
0001
0011
0100
,
1000
0010
1100
0001
0010
0100
1010
0001
,
0010
0100
0011
0001
0010
0100
1010
0001
,
0010
0100
1001
0001
0010
0100
1010
0001
,
2100
0000
0000
0010
0000
0000
0100
0000
3012
0000
0000
0010
0000
0000
0100
0000
,
1023
0000
0000
1000
0000
0000
0001
0000
1230
0000
0000
0001
0000
0000
0010
0000
,
2301
0000
0000
0001
0000
0000
3100
0000
0021
0000
0000
1000
0000
0000
0031
0000
,
1200
0000
0000
0010
0000
0000
1000
0000
0312
0000
0000
1000
0000
0000
0100
0000
,
1023
0000
0000
1000
0000
0000
0001
0000
1230
0000
0000
0001
0000
0000
0010
0000
,
2310
0000
0000
0001
0000
0000
0010
0000
3120
0000
0000
0001
0000
0000
1000
0000
,
0231
0000
0000
0001
0000
0000
0010
0000
1302
0000
0000
0010
0000
0000
1000
0000
,
0123
0000
0000
0100
0000
0000
0001
0000
1230
0000
0000
1000
0000
0000
0010
0000
,
2301
0000
0000
0001
0000
0000
0100
0000
3021
0000
0000
0001
0000
0000
1000
0000
,
0231
0000
0000
0001
0000
0000
1000
0000
0312
0000
0000
0010
0000
0000
0100
0000
,
1023
0000
0000
1000
0000
0000
0001
0000
1230
0000
0000
0010
0000
0000
0001
0000
,
2301
0000
0000
0010
0000
0000
3100
0000
2001
0000
0000
0010
0000
0000
0100
0000
,
3021
0000
0000
0001
0000
0000
0001
0000
0231
0000
0000
1000
0000
0000
0301
0000
,
0210
0000
0000
1000
0000
0000
0010
0000
1302
0000
0000
1000
0000
0000
0100
0000
,
1023
0000
0000
0100
0000
0000
1000
0000
1230
0000
0000
0001
0000
0000
1000
0000
,
0321
0000
0000
1000
0000
0000
0100
0000
1230
0000
0000
0001
0000
0000
0010
0000
,
2302
0000
0000
0000
,
0000
0000
0000
3003
,
0000
2010
0000
0000
0000
3201
0000
0000
,
0000
1320
0000
0000
0000
0132
0000
0000
,
0000
1023
0000
0000
0000
0231
0000
0000
,
0000
2310
0000
0000
0000
3201
0000
0000
,
0000
2320
0000
0000
0000
0000
0000
0000
,
3030
2002
0000
0000
0000
0000
0000
0000
,
0000
3223
0000
0000
0000
0000
0000
0000
,
0000
0000
0000
0000
,
0330
0000
0000
0000
;

//---------------dance-single - ----------------
#NOTES:
     dance-single:
     :
     Hard:
     8:
     0.552,0.511,0.219,0.008,0.000,466.000,28.000,1.000,0.000,0.000:
0000
0000
0000
0000
0000
0000
0000
1000
,
1000
1000
1000
1000
,
1000
0100
0100
0100
,
0100
0010
0010
0010
,
0010
0000
0010
0100
0010
0100
0010
0000
,
0001
0010
0001
0010
0100
1000
0100
1000
,
0100
0010
0100
0010
0001
0010
0001
0010
,
0100
0010
0100
0010
0100
0010
0100
0010
,
0100
0010
0100
0010
0100
0010
0100
0010
,
0100
1000
0100
1000
0100
0010
0100
0010
,
0001
0010
0001
0010
0100
0010
0100
0010
,
0100
1000
0100
1000
0100
1000
0100
1000
,
0100
1000
0100
1000
0100
1000
0100
1000
,
0010
1000
0010
1000
0001
0100
0001
0100
,
0001
0010
0001
0010
0100
1000
0100
1000
,
0010
1000
0010
1000
0001
0100
0001
0100
,
0001
0010
0001
0010
0100
1000
0100
1000
,
0010
1000
0010
1000
0001
1000
0001
1000
,
0001
0010
0001
0010
0100
0010
0100
0010
,
0001
0010
1000
0001
0010
0100
0010
0001
,
0100
0010
0100
0001
0010
0100
1000
0001
,
1000
1000
0000
0010
0010
0000
0100
0100
,
0000
0001
0001
0000
0010
0010
0010
0000
,
0100
0100
0000
1000
1000
0000
0010
0010
,
0000
0100
0100
0000
0001
0001
0001
0000
,
0010
0010
0000
0100
0100
0000
1000
1000
,
0000
0010
0010
0000
0100
0100
0100
0000
,
0001
0001
0000
1000
1000
0000
0010
0010
,
0020
0000
0000
0000
0000
0000
0000
0030
,
1100
0000
0110
0000
,
1010
0000
0101
0000
,
1001
0000
0101
0000
,
0110
0000
0101
0000
,
1001
0000
1010
0000
,
0101
0000
1010
0000
,
0101
0000
0011
0000
,
1010
0000
0101
0000
,
1000
1000
1000
1000
0100
0100
0100
0100
,
0010
0010
0010
0010
0001
0001
0001
0001
,
0010
0010
0010
0010
0100
0100
0100
0100
,
1000
1000
1000
1000
0010
0010
0010
0010
,
0100
0100
0100
0100
0001
0001
0001
0001
,
0010
0010
0010
0010
0100
0100
0100
0100
,
1000
1000
1000
1000
0010
0010
0010
0010
,
1000
1000
1000
1000
0001
0001
0001
0001
,
0010
0100
1000
0001
0010
0100
0010
0001
,
0100
0100
0100
0100
0100
0100
0100
0000
,
0010
1000
0001
0010
0100
1000
0001
0010
,
0100
1000
0001
0010
0100
0100
0100
0000
,
0001
0010
0100
1000
0001
0100
0010
0001
,
0100
0010
0100
0001
0010
0010
0010
0000
,
0001
0010
0100
1000
0001
0010
0100
0010
,
0001
0100
0010
0100
0001
0001
0001
0000
,
0001
1000
0010
1000
0100
1000
0010
1000
,
0100
0010
0001
0100
0010
0100
0001
0010
,
0100
0010
0001
0100
0010
0100
0001
0010
,
0100
0010
0001
0010
0100
1000
0010
1000
,
0001
0010
0100
1000
0001
0010
0100
0010
,
0001
0100
0010
0100
0001
0010
0100
0010
,
0001
0010
0100
1000
0010
1000
0001
0010
,
0100
1000
0010
1000
0001
0010
0100
1000
,
0010
0001
0100
1000
0100
0010
0100
1000
,
0010
0001
0010
0100
0001
0010
0001
0010
,
0100
0001
0100
0010
1000
0001
1000
0010
,
0100
1000
0100
0001
0010
0001
0001
0010
,
0100
0001
0100
1000
0010
1000
0010
0100
,
0001
1000
0001
0010
0100
0010
0100
1000
,
0001
0010
0001
0010
0100
0010
0100
1000
,
0001
0100
0001
0010
0100
0010
0100
0000
,
1001
0000
0000
0000
,
0000
0000
0000
0000
,
1010
0000
0101
0000
,
0110
0000
0101
0000
,
1010
0000
0101
0000
,
1010
0000
0101
0000
,
1100
0000
0000
0000
,
0110
0000
0000
0000
,
1001
0000
0000
0000
;
