#TITLE:Remote Control;
#SUBTITLE:bombastik;
#ARTIST:Kagamine Rin/Len;
#TITLETRANSLIT:;
#SUBTITLETRANSLIT:;
#ARTISTTRANSLIT:;
#CREDIT:;
#BANNER:bn.jpg;
#BACKGROUND:bg.jpg;
#LYRICSPATH:;
#CDTITLE:bombastik.png;
#MUSIC:Remote Control.mp3;
#OFFSET:-0.960;
#SAMPLESTART:27.520;
#SAMPLELENGTH:12.000;
#SELECTABLE:YES;
#BPMS:0.000=165.000,224.000=330.000,234.000=165.000;
#STOPS:0.000=0.010
,224.000=0.100
,224.500=0.440
,225.000=0.100
,225.500=0.300
,230.000=0.180
;
#BGCHANGES:;
// cache tags:
#FIRSTBEAT:8.000;
#LASTBEAT:299.500;
#SONGFILENAME:Songs/FUCK ANIME PACK/Remote Control/Remote Control.sm;
#HASMUSIC:1;
#HASBANNER:1;
#MUSICLENGTH:112.535;
// end cache tags

//---------------dance-single - Blank----------------
#NOTES:
     dance-single:
     Blank:
     Challenge:
     10:
     1.000,1.000,1.000,1.000,0.555,626.000,294.000,151.000,0.000,148.000:

0000
0000
0000
0000
,
0000
0000
0000
0000
,
1000
0000
0001
0100
0010
0000
0000
0000
1000
0000
0000
0000
0010
0000
0000
0000
,
0001
0000
0100
0010
1000
0000
0000
0000
0100
0000
0000
0000
1000
0000
0000
0000
,
0100
0000
1000
0001
0100
0000
0000
0000
0010
0000
0000
0000
0100
0000
0000
0000
,
0001
0000
0100
0010
1000
0000
0000
0000
0001
0000
0000
0000
0001
0000
0000
0000
,
1000
0000
0001
0100
1000
0000
0000
0000
0001
0000
0000
0000
1000
0000
0000
0000
,
0010
0000
1000
0010
0100
0000
0000
0000
0001
0000
0000
0000
0010
0000
0000
0000
,
1000
0000
0010
0001
0100
0000
0000
0000
1000
0000
0000
0000
0010
0000
0000
0000
,
1000
0000
0100
0010
1000
0000
0000
0000
0001
0000
0000
0000
1000
0000
0000
0000
,
0011
0000
0100
1000
0101
0000
0000
0000
0110
0000
0000
0000
1100
0000
0000
0000
,
1001
0000
0100
0001
1100
0000
0000
0000
1010
0000
0000
0000
0110
0000
0000
0000
,
1001
0000
0010
1000
0011
0000
0000
0000
1100
0000
0000
0000
1010
0000
0000
0000
,
0011
0000
1000
0001
1100
0000
0000
0000
1100
0000
0000
0000
0101
0000
0000
0000
,
0110
0000
0010
0100
1001
0000
0000
0000
0101
0000
0000
0000
1001
0000
0000
0000
,
1100
0000
0001
1000
0110
0000
0000
0000
0011
0000
0000
0000
0101
0000
0000
0000
,
0110
0000
1000
0010
0101
0000
0000
0000
1100
0000
0000
0000
1001
0000
0000
0000
,
0120
0000
1000
0100
1001
0000
0000
0000
0101
0000
0000
0000
1100
0000
0030
0000
,
1110
0000
0001
0100
0011
0000
0110
0000
1001
0000
1100
0000
0101
0000
0010
0000
,
1101
0000
0010
1000
0101
0000
0110
0000
1100
0000
0101
0000
1010
0000
0100
0000
,
1011
0000
0100
0001
1100
0000
0011
0000
1001
0000
1100
0000
0110
0000
1000
0000
,
0111
0000
1000
0001
0110
0000
1010
0000
0110
0000
1001
0000
0101
0000
1000
0000
,
0111
0000
1000
0001
1110
0000
0100
0000
1011
0000
0001
0000
1110
0000
0100
0000
,
1011
0000
0100
0001
1110
0000
0100
0000
1011
0000
0001
0000
1110
0000
0010
0000
,
1101
0000
0010
1000
0111
0000
0001
0000
1110
0000
0100
0000
1011
0000
0100
0000
,
2000
0000
3000
0000
0000
0000
2000
0000
3000
0000
0000
0000
0200
0000
0300
0000
0000
0000
0002
0000
0003
0000
0000
0000
0020
0000
0030
0000
0000
0000
0020
0000
0030
0000
0000
0000
2000
0000
0000
0000
0000
0000
0000
0000
0000
3000
0000
0000
,
1101
0000
0010
0100
0011
0000
0100
0000
1011
0000
0010
0000
1110
0001
0100
0000
,
2200
3300
0022
0033
0220
0330
2002
3003
2200
0000
0000
3300
0022
0033
2002
3003
,
1110
0001
0110
0000
0111
1000
0011
0000
2220
3330
0202
0303
1100
0001
1010
0000
,
0222
0000
0333
0000
0000
0000
2200
0000
3300
0000
0000
0000
2202
0000
3303
0000
0000
0000
0202
0000
0303
0000
0000
0000
0222
0000
0333
0000
0000
0000
0022
0000
0033
0000
0000
0000
2220
0000
0000
0000
0000
0000
0000
0000
0000
3330
0000
0000
,
1110
0001
1100
0000
1101
0000
0101
0000
1011
0000
0100
0000
1110
0001
1010
0000
,
0222
0000
0333
0000
0000
0000
0220
0000
0330
0000
0000
0000
2220
0000
3330
0000
0000
0000
0022
0000
0033
0000
0000
0000
2022
0000
0000
0000
0000
0000
0000
0000
0000
3033
0000
0000
0222
0000
0333
0000
0000
0000
0220
0000
0330
0000
0000
0000
,
1110
0001
0110
0000
1011
0000
0100
0000
1110
0000
0001
0000
1101
0010
1100
0000
,
0222
0000
0333
0000
0000
0000
2000
0000
3000
0000
0000
0000
2000
0000
3000
0000
0000
0000
0002
0000
0003
0000
0000
0000
0200
0000
0300
0000
0000
0000
2020
0000
3030
0000
0000
0000
2020
0000
3030
0000
0000
0000
0101
0000
0000
0010
0000
0000
,
1100
0001
1001
0100
1011
0100
0011
0100
,
1012
2100
3003
0110
0000
1000
0011
0100
,
1110
0001
1100
0100
0111
1000
0101
0010
,
2100
0021
3030
0110
1110
0010
0101
1000
,
0111
1000
0101
0100
0011
0001
1100
0010
,
2110
0012
3003
0110
0111
1000
0011
0100
,
1110
0001
0101
0010
1101
0100
1010
0001
,
2011
0120
3030
0101
1110
1000
0101
0010
,
1101
0010
1000
0001
1010
0100
0010
1000
0111
1000
0010
0100
1001
0010
0100
0001
,
1110
0010
0111
0100
1110
0010
0111
0010
,
0111
0000
0100
0000
1110
0000
0010
0000
0111
0000
0010
0000
1010
0100
0001
1000
,
0111
0000
1100
0000
0011
0000
0011
0000
1101
0000
0110
0000
0220
0000
0000
0330
,
1011
0100
0001
0010
0101
1000
0010
0001
1110
0001
0100
0010
1001
0100
1000
0010
,
1101
0010
0111
1000
1011
0100
0111
0010
,
1110
0001
1101
0100
1011
1000
0111
0010
,
1110
0000
0000
0001
0000
0000
0100
0000
0000
0010
0000
0000
2002
0000
3003
0000
0000
0000
2002
0000
3003
0000
0000
0000
0220
0000
0330
0000
0000
0000
0022
0000
0033
0000
0000
0000
0022
0000
0000
0000
0000
0000
0000
0000
0000
0000
0033
0000
,
1110
0001
0100
0010
1100
0001
1000
0010
1100
0001
1000
0100
0011
1000
0010
0100
,
1011
0100
1000
0001
0110
1000
0010
0100
0011
1000
0010
0001
1100
0010
0100
0001
,
1110
0001
0100
0010
0101
1000
0010
0100
0011
1000
0001
0010
1100
0001
1000
0010
,
1101
0010
0100
0001
1010
0100
0001
0010
1100
0001
0100
1000
0011
0100
0001
1000
,
0111
1000
0001
0100
1010
0001
0010
1000
0011
0100
1000
0010
1001
0100
0010
1000
,
0111
1000
0010
0001
0110
1000
0010
0100
0011
1000
0001
0010
1100
0010
0001
1000
,
0111
0111
1110
1110
0220
0000
0000
0330
,
1110
0000
0000
0000
0001
0000
0000
0000
1110
0000
0000
0000
0000
0000
0000
0011
,
0000
0000
0000
0000
1000
0000
0001
0000
1110
0000
0100
0000
0111
0000
1000
0001
,
1110
0001
1110
1000
0111
0100
0111
1000
,
2022
0000
0000
3033
0000
0000
0220
0330
0000
0220
0330
0000
0000
0000
0000
2000
0000
0000
3000
0000
0000
0001
0000
0000
,
1101
0000
0000
0000
1101
0000
0110
0000
0111
1000
0010
0100
1011
0100
0001
0010
,
1101
0000
0111
0000
1110
0000
0100
0010
1000
0001
0100
0000
1110
0000
0001
1000
,
0100
0010
0100
0000
0111
0000
1000
0000
1110
0000
0001
0000
1001
0100
0001
1000
,
0022
0000
0000
0033
0000
0000
0220
0330
0000
0220
0330
0000
1110
0000
0000
0001
0000
0000
0111
0000
0000
0100
0000
0000
,
2110
0000
0012
3003
1110
0000
0111
0000
1110
0001
0100
1000
0111
1000
0001
0100
,
2022
0000
3033
0000
0111
0000
0110
0000
2101
0000
0120
3030
0000
0000
0100
0000
,
2101
0000
0120
3030
0111
0000
1000
0000
1011
0000
0100
0000
0111
0000
0001
0000
,
2220
0000
0000
3330
0000
0000
0202
0303
0000
0202
0303
0000
1110
0000
0000
0001
0000
0000
0110
0000
0000
0100
0000
0000
,
2220
3330
0000
0000
0011
0000
0101
0000
1110
0001
0100
0010
1101
0010
1000
0100
,
2022
0000
3033
0000
0000
0000
2220
0000
3330
0000
0000
0000
0222
0000
0000
0333
0000
0000
1000
0000
0000
0100
0000
0000
0001
0000
0000
0100
0000
0000
0010
0000
0000
0000
0000
0000
0111
0000
0000
0000
0000
0000
0001
0000
0000
0100
0000
0000
,
0010
1000
0001
0000
1110
0000
0001
0000
1011
0000
0100
0000
0111
0000
1000
0000
,
2202
0000
0000
3303
0000
0000
0000
0000
0000
0000
0000
0000
0220
0000
0330
0000
0000
0000
0220
0000
0330
0000
0000
0000
0111
0000
0000
0000
0000
0000
1000
0000
0000
0000
0000
0000
0101
0000
0000
0000
0000
0000
0010
0000
0000
0000
0000
0000
,
2110
0000
0102
3003
1110
0000
0100
0000
1011
0000
0100
0000
1011
0000
0100
0000
,
1012
0000
2100
0000
0000
0000
3103
0000
2002
0000
0000
0000
0000
3003
0000
0000
;

//---------------dance-single - Blank----------------
#NOTES:
     dance-single:
     Blank:
     Hard:
     8:
     1.000,1.000,1.000,1.000,0.578,616.000,216.000,165.000,0.000,16.000:

0000
0000
0000
0000
,
0000
0000
0000
0000
,
1000
0000
0001
0010
0001
0000
0000
0000
0100
0000
0000
0000
1000
0000
0000
0000
,
1000
0000
0001
0010
0001
0000
0000
0000
0100
0000
0000
0000
1000
0000
0000
0000
,
1000
0000
0001
0010
0001
0000
0000
0000
0100
0000
0000
0000
1000
0000
0000
0000
,
1000
0000
0001
0010
0001
0000
0000
0000
0200
0000
0000
0000
2000
0000
3300
0000
,
0001
0000
0100
0010
0100
0000
0000
0000
0001
0000
0000
0000
1000
0000
0000
0000
,
0001
0000
0100
0010
0100
0000
0000
0000
0001
0000
0000
0000
1000
0000
0000
0000
,
0001
0000
0100
0010
0100
0000
0000
0000
0001
0000
0000
0000
1000
0000
0000
0000
,
0002
0000
0100
0010
0100
0000
0003
0000
0001
0000
0000
0000
1000
0000
0000
0000
,
0011
0000
1000
0100
1000
0000
0000
0000
0010
0000
0000
0000
0100
0000
0000
0000
,
1100
0000
0001
0010
0001
0000
0000
0000
0010
0000
0000
0000
1000
0000
0000
0000
,
0110
0000
0001
1000
0001
0000
0000
0000
0100
0000
0000
0000
0010
0000
0000
0000
,
1100
0000
0010
0100
0010
0000
0000
0000
0001
0000
0000
0000
0100
0000
0000
0000
,
1001
0000
0100
0010
0100
0000
0000
0000
1000
0000
0000
0000
0010
0000
0000
0000
,
1010
0000
0001
0010
0001
0000
0000
0000
0100
0000
0000
0000
0010
0000
0000
0000
,
0101
0000
1000
0100
1000
0000
0000
0000
0010
0000
0000
0000
0100
0000
0000
0000
,
2001
0000
0000
0000
0010
0000
0000
0000
0001
0000
0000
0000
0200
0000
0000
3300
,
0011
0000
1000
0100
0010
0000
0001
0010
0100
0000
0020
0000
2000
3030
0010
0100
,
1001
0000
0100
0010
0001
0000
0100
0010
0001
0000
0200
0000
0002
0000
0313
0100
,
0011
0000
0100
1000
0100
0000
0001
0010
0100
0000
0002
0000
1003
0000
0100
0010
,
1001
0000
0100
0010
0001
0000
0100
0010
0001
0000
2000
0000
3100
0000
0010
0001
,
1100
0000
0001
0000
1010
0000
0001
0000
0110
0000
1000
0000
0012
0000
1000
0010
,
1103
0000
0010
0000
0101
0000
1000
0000
0011
0000
0100
0000
2100
0000
0001
0100
,
3011
0000
0100
0000
0011
0000
0010
0000
1001
0000
0100
0000
2001
0000
0100
0010
,
3002
0003
0002
0003
0020
0030
2000
3000
0200
0300
0200
0300
0002
0000
0000
0003
,
1110
0000
0001
0100
1001
0000
0010
0000
1100
0000
0001
0000
1100
0001
0010
0000
,
2002
3003
0220
0330
2200
3300
0022
0033
0220
0000
0000
0330
0001
0010
0100
0000
,
0110
0000
1000
0001
0100
0000
0010
0000
2001
0000
0200
0000
3301
0100
0001
0000
,
2200
3300
0022
0033
0220
0330
2002
3003
0220
0330
0220
0330
0220
0330
0000
0000
,
1100
0000
0010
0100
1000
0000
0010
0000
2100
0000
0020
0000
3130
0010
0001
0000
,
0220
0330
2200
3300
0022
0033
0220
0330
2002
0000
0000
3003
1000
0001
1000
0000
,
0011
0000
0100
1000
0011
0000
0100
0000
1002
0000
0020
0000
0133
1000
0010
0000
,
2200
3300
0022
0033
0220
0330
2002
3003
2200
3300
2200
3300
2200
0000
0000
3300
,
0011
0100
1010
0001
0110
1000
1001
0010
,
2200
0000
3322
0000
0033
0000
0000
1100
0000
0000
0001
0000
0110
0000
1000
0000
,
0022
0033
1010
0100
2020
3030
0011
1100
,
1001
0200
0300
0011
1100
0001
1010
0010
,
1100
0010
0001
0100
0011
1100
0110
0011
,
1001
2002
3003
0110
0000
0010
1100
0010
,
0202
0000
0303
0000
0100
0010
0100
1000
0022
0000
0033
0000
1000
0100
0010
0100
,
0022
0233
0300
0001
0110
1000
0011
1000
,
0011
0100
1000
0100
0011
0100
0010
0001
1100
0010
0100
0010
1100
0010
0100
0010
,
1100
0000
0010
0000
1100
0000
0010
0000
1100
0000
0010
0000
2200
0000
0000
3300
,
0011
0000
0100
0000
0011
0000
0100
0000
0011
0000
0100
0000
0022
0000
0133
1000
,
0110
0011
0110
1001
1001
0110
2002
3003
,
1001
0100
0010
0100
1001
0100
0010
0100
1001
0100
0010
0100
1001
0010
0100
1000
,
0011
0100
1100
0010
0011
0100
2200
3300
,
1001
0000
0010
0000
1010
0000
0100
0000
1001
0000
0010
0000
2010
0000
3001
0100
,
0011
0110
1100
1001
0110
0110
2002
3003
,
1100
0001
0010
0100
0010
0100
1000
0100
0010
0100
1000
0100
0010
0001
0010
0100
,
1001
0010
0100
1000
0100
1000
0100
0010
0100
0010
0001
0010
0100
0010
0001
0010
,
1100
0001
0010
0001
0010
0100
0010
0100
1000
0100
0010
0100
0010
0100
1000
0100
,
0011
0100
1000
0100
0010
0001
0010
0100
0010
0100
1000
0100
0010
0100
1000
0100
,
0011
0100
1000
0100
0010
0001
0010
0100
0010
0100
0010
0100
0010
0001
0010
0100
,
0011
0100
1000
0100
0010
0100
1000
0100
0010
0001
0010
0100
0010
0100
1000
0100
,
0011
0011
0110
0110
1100
0000
0000
0000
,
1001
0000
0000
0000
0010
0000
0000
0000
1100
0000
0000
0000
0000
0000
0000
0022
,
0000
0033
0000
0000
1000
0000
0001
0000
1100
0000
0010
0000
1100
0000
0001
1000
,
0011
0100
1001
0100
0022
0033
2002
3003
,
0220
0000
0330
0000
2000
3000
2000
0000
3101
0000
0010
0000
1100
0000
0001
0000
,
0220
0330
0000
0000
1100
0000
0110
0000
0001
0100
0010
0100
1000
0001
0010
0100
,
1001
0000
0110
0000
2200
3300
0001
0010
1001
0000
0220
0000
0330
0000
1000
0001
,
0110
0000
2002
0000
3023
0030
0000
0000
2200
3300
0000
0000
0220
0330
0000
1000
,
0022
0033
0000
0000
0220
0330
0220
0330
1001
0000
0100
0000
0011
0000
0100
0000
,
1010
0000
0100
0000
0011
0000
0011
0000
1001
0100
0010
0100
1001
0100
0010
0100
,
2002
0000
3003
0000
0020
0030
0200
0300
2001
0000
0020
0000
3131
0000
1000
0000
,
0102
0020
1133
0100
0022
0033
2200
3300
,
0220
0000
0330
0000
2002
3003
2002
3003
0110
0000
1000
0000
0101
0000
0010
0000
,
1100
0001
0100
0100
0011
0011
0110
1100
,
1001
0000
1001
0000
2002
0000
3013
0100
1001
0000
0110
0000
1001
0000
0100
0010
,
1100
0000
0011
0000
1100
0000
0010
0000
0011
0100
1000
0100
0011
0100
1000
0100
,
0022
0000
0033
0000
2002
3003
2002
3003
0110
0000
1000
0000
0101
0000
0010
0000
,
1100
1100
0101
0010
1100
1001
0110
1100
,
0022
0000
2233
0000
0000
0000
0000
3300
2002
0000
0000
0000
0000
0000
3003
0000
;
