#TITLE:Electro Fantasy-HD;
#SUBTITLE:;
#ARTIST:Beautiful Day;
#TITLETRANSLIT:;
#SUBTITLETRANSLIT:;
#ARTISTTRANSLIT:;
#CREDIT:;
#BANNER:Electro Fantasy-HD.png;
#BACKGROUND:Electro Fantasy-HD-bg.png;
#LYRICSPATH:;
#CDTITLE:NVLM-cdtitle.png;
#MUSIC:Electro Fantasy-HD.mp3;
#OFFSET:-3.435;
#SAMPLESTART:20.557;
#SAMPLELENGTH:12.000;
#SELECTABLE:YES;
#BPMS:0.000=140.000;
#STOPS:;
#BGCHANGES:;
// cache tags:
#FIRSTBEAT:0.000;
#LASTBEAT:308.000;
#SONGFILENAME:Songs/toune 8/Electro Fantasy-HD/Electro Fantasy-HD.sm;
#HASMUSIC:1;
#HASBANNER:1;
#MUSICLENGTH:138.840;
// end cache tags

//---------------dance-single - ----------------
#NOTES:
     dance-single:
     :
     Hard:
     12:
     0.840,0.940,0.483,0.612,0.670,664.000,67.000,85.000,0.000,0.000:  // measure 1
1000
0000
0100
0000
0100
0010
0000
0010
0001
0000
0001
0000
1000
0010
0000
0010
,  // measure 2
0100
0000
0100
0000
0001
0010
0000
0010
0100
0000
1000
0000
1000
0010
0000
0010
,  // measure 3
0100
0001
0100
0000
0001
0010
0100
0000
1000
0010
1000
0000
1000
0100
1000
0000
,  // measure 4
0001
0010
0001
0000
0001
0100
0001
0000
1000
0010
0001
0000
0001
0010
1000
0000
,  // measure 5
1000
0100
0010
0000
0010
0001
1000
0000
0001
0010
0100
0000
1000
0100
0010
0000
,  // measure 6
0001
0100
1000
0000
1000
0100
0001
0000
0001
0010
0100
0000
0100
1000
0010
0000
,  // measure 7
0010
1000
0001
0000
0001
0100
1000
0000
1000
0100
0010
0000
0010
1000
0100
0000
,  // measure 8
0100
0010
0001
0000
0001
1000
0010
0000
0010
0100
1000
0000
1000
0100
0001
0000
,  // measure 9
0001
0010
0100
0000
1000
0001
1000
0000
0100
0010
0001
0000
0001
0010
0100
0000
,  // measure 10
1000
0001
1000
0000
0010
0100
0001
0000
1000
0100
1000
0000
0010
0100
0001
0000
,  // measure 11
0000
0001
1000
0100
1000
0010
0100
0010
0100
0001
0010
0001
0010
0100
1000
0100
,  // measure 12
0000
1000
0001
1000
0100
0010
0100
0010
0100
1000
0001
1000
0001
0010
0100
1000
,  // measure 13
0100
0010
0001
0000
1000
0100
1000
0000
0001
0010
0001
0000
0010
0100
1000
0000
,  // measure 14
1000
0001
1000
0000
0001
0010
0001
0000
0100
0010
1000
0000
1000
0001
1000
0000
,  // measure 15
0000
0100
0010
0001
0010
0100
1000
0100
1000
0001
0100
0001
0010
0100
1000
0100
,  // measure 16
0000
0010
0001
1000
0010
1000
0100
1000
0001
0100
0001
0010
0100
1000
0100
1000
,  // measure 17
0001
0010
0001
0000
0100
0000
0010
0000
1000
0100
1000
0000
0001
0000
0100
0000
,  // measure 18
0010
1000
0010
0000
1000
0000
0100
0000
0010
0001
0010
0100
1000
0000
0001
0000
,  // measure 19
1000
0002
0000
0000
0013
0200
0000
0000
1300
0020
0000
0000
0031
0200
0000
0000
,  // measure 20
1300
0002
0000
0000
0103
0020
0000
0000
1030
0200
0000
0000
0310
0002
0000
0000
,  // measure 21
0103
2000
0000
0000
3100
0002
0000
0000
0013
0200
0000
0000
1300
0020
0000
0000
,  // measure 22
0031
0200
0000
0000
0310
2000
0000
0000
3100
0020
0000
0000
0031
2000
0000
0000
,  // measure 23
3100
0002
0000
0000
0103
2000
0000
0000
3100
0020
0000
0000
0031
2000
0000
0000
,  // measure 24
3010
0200
0000
0000
1300
0002
0000
0000
0013
0200
0000
0000
1300
0020
0000
0000
,  // measure 25
0130
0002
0000
0000
1003
0200
0000
0000
0310
0002
0000
0000
1003
0020
0000
0000
,  // measure 26
0130
2000
0000
0000
3100
0002
0000
0000
0013
0200
0000
0000
1300
0001
1000
0000
,  // measure 27
1100
0110
0011
1001
,  // measure 28
1010
0110
1100
1001
,  // measure 29
0101
0011
0110
1100
,  // measure 30
1000
0010
1000
0010
1000
0100
1000
0100
0010
0001
0010
0001
0100
0001
0100
0001
,  // measure 31
1000
0010
1100
0001
0100
0010
1100
1001
,  // measure 32
0010
0100
1001
0100
0010
0001
1100
0110
,  // measure 33
0001
0100
1010
1000
0100
0010
1001
0100
,  // measure 34
1000
0001
0110
1000
0100
0010
1001
0100
,  // measure 35
1000
0010
0110
0010
0001
0010
0110
0010
,  // measure 36
1000
0000
0100
0010
0001
0000
0010
0000
0100
0000
1000
0000
0101
0000
0010
0000
,  // measure 37
1000
0000
0100
0001
0010
0000
0100
0000
1000
0000
0001
0000
0101
0000
0010
0000
,  // measure 38
1000
0000
0100
0010
0001
0000
1000
0000
0010
0000
0100
0000
1100
0000
0001
0000
,  // measure 39
1000
0000
0100
0010
0001
0000
1000
0000
0010
0000
0100
0000
1100
0000
0001
0000
,  // measure 40
1000
0000
0010
0100
1000
0000
0100
0000
0001
0000
0010
0000
1100
0000
0001
0000
,  // measure 41
1000
0100
0010
0001
0010
0100
1000
0100
0010
0001
0010
0100
1000
0100
0010
0001
,  // measure 42
0010
0100
1000
0100
1000
0001
0100
0001
0100
0010
1000
0010
1000
0100
0010
0100
,  // measure 43
0110
0001
1100
0010
1001
0100
0011
0100
,  // measure 44
1001
0010
0110
1000
0011
0100
1010
0100
,  // measure 45
1002
0010
0100
1003
,  // measure 46
0020
1000
0100
0031
,  // measure 47
1000
0100
0010
0100
1000
0001
0100
0010
0001
0010
0100
1000
,  // measure 48
0010
0100
0001
1000
0100
0001
0100
1000
0010
0100
0001
0010
,  // measure 49
2001
0000
0010
0000
3200
0320
0032
0203
,  // measure 50
0320
0001
2030
0001
,  // measure 51
3200
0000
0000
0000
0320
0000
0000
0000
0032
0000
0000
0000
2003
0000
0000
0010
,  // measure 52
3020
0001
0230
1000
,  // measure 53
2300
0000
0001
0000
3200
0320
0032
0203
,  // measure 54
2300
3200
0302
0023
,  // measure 55
0230
0000
0000
0000
0001
0000
0000
1000
2300
0000
0000
0000
0010
0000
3200
0000
,  // measure 56
0320
0000
0001
0000
1000
0000
0100
0032
,  // measure 57
2003
0100
3020
0230
,  // measure 58
0302
0000
0000
0023
0000
0000
0130
1000
0001
0100
0010
1000
,  // measure 59
0200
0000
0320
0032
,  // measure 60
2003
0100
3020
0001
,  // measure 61
0230
0000
0001
0000
2300
3002
0203
0320
,  // measure 62
2030
3200
0320
0032
,  // measure 63
2003
0000
0000
0000
0100
0000
0000
0010
3020
0000
0000
0000
0000
0000
0230
0000
,  // measure 64
0302
0000
0010
0000
0100
0100
0100
0000
,  // measure 65
1003
0100
1001
0100
1000
0100
1001
0100
,  // measure 66
0001
0010
1001
0010
0001
0010
1001
0010
,  // measure 67
0100
1000
0100
0000
1100
0000
0010
0000
0001
1000
0001
0000
1001
0000
0100
0000
,  // measure 68
0010
1000
0010
0000
1010
0000
0100
0000
0001
0010
0001
0000
0110
0000
1000
0000
,  // measure 69
0001
0100
0010
0000
1000
0100
0010
0000
0001
1000
0100
0000
0011
0000
0010
0000
,  // measure 70
1000
0100
1000
0000
1001
0000
0010
0000
0100
1000
0100
0000
1100
0000
0010
0000
,  // measure 71
0001
0100
1000
0000
1100
0000
0010
0000
0001
0010
0100
0000
1100
0000
1000
0000
,  // measure 72
0010
0100
0001
0000
1001
0000
1000
0000
0100
0010
0001
0000
1001
0000
1000
0000
,  // measure 73
0010
0100
0010
0000
1001
0000
0100
0000
0010
0001
0010
0000
1100
0000
1000
0000
,  // measure 74
0001
0010
0100
0000
1100
0000
1000
0000
0001
0100
0001
0000
0110
0000
1000
0000
,  // measure 75
0011
0101
1010
1100
0011
0101
1010
1100
,  // measure 76
2002
0000
0000
0000
,  // measure 77
0000
0000
0000
3003
;

//---------------dance-single - ----------------
#NOTES:
     dance-single:
     :
     Challenge:
     16:
     1.000,1.000,1.000,1.000,1.000,1048.000,326.000,171.000,0.000,309.000:  // measure 1
2212
0000
0010
0000
3013
0010
0000
0010
0010
0000
0010
0000
0010
0010
0000
0010
,  // measure 2
0010
0000
0010
0000
0010
0010
0000
0010
0010
0000
0010
0000
0010
0010
0300
0010
,  // measure 3
1001
0100
1010
0001
1010
1100
0001
1100
1010
0100
1001
0001
1010
1100
0001
1100
,  // measure 4
1010
0001
1100
0010
1100
1001
0010
1100
1001
0100
1010
0001
1100
1100
0010
1100
,  // measure 5
1001
0010
1100
0001
1100
1010
0100
1001
1010
0100
1001
0100
1010
1001
0100
1010
,  // measure 6
1010
0100
1001
0100
1010
1001
0010
1001
1010
0100
1001
0100
1001
1100
0010
1001
,  // measure 7
1001
0100
1010
0100
1001
1010
0100
1001
1100
0010
1001
0100
1010
1001
0010
1100
,  // measure 8
1001
0100
1010
0100
1001
1010
0100
1010
1001
0010
1100
0010
1001
1100
0010
1100
,  // measure 9
1001
0100
1010
0100
1100
1001
0010
1100
1010
0100
1001
0100
1010
1100
0010
1001
,  // measure 10
1100
0001
1010
0001
1100
1001
0010
1100
1010
0001
1001
0100
1010
1100
0100
1001
,  // measure 11
0012
0100
0010
1000
0100
0010
0100
1000
0010
0100
0010
1000
0110
1000
0103
0010
,  // measure 12
2001
0100
0010
0100
0001
0010
0100
0100
0001
0100
0010
0001
0011
0100
3010
0001
,  // measure 13
1200
0010
0001
0010
1000
0001
0010
1000
0001
1000
0010
0001
1001
1000
0010
1000
,  // measure 14
0001
0010
1000
0001
0010
1000
0001
0010
0001
1000
0010
0001
1010
0010
1300
0001
,  // measure 15
0021
0100
1000
0001
0100
0001
1000
0100
0001
0100
1000
1000
0101
0100
1030
0001
,  // measure 16
1200
0010
0001
1000
0010
1000
0001
0010
1000
1000
0010
0001
1001
1000
0310
1000
,  // measure 17
0012
0100
1000
0010
0100
1000
0010
0100
0010
1000
0100
0010
1000
0100
0100
1000
,  // measure 18
0010
0100
1000
1000
0010
0100
1000
0100
0010
1000
0100
1000
1100
0010
0103
1000
,  // measure 19
2001
0100
3010
0001
2001
0100
3010
0001
2001
0100
3010
0001
2001
0100
3010
0001
,  // measure 20
1002
0010
0103
1000
1002
0010
0103
1000
1002
0010
0103
1000
1002
0010
0103
1000
,  // measure 21
2001
0100
3010
0100
1002
0010
0103
0010
2001
0100
3010
0100
1002
0010
0103
0010
,  // measure 22
0120
1000
0031
0100
0120
1000
0031
0100
0120
1000
0031
0100
0120
1000
0031
0100
,  // measure 23
1020
1000
0130
0001
1020
1000
0031
0100
1002
1000
0103
0010
0120
0100
1030
0001
,  // measure 24
1200
0010
0301
1000
1200
0010
0301
1000
1200
0010
0301
1000
1200
0010
0301
1000
,  // measure 25
0021
0100
1030
0001
0021
0100
1030
0001
0021
0100
1030
0001
0021
0100
1030
0001
,  // measure 26
2100
0010
3001
0100
0120
1000
0031
0100
1200
0010
1300
0001
0021
0100
1030
0001
,  // measure 27
2001
0100
3010
0001
0201
0010
1300
0001
0021
0100
1030
0001
0201
0010
1300
0001
,  // measure 28
0021
0100
1030
0100
2001
0010
3100
0001
0012
0100
1003
0010
2100
0001
3100
0010
,  // measure 29
0012
0100
1003
0010
0210
0001
1300
0010
1002
0100
0013
1000
2100
0010
3001
0100
,  // measure 30
0120
1000
0031
0100
2001
0010
3100
0001
0021
0100
1030
0001
0201
1000
0310
0001
,  // measure 31
2001
0010
0100
0000
0011
0000
0100
0000
0010
0100
0010
0000
0101
0000
3011
0100
,  // measure 32
0210
0001
1000
0000
1001
0000
0010
0000
1000
0010
0001
0000
0011
0000
1310
0001
,  // measure 33
1002
0100
0010
0000
1100
0000
1000
0000
0010
0100
1000
0000
1010
0000
0103
0010
,  // measure 34
0021
0100
1000
0001
1100
0000
0001
0000
0100
0100
1000
0001
1001
0000
0130
1000
,  // measure 35
2001
0001
0100
0010
0011
0000
0001
0000
0100
0010
0100
0001
0011
0000
3100
0001
,  // measure 36
0012
0010
0100
1000
1010
0000
0100
0000
0100
0010
1000
0100
1100
0000
0013
0100
,  // measure 37
1200
1000
0010
0001
1001
0000
1000
0000
0001
0010
1000
0010
0011
0000
0301
0000
,  // measure 38
1020
1000
0100
0001
1100
0000
0001
0000
0100
1000
0001
0100
0101
0000
1030
0000
,  // measure 39
2100
0100
0010
0001
0101
0000
0100
0000
0001
0010
0100
0001
0011
0000
3001
0100
,  // measure 40
0012
0010
0100
1000
1010
0000
0010
0000
0100
1000
0010
0100
1100
0000
1003
0110
,  // measure 41
2001
0200
3020
0302
2033
0200
3020
0302
2033
0200
3020
0302
2033
0200
3320
0002
,  // measure 42
1233
0020
2300
0032
3200
0023
2300
0032
3200
0023
2300
0032
3200
0023
1300
0031
,  // measure 43
1111
0000
0110
0110
1111
0000
1001
1001
1111
0000
0110
0110
1111
0000
1001
1001
,  // measure 44
1111
0000
0110
0110
1111
0000
1001
1001
1111
0000
0110
0110
1111
0000
1001
1001
,  // measure 45
1221
0000
1000
0001
1001
0000
1000
0001
0001
0000
1000
0001
1001
0000
1330
0001
,  // measure 46
2210
0000
0001
0010
0011
0000
0001
0010
0010
0000
0001
0010
0011
0000
3301
0010
,  // measure 47
1001
0000
0000
0100
1000
0000
0010
0000
1000
0000
0000
0000
0111
0000
0000
1000
0100
0000
0010
0000
0100
0000
0000
0000
1001
0000
0000
0100
1000
0000
0010
0000
1000
0000
0000
0000
0111
0000
0000
1000
0100
0000
0010
0000
0100
0000
0000
0000
,  // measure 48
1001
0000
0000
0100
1000
0000
0010
0000
1000
0000
0000
0000
0111
0000
0000
1000
0100
0000
0010
0000
0100
0000
0000
0000
1001
0000
0000
0100
1000
0000
0010
0000
1000
0000
0000
0000
0111
0000
0000
1000
0100
0000
0010
0000
0100
0000
0000
0000
,  // measure 49
2001
0010
0100
0001
0010
0100
0001
0010
0200
0001
3020
0000
0302
1000
0230
0000
,  // measure 50
1023
0000
1000
0000
0001
1000
1000
0001
2330
0000
0100
0010
0001
0100
0010
0001
,  // measure 51
0200
0010
0001
0000
3020
0000
0001
1000
0302
1000
1000
0100
2030
0000
0100
0010
,  // measure 52
0023
0100
0100
0000
3001
0100
0001
1000
0200
1000
0031
0000
1000
0001
0010
1000
,  // measure 53
2301
0010
0001
0100
0010
0100
0001
0010
0200
0001
3020
0000
0302
1000
0230
0000
,  // measure 54
2003
0000
0310
0000
0201
0010
0010
0000
3002
0010
1000
0000
0320
1000
0100
0000
,  // measure 55
0203
1000
1000
0000
0031
1000
0010
1001
2300
0010
0001
0100
0010
0000
3201
0000
,  // measure 56
0020
0001
1300
0000
0001
1000
0100
0001
1000
0100
0001
1000
0100
1000
1002
0100
,  // measure 57
2030
0000
0100
0010
0103
0010
0001
0100
0020
0001
0100
0001
3230
0000
0001
1010
,  // measure 58
0002
0000
0000
0010
0000
0000
1000
0000
0000
1000
0000
0000
0320
0000
0000
1000
0000
0000
1000
0000
0000
0100
0000
0000
1203
0000
0000
0000
2300
0000
0000
0000
3002
0000
0000
0000
0233
0000
0000
0000
2300
0000
0001
0000
3020
0000
0000
0000
,  // measure 59
1032
0000
0100
1000
0010
0100
1000
0010
0120
0000
1000
0100
0203
1000
0001
0000
,  // measure 60
2030
0001
0001
0010
0310
0001
0100
0000
0021
0100
0100
0001
3001
0100
0001
1000
,  // measure 61
1230
0001
0010
1000
0001
0010
1000
0001
2310
0000
0102
0010
3200
0000
0023
1000
,  // measure 62
2300
0000
0031
0100
0200
0001
0010
0001
3020
0000
0001
1000
0302
1000
0100
0000
,  // measure 63
2030
0100
0100
0010
0103
0000
0101
0010
0020
0001
0100
0000
3001
0100
1230
0001
,  // measure 64
0002
0010
1000
0000
0310
1000
1000
0010
0100
1000
0010
0100
1000
0010
0100
0010
,  // measure 65
1123
0000
0101
0000
1101
0001
0101
0000
1001
0000
0101
0000
1101
0001
0131
0000
,  // measure 66
1012
0000
0110
0000
1110
0010
0110
0000
1010
0000
0110
0000
1110
0010
0113
0000
,  // measure 67
2101
0000
0110
0000
0111
0100
0110
0000
0101
0000
0110
0000
0111
0100
3110
0000
,  // measure 68
1201
0000
1010
0000
1011
1000
1010
0000
1001
0000
1010
0000
1011
1000
1310
0000
,  // measure 69
0121
0000
1100
0000
1101
0100
1100
0000
0101
0000
1100
0000
1101
0100
1130
0000
,  // measure 70
2011
0000
0110
0000
0111
0010
0110
0000
0101
0000
0110
0000
0111
0100
3110
0000
,  // measure 71
1120
0000
0101
0000
1101
0100
0101
0000
0101
0000
1001
0000
1101
0001
1031
0000
,  // measure 72
1102
0000
1010
0000
1110
1000
1010
0000
0110
0000
1010
0000
1110
0010
1013
0000
,  // measure 73
1201
0000
0000
0000
0000
0000
0011
0000
0000
0000
0000
0000
1011
0000
0000
0001
0000
0000
1001
0000
0010
0000
0000
0000
1001
0000
0000
0000
0000
0000
1010
0000
0000
0000
0000
0000
1011
0000
0000
1000
0000
0000
1310
0000
0001
0000
0000
0000
,  // measure 74
1120
0000
0000
0000
0000
0000
1001
0000
0000
0000
0000
0000
1101
0000
0000
1000
0000
0000
1001
0000
0100
0000
0000
0000
1001
0000
0000
0000
1000
0000
0101
0000
0000
0000
0000
0000
1101
0000
0000
0001
0000
0000
0131
0000
0000
1101
0000
0000
,  // measure 75
1111
0000
1111
0000
1111
0000
1111
0000
1111
1111
1111
1111
1111
1111
1111
1111
,  // measure 76
2222
0000
0000
0000
,  // measure 77
0000
0000
0000
0000
,  // measure 78
3333
0000
0000
0000
;

//---------------dance-single - ----------------
#NOTES:
     dance-single:
     :
     Medium:
     8:
     0.494,0.912,0.202,0.619,0.000,366.000,28.000,86.000,0.000,0.000:  // measure 1
2000
0000
0000
0000
,  // measure 2
3002
0000
0000
0000
,  // measure 3
0013
0100
1000
0000
1000
0100
0001
0000
,  // measure 4
0001
0100
0010
0000
0010
1000
0100
0000
,  // measure 5
0010
0001
0001
0000
1000
0010
0010
0000
,  // measure 6
0100
0001
0001
0000
0010
0100
1000
0000
,  // measure 7
0100
0010
0001
0000
1000
0100
1000
0000
,  // measure 8
0010
0100
0001
0000
0010
0100
1000
0000
,  // measure 9
0100
0010
0001
0000
1000
0100
1000
0000
,  // measure 10
0010
0100
0001
0000
1000
0100
0010
0000
,  // measure 11
0001
0100
0010
1000
0100
1000
1000
0000
,  // measure 12
0001
0100
0010
0001
0010
0100
1000
0000
,  // measure 13
0100
0010
0001
1000
0010
1000
1000
0000
,  // measure 14
0100
0010
0001
0100
1000
0100
0010
0000
,  // measure 15
1000
0100
0001
0100
1000
0010
0100
0000
,  // measure 16
0001
1000
0100
0001
0100
0010
0001
0000
,  // measure 17
0100
0010
1000
0001
0010
0100
0001
0000
,  // measure 18
1000
0100
0010
0001
0100
0010
0001
0000
,  // measure 19
2000
3020
0230
0302
,  // measure 20
0023
0230
2300
3020
,  // measure 21
0230
0302
2003
3200
,  // measure 22
0302
0203
2300
3020
,  // measure 23
0032
0023
0230
0302
,  // measure 24
2003
3200
0320
0032
,  // measure 25
0203
0320
2030
3002
,  // measure 26
0023
0230
2300
3020
,  // measure 27
0130
0101
1001
1100
,  // measure 28
0110
0011
1001
1010
,  // measure 29
0110
1100
1001
0101
,  // measure 30
0110
0011
0101
1010
,  // measure 31
1000
0000
1100
0000
0001
0000
0110
1000
,  // measure 32
1000
0000
0011
0000
0100
0000
1001
0001
,  // measure 33
0010
0000
0100
0000
1000
0100
0001
0000
,  // measure 34
0010
0000
0100
0000
1000
1000
1000
0000
,  // measure 35
0010
0000
0100
0000
0001
0001
0001
0000
,  // measure 36
1000
0000
0100
0000
0010
0001
0001
0000
,  // measure 37
0100
0000
0010
0000
1000
0001
1000
0000
,  // measure 38
0001
0000
0010
0000
0100
1000
1000
0000
,  // measure 39
0001
0100
0010
1000
,  // measure 40
0100
0010
0001
0100
,  // measure 41
2000
3200
0320
0032
2003
3200
0320
0032
,  // measure 42
2003
3200
0320
0032
2003
3200
0320
0031
,  // measure 43
1001
0011
0110
1100
,  // measure 44
1001
0101
0110
1010
,  // measure 45
0000
0100
0000
0100
,  // measure 46
0000
0001
0000
0001
,  // measure 47
0010
0100
1000
0000
1000
0100
0010
0000
,  // measure 48
0001
0100
0010
0000
1000
0100
0100
0000
,  // measure 49
2000
0000
0000
0000
3100
0010
0001
0100
,  // measure 50
0020
0000
2030
0000
,  // measure 51
3200
0320
0032
2003
,  // measure 52
3020
0000
0230
1000
,  // measure 53
0302
0000
0000
0000
0013
0100
1000
0010
,  // measure 54
0200
0302
0023
0230
,  // measure 55
2300
0000
0000
0000
3002
0000
0000
0103
,  // measure 56
0020
0000
0000
0000
0000
0000
0000
0130
,  // measure 57
2000
0000
3020
0230
,  // measure 58
0302
0000
0023
0000
0130
1000
0001
1000
,  // measure 59
0200
0000
0320
0032
,  // measure 60
2003
0000
3020
0000
,  // measure 61
0230
0000
0000
0000
0301
0010
0100
1000
,  // measure 62
2000
3200
0320
0032
,  // measure 63
2003
0000
0000
0000
3020
0000
0000
0130
,  // measure 64
0002
0000
0000
0000
,  // measure 65
1003
0100
0010
0000
0001
0010
0100
0000
,  // measure 66
1000
0100
0001
0000
0001
0100
1000
0000
,  // measure 67
0010
0100
0001
0000
0001
0010
0100
0000
,  // measure 68
0100
1000
0010
0000
1000
0100
0001
0000
,  // measure 69
0010
0100
1000
0000
0010
0100
0001
0000
,  // measure 70
1000
0100
0010
0000
0001
1000
0100
0000
,  // measure 71
0010
1000
0001
0000
0100
0010
0001
0000
,  // measure 72
1000
0100
0001
0000
0001
0100
1000
0000
,  // measure 73
0010
0100
0001
0000
0001
0010
0100
0000
,  // measure 74
1000
0010
0001
0000
0001
0100
1000
0000
,  // measure 75
0010
0100
0001
0010
0100
1000
0010
0100
,  // measure 76
2002
0000
0000
0000
,  // measure 77
0000
0000
0000
3003
;

//---------------dance-single - ----------------
#NOTES:
     dance-single:
     :
     Easy:
     4:
     0.307,0.498,0.187,0.382,0.000,219.000,26.000,53.000,0.000,0.000:  // measure 1
0000
0000
0000
0000
,  // measure 2
0000
0000
0000
0000
,  // measure 3
0100
0000
0001
0000
,  // measure 4
0010
0000
0100
0000
,  // measure 5
1000
0000
0010
0000
,  // measure 6
0100
0000
0001
0000
,  // measure 7
1000
0000
0100
0000
,  // measure 8
0010
0000
0001
0000
,  // measure 9
0010
0000
0100
0000
,  // measure 10
1000
0000
0010
0000
,  // measure 11
0000
1000
0100
0010
,  // measure 12
0000
0001
0100
0010
,  // measure 13
1000
1000
1000
1000
,  // measure 14
0001
0001
0001
0001
,  // measure 15
0000
0010
0100
1000
,  // measure 16
0000
0100
0010
0001
,  // measure 17
0100
0100
0100
0100
,  // measure 18
0010
0010
0010
0010
,  // measure 19
2000
0000
3000
0000
,  // measure 20
0002
0000
0003
0000
,  // measure 21
0200
0000
0300
0000
,  // measure 22
0020
0000
0030
0000
,  // measure 23
2000
0000
3000
0000
,  // measure 24
0002
0000
0003
0000
,  // measure 25
0020
0000
0030
0000
,  // measure 26
0200
0000
0300
0000
,  // measure 27
0001
0010
0001
0010
,  // measure 28
0100
1000
0100
1000
,  // measure 29
0010
0100
0010
0100
,  // measure 30
0001
1000
0001
1000
,  // measure 31
0010
0110
0001
1000
,  // measure 32
0100
0011
0100
1000
,  // measure 33
0001
0101
0010
1000
,  // measure 34
0100
0011
0001
0100
,  // measure 35
0010
1010
1000
0001
,  // measure 36
0100
0110
1000
0001
,  // measure 37
0010
1100
1000
0001
,  // measure 38
0100
0011
1000
0010
,  // measure 39
0100
0101
1000
0010
,  // measure 40
0100
1001
0010
0100
,  // measure 41
2000
3200
0320
0032
,  // measure 42
0203
0320
2030
3001
,  // measure 43
0011
0110
1100
0110
,  // measure 44
0011
0110
1100
1001
,  // measure 45
0101
0000
0000
0000
,  // measure 46
0000
0000
0000
0000
,  // measure 47
0010
0100
0001
1000
,  // measure 48
0100
0010
0001
0100
,  // measure 49
2000
0000
3100
0010
,  // measure 50
0002
0000
2003
0000
,  // measure 51
3200
0320
0032
2003
,  // measure 52
3020
0000
0230
0000
,  // measure 53
0302
0000
0003
0010
,  // measure 54
0200
2300
3002
0203
,  // measure 55
0320
0000
2030
3000
,  // measure 56
0002
0000
0000
0003
,  // measure 57
2000
0000
3020
0230
,  // measure 58
0302
0023
0230
0300
,  // measure 59
2000
0000
3200
0320
,  // measure 60
0032
0000
0023
0000
,  // measure 61
0230
0000
1300
1000
,  // measure 62
2000
3200
0320
0032
,  // measure 63
2003
0000
3020
0000
,  // measure 64
0230
0000
0000
0300
,  // measure 65
0001
0010
0001
0010
,  // measure 66
0100
1000
0100
1000
,  // measure 67
0010
0100
0010
0100
,  // measure 68
0001
1000
0001
1000
,  // measure 69
0100
0010
0100
0010
,  // measure 70
0001
1000
0001
1000
,  // measure 71
0010
1001
0010
1001
,  // measure 72
0100
1001
0100
1001
,  // measure 73
0010
0100
0001
1000
,  // measure 74
0100
0010
0001
0100
,  // measure 75
1010
0100
0011
0100
,  // measure 76
2002
0000
0000
0000
,  // measure 77
0000
0000
0000
3003
;

//---------------dance-double - ----------------
#NOTES:
     dance-double:
     :
     Hard:
     10:
     0.620,0.719,0.468,0.158,0.245,516.000,65.000,22.000,0.000,0.000:  // measure 1
10000000
00000000
00100000
00000000
01000000
00001000
00000000
00001000
00010000
00000000
00000100
00000000
00000010
00000001
00000000
00000001
,  // measure 2
00001000
00000000
00000100
00000000
00010000
00001000
00000000
00001000
00010000
00000000
00100000
00000000
01000000
10000000
00000000
10000000
,  // measure 3
00100000
01000000
00001000
00010000
00000100
00000010
00000001
00000100
,  // measure 4
00001000
00010000
00100000
01000000
10000000
00100000
01000000
00001000
,  // measure 5
00010000
00001000
00000100
00000010
00000001
00000100
00000010
00010000
,  // measure 6
00001000
00010000
00100000
01000000
10000000
00100000
01000000
00001000
,  // measure 7
00010000
00000100
00001000
00000010
00000100
00000001
00000001
00000010
,  // measure 8
00000100
00001000
00010000
00100000
01000000
10000000
00100000
00010000
,  // measure 9
00001000
00000100
00000010
00001000
00010000
00100000
01000000
10000000
,  // measure 10
00100000
01000000
00001000
00010000
00000100
00000010
00000001
00000100
,  // measure 11
00000000
00001000
00000010
00001000
00000000
00000100
00010000
00000100
00000000
00010000
00001000
00010000
00000000
00001000
00100000
00001000
,  // measure 12
00000000
01000000
00010000
01000000
00000000
00010000
00100000
00010000
00000000
10000000
00100000
10000000
00000000
01000000
00100000
00010000
,  // measure 13
00001000
00000010
00000001
00000100
00001000
00010000
00100000
01000000
,  // measure 14
10000000
00100000
01000000
00001000
00010000
00000100
00000010
00000001
,  // measure 15
00000000
00001000
00000100
00001000
00000000
00000010
00010000
00000010
00000000
00001000
00010000
00100000
00000000
01000000
10000000
01000000
,  // measure 16
00000000
10000000
00010000
10000000
00000000
00010000
00100000
00001000
00000000
00001000
00010000
00000100
00000000
00001000
00000010
00001000
,  // measure 17
00000100
00010000
00001000
00100000
01000000
10000000
00100000
00010000
,  // measure 18
00001000
00000100
00000010
00000001
00000100
00001000
00010000
00100000
,  // measure 19
02100000
13000000
00120000
00031000
,  // measure 20
00000120
00000031
00002100
00013000
,  // measure 21
00210000
01300000
20010000
31000000
,  // measure 22
00120000
00031000
00000120
00000031
,  // measure 23
00002100
00013000
00201000
01300000
,  // measure 24
21000000
30010000
01200000
00310000
,  // measure 25
00001200
00000310
00001002
00000103
,  // measure 26
00002100
00013000
02100000
13000000
,  // measure 27
00110000
00011000
00110000
00011000
,  // measure 28
00001100
00011000
00001100
00011000
,  // measure 29
00001010
00010100
00001010
00010100
,  // measure 30
00101000
01010000
00101000
01010000
,  // measure 31
10000000
00100000
01000000
00001000
00010000
00000100
00000010
00000000
,  // measure 32
00000001
00000100
00001000
00010000
00100000
01000000
10000000
00000000
,  // measure 33
00100000
00010000
00001000
00000100
00000010
00000001
00000100
00000000
,  // measure 34
00001000
00010000
00100000
01000000
10000000
00100000
01000000
00000000
,  // measure 35
00100000
00010000
00001000
00000100
00000010
00001000
00010000
00000000
,  // measure 36
00100000
01000000
10000000
00100000
00010000
00001000
00000100
00000000
,  // measure 37
00000010
00000001
00000100
00001000
00010000
00100000
01000000
00000000
,  // measure 38
10000000
00100000
00010000
00001000
00000100
00000001
00000010
00000000
,  // measure 39
00000100
00001000
00010000
00100000
01000000
10000000
00100000
00000000
,  // measure 40
10000000
01000000
00010000
00001000
00000100
00000010
00000001
00000000
,  // measure 41
00001000
00000100
00001000
00000000
00001000
00000010
00001000
00000000
00000010
00010000
00000010
00000000
00000010
00001000
00000010
00000000
,  // measure 42
00010000
00001000
00010000
00000000
00010000
00000100
00010000
00000000
00001000
00100000
00001000
00000000
00001000
00010000
00001000
00000000
,  // measure 43
01001000
01100000
00110000
00011000
,  // measure 44
00000110
00001001
00010100
00011000
,  // measure 45
00220000
00000000
00330000
00000000
,  // measure 46
20020000
00000000
30030000
00000000
,  // measure 47
01000000
00100000
01000000
00001000
00010000
00001000
00010000
00000100
00000010
00000100
00000010
00000001
,  // measure 48
00001000
00000001
00001000
00000100
00010000
00000100
00010000
00001000
00100000
00001000
00100000
01000000
,  // measure 49
10000000
00000000
00100000
00000000
00010000
00001000
00000100
00000000
,  // measure 50
00000010
00000001
00000100
00001000
00010000
00000000
00100000
00000000
,  // measure 51
01000000
10000000
10010000
00000000
00100000
00000000
00001000
00000000
,  // measure 52
00010000
00001000
00000100
00000010
00000001
00000000
00000100
00000000
,  // measure 53
00001000
00010000
00100000
00000000
01000000
10000000
00010000
00000000
,  // measure 54
00001000
00000100
00000010
00000000
00001001
00000000
00001100
00000000
,  // measure 55
00010000
00100000
01000000
00000000
10000000
00100000
00010000
00000000
,  // measure 56
00001000
00000100
00000010
00001001
,  // measure 57
00000100
00001000
00010000
00000000
00100000
01000000
10000000
00000000
,  // measure 58
01000000
00000000
00000000
00100000
00000000
00000000
00010000
00000000
00000000
00000000
00000000
00000000
00001000
00000000
00000100
00000000
00000010
00000000
00000001
00000000
00000100
00000000
00001000
00000000
,  // measure 59
00010000
00000000
00100000
00000000
01000000
10000000
10000000
00000000
,  // measure 60
00100000
00010000
00001000
00000000
00000100
00000000
00000011
00000000
,  // measure 61
00001000
00010100
00100000
11000000
,  // measure 62
00100000
00010000
00001000
00000000
00000100
00000010
00000001
00000000
,  // measure 63
00000100
00001000
00010000
00000000
00100000
00000000
11000000
00000000
,  // measure 64
10000000
00100000
00010000
00001000
,  // measure 65
00000100
00000010
00000001
00000100
00001000
00010000
00001000
00010000
,  // measure 66
00100000
01000000
00100000
10000000
01000000
00010000
01000000
00100000
,  // measure 67
00010000
00001000
00010000
00000100
00001000
00000010
00000100
00000001
,  // measure 68
00000010
00000001
00000100
00001000
00010000
00100000
01000000
10000000
,  // measure 69
00100000
01000000
00001000
01000000
00100000
00010000
00001000
00000100
,  // measure 70
00001000
00000100
00000010
00000001
00000100
00000001
00000010
00000100
,  // measure 71
00001000
00010000
00110000
01000000
10000000
00100000
01000000
00010000
,  // measure 72
00100000
00001000
00011000
00000100
00000010
00000001
00001000
00000100
,  // measure 73
00010000
00001000
00101000
00010000
01000000
00100000
11000000
10000000
,  // measure 74
00100000
00010000
00011000
00000100
00000010
00000001
00001001
00000100
,  // measure 75
00011000
00101000
00110000
01010000
01100000
10100000
10010000
00110000
,  // measure 76
00022000
00000000
00000000
00000000
,  // measure 77
00000000
00000000
00000000
00033000
;

//---------------dance-double - ----------------
#NOTES:
     dance-double:
     :
     Challenge:
     20:
     1.000,1.000,1.000,1.000,1.000,1061.000,463.000,202.000,0.000,471.000:  // measure 1
00212200
00000000
00010000
00000000
00310000
00010000
00000000
00010000
00010000
00000000
00010000
00000000
00010000
00010000
00000000
00010000
,  // measure 2
00010000
00000000
00010000
00000000
00010000
00010000
00000000
00010000
00010000
00000000
00010000
00000000
00010000
00010000
00003300
00010000
,  // measure 3
11000100
00000010
11000001
00001000
11000010
11000100
00001000
11000001
11000100
00000010
11000001
00001000
11000100
11000010
00000100
11001000
,  // measure 4
11000001
00000100
11000010
00001000
11000001
11000010
00000100
11001000
11000010
00000100
11000001
00001000
11000100
11000010
00000001
11000100
,  // measure 5
10011000
00000100
10010010
00000100
10011000
10010100
00000001
10010010
10010100
00001000
10010010
00000100
10010001
10011000
00000100
10010010
,  // measure 6
10010001
00000100
10010010
00001000
10010001
10010010
00000100
10010001
10011000
00000100
10010001
00000100
10011000
10010010
00000100
10010001
,  // measure 7
10011000
00000100
00110010
00000001
00110100
00111000
00000100
00110010
00111000
00000001
00110100
00000010
00111000
00110100
00000010
00110001
,  // measure 8
00110100
00000010
01011000
00000001
01010010
01010100
00001000
01010001
01010100
00000010
01011000
00000100
01010001
01010100
00001000
01010010
,  // measure 9
01010100
00000001
01010010
00001000
01010100
01010001
00000100
01010010
01011000
00000001
01010010
00000100
01010001
01011000
00000100
01010010
,  // measure 10
01011000
00000001
01010100
00000010
01011000
01010001
00000010
01010100
01010001
00001000
01010100
00000010
01011000
01010001
00000100
01010010
,  // measure 11
10002010
00100000
01000000
00010000
00100100
01000000
10000000
00100000
01000001
00010000
10000000
01000000
00100100
00010000
01003100
00100000
,  // measure 12
20100010
00000100
00000001
00001000
01000100
00000010
00000001
00000100
00011000
00000100
00000010
00001000
01000001
00000010
31000100
00001000
,  // measure 13
00101002
01000000
10000000
00010000
01000100
00100000
10000000
01000000
00010010
01000000
00100000
10000000
00010100
00100000
01000100
00010000
,  // measure 14
10001000
01000000
00100000
01000000
10000100
00010000
01000000
00100000
10000010
01000000
00010000
00100000
01000100
10000000
00100103
00010000
,  // measure 15
20011000
00000100
00000010
00000001
00100100
00000010
00001000
00000001
01000010
00000100
00000001
00000100
00010010
00001000
30010100
00000010
,  // measure 16
00100120
01000000
10000000
00010000
01000001
00100000
10000000
01000000
00011000
01000000
10000000
00100000
01000100
00010000
00100130
01000000
,  // measure 17
21000001
00001000
00000100
00000010
00101000
00000100
00000010
00000001
00010100
00000010
00001000
00000001
01000010
00000100
01001000
00000010
,  // measure 18
00100100
00000001
00001000
00000100
00010001
00000100
00001000
00000010
01000100
00000001
00000010
00000100
00101000
00000010
30100100
00000001
,  // measure 19
00021000
00000100
00001000
00000100
00231000
00000010
00001000
00000010
02300100
00000001
00000100
00000001
23000100
00000001
00000100
00000001
,  // measure 20
30200010
00000100
00000010
00000100
02301000
00000100
00001000
00000100
03021000
00000010
00001000
00000010
00231000
00000001
00001000
00000001
,  // measure 21
02300100
00000010
00000100
00000010
03021000
00000010
00001000
00000010
20031000
00000100
00001000
00000100
32000010
00000001
00000010
00000001
,  // measure 22
03201000
00000001
00001000
00000001
00320010
00000100
00000010
00000100
02031000
00000100
00001000
00000100
03201000
00000001
00001000
00000001
,  // measure 23
10300020
00010000
10000000
00010000
00100230
00010000
00100000
00010000
01002300
00100000
01000000
00100000
10003020
00100000
10000000
00100000
,  // measure 24
10000230
01000000
10000000
01000000
00100302
01000000
00100000
01000000
10002003
00010000
10000000
00010000
00103200
00010000
00100000
00010000
,  // measure 25
01000320
00100000
01000000
00100000
10000032
00100000
10000000
00100000
01000203
00010000
01000000
10000000
00102300
01000000
00010000
01000000
,  // measure 26
00013020
01000000
00010000
01000000
00100230
01000000
00100000
01000000
00100302
10000000
00100000
10000000
01002003
10000000
01000000
10000000
,  // measure 27
00013200
10000000
00010000
01000000
00010320
01000000
00010000
00100000
00010032
00100000
01000000
10000000
01000203
10000000
00010000
01000000
,  // measure 28
00010320
01000000
00100000
10000000
00102030
10000000
01000000
00100000
01003002
00100000
00010000
01000000
00010023
01000000
00100000
01000000
,  // measure 29
00100230
10000000
01000000
10000000
01002300
10000000
01000000
00100000
00013020
00100000
00010000
00100000
00010230
01000000
00010000
01000000
,  // measure 30
00100302
10000000
00100000
10000000
00102003
10000000
01000000
10000000
01003200
00100000
00010000
00100000
00010320
00100000
01000000
10000000
,  // measure 31
20010031
00001000
00100100
00001000
01000010
00000100
00010001
00000010
01000100
00001000
00100010
00000100
00010001
00001000
31000100
00000010
,  // measure 32
00120001
00000100
01000010
00001000
10000100
00000001
00100100
00001000
01000010
00000100
10000001
00000010
00100100
00000001
01031000
00000100
,  // measure 33
12000010
00000001
00100100
00001000
00010100
00000100
10000010
00001000
00100001
00000010
10000100
00000001
03010001
00000100
00100010
00001000
,  // measure 34
10200100
00000001
01000100
00000100
00011000
00000010
10000100
00000001
01000010
00000100
00011000
00000001
10000001
00000100
01300010
00001000
,  // measure 35
00011002
01000000
00100100
10000000
01000010
00100000
00010100
01000000
00101000
10000000
00010100
01000000
10000010
01000000
00011003
00100000
,  // measure 36
10001200
10000000
01000010
00100000
00010001
01000000
00100010
10000000
01001000
10000000
01000001
00100000
00010010
00100000
00011300
10000000
,  // measure 37
00100021
10000000
01000001
00100000
00011000
01000000
10000100
01000000
00100001
10000000
00010100
00100000
01001000
10000000
00100031
01000000
,  // measure 38
00012001
10000000
01000100
00100000
00010010
01000000
10000001
01000000
00100100
10000000
00010010
00100000
01000100
10000000
00103001
00010000
,  // measure 39
00100021
01000000
00010100
10000000
01001000
00100000
01000001
10000000
00010100
01000000
00100100
10000000
01000001
00100000
00011030
01000000
,  // measure 40
00100102
10000000
01000100
00100000
00010010
10000000
00011000
01000000
00100100
10000000
01000010
00010000
00101000
01000000
10000103
00010000
,  // measure 41
00022000
00233200
00322300
00233200
00322300
00233200
00322300
00233200
00322300
00233200
00322300
00233200
00322300
00233200
00322300
00133200
,  // measure 42
00022300
02033020
03022030
02033020
03022030
02033020
03022030
02033020
03022030
02033020
03022030
02033020
03022030
02033020
03022030
01033010
,  // measure 43
00111100
00000000
01000010
01000010
00111100
00000000
10000001
10000000
00111100
00000000
01000010
01000010
00111100
00000000
10000001
10000001
,  // measure 44
00111100
00000000
01000010
01000010
00111100
00000000
10000001
10000001
00111100
00000000
01000010
01000010
00111100
00000000
10000001
10000001
,  // measure 45
10002002
00100000
01010000
00100000
10000000
00010000
01100000
10003003
,  // measure 46
00010220
01000000
00110000
10000000
01000000
00010000
10100000
01000330
,  // measure 47
00011000
00000000
00000001
10000000
00000010
00000000
01100100
00000000
00001000
00010000
00000010
00000000
10000100
00000000
00000001
01000000
00001000
00000000
10100100
00000000
00000010
00010000
00000001
00000000
,  // measure 48
01000100
00000000
00001000
00100000
00000100
00000000
10010010
00000000
00001000
01000000
00000001
00000000
00100010
00000000
00000100
10000000
00001000
00000000
01010010
00000000
00000100
00100000
00000001
00000000
,  // measure 49
20000001
00000000
00000010
00000100
00001000
00000000
00001000
00000100
32000010
00000000
03200001
00000100
00321000
00000000
02031000
00000100
,  // measure 50
03200010
00000000
00000001
00000010
00000100
00000000
00001000
00000010
20300001
00000000
00000001
00000100
00000010
00000000
00001000
00000100
,  // measure 51
32000010
00000000
00000001
00000100
03201000
00000000
00001000
00000100
00320010
00000000
00001000
00000001
20031000
00000000
00000001
00000010
,  // measure 52
30200100
00000000
00001000
00000010
00000100
00000000
00000001
00000010
02300100
00000000
00001000
00000100
00000010
00000000
00000001
00001000
,  // measure 53
23000100
00000000
00000010
00000001
00001000
00000000
00000001
00000010
32000100
00000000
03201000
00000100
00320010
00000000
02030001
00000100
,  // measure 54
23000010
00000000
00001000
00000100
32001000
00000000
00000001
00000100
03020001
00000000
00000010
00000100
00230010
00000000
00001000
00000100
,  // measure 55
02300001
00000000
00000010
00000100
00001000
00000000
00001000
00000010
23000001
00000000
00000001
00000100
00000010
00000000
32001000
00000100
,  // measure 56
03200010
00000000
00000001
00000100
00001000
00000000
00001000
00000100
00000001
00000000
00000001
00000100
00001000
00000000
00321000
00000100
,  // measure 57
20000010
00000000
00000010
00000001
00030100
00000000
00000010
00001000
30200001
00000000
00000001
00000010
02300100
00000000
00001000
00000100
,  // measure 58
03020010
00000000
00000000
00000000
00000000
00000000
00000001
00000000
00000000
00001000
00000000
00000000
00230001
00000000
00000000
00000000
00000000
00000000
00000100
00000000
00000000
00000010
00000000
00000000
02300100
00000000
00000000
00000000
23000000
00000000
00001000
00000000
32000000
00000100
00000000
00000000
03201000
00000000
00000000
00000000
00320000
00000000
00000001
00000000
20030000
00000010
00000000
00000000
,  // measure 59
30020001
00000000
00000100
00000010
00001000
00000000
00001000
00000100
00230010
00000000
00000001
00000100
02301000
00000000
00001000
00000100
,  // measure 60
23000010
00000000
00000001
00001000
00000100
00000000
00000100
00001000
30200010
00000000
00000010
00000100
00000001
00000000
00000001
00000010
,  // measure 61
02300100
00000000
00000100
00001000
00000010
00000000
00000010
00000100
23000001
00000000
30020001
00000010
02030100
00000000
03201000
00000100
,  // measure 62
20300010
00000000
00000001
00000100
32001000
00000000
00001000
00000100
03200010
00000000
00000010
00000001
00320010
00000000
00000100
00001000
,  // measure 63
20030001
00000000
00000010
00000100
00001000
00000000
00000100
00000010
30200001
00000000
00000100
00000010
00001000
00000000
02300001
00000100
,  // measure 64
03020010
00000000
00000001
00000100
00001000
00000000
00000010
00000100
00000001
00000000
00001000
00000100
00000010
00000000
00030001
00000100
,  // measure 65
21001000
00100000
00010010
00000000
00011001
00100000
01000010
00000000
01000100
00100000
00010001
00000000
00011001
00100000
31000100
00000000
,  // measure 66
00010012
00001000
00100010
00000000
11001000
00000010
00101000
00000000
00010010
00001000
01000010
00000000
10101000
00000010
01001003
00000000
,  // measure 67
10020100
01000000
10000001
00000000
01001010
00100000
01000100
00000000
10000001
01000000
10001000
00000000
01000110
00100000
01030001
00000000
,  // measure 68
00011200
00000001
00101000
00000000
11000001
00001000
00100001
00000000
10001000
00000001
00011000
00000000
01010001
00001000
00100301
00000000
,  // measure 69
21000010
00010000
01000100
00000000
00011001
01000000
00010100
00000000
01000010
00010000
01001000
00000000
00010011
01000000
30010100
00000000
,  // measure 70
00101020
00000100
01001000
00000000
10010100
00001000
01000100
00000000
00101000
00000100
00011000
00000000
10010100
00001000
01000130
00000000
,  // measure 71
00210001
10000000
00010100
00000000
10001010
00010000
10000100
00000000
00010001
10000000
00010010
00000000
10001100
00010000
10300001
00000000
,  // measure 72
01000120
00001000
00100100
00000000
10011000
00000001
01001000
00000000
10000100
00001000
00100100
00000000
01101000
00000001
01001030
00000000
,  // measure 73
10020100
00100000
10000001
00000000
01000011
10000000
01000100
00000000
10001000
00100000
10000010
00000000
01000110
10000000
01030001
00000000
,  // measure 74
00102100
00000010
10000100
00000000
00110001
00000100
01000001
00000000
00010100
00000010
10000100
00000000
11000001
00000100
01003001
00000000
,  // measure 75
00111100
00000000
00111100
00000000
00111100
00000000
00111100
00000000
00111100
00111100
00111100
00111100
00111100
00111100
00111100
00111100
,  // measure 76
00222200
00000000
00000000
00000000
,  // measure 77
00000000
00000000
00000000
00000000
,  // measure 78
00333300
00000000
00000000
00000000
;
