#TITLE:Bowser's Castle;
#SUBTITLE:;
#ARTIST:From Mario Kart Double Dash!!;
#TITLETRANSLIT:;
#SUBTITLETRANSLIT:;
#ARTISTTRANSLIT:;
#CREDIT:;
#BANNER:Bowser's Castle.png;
#BACKGROUND:Bowser's Castle-bg.png;
#LYRICSPATH:;
#CDTITLE:./CDTITLES/Dance Dance Revolution Mario Mix.png;
#MUSIC:24 Wagahai wa bosu de aru!.mp3;
#OFFSET:-0.050;
#SAMPLESTART:14.200;
#SAMPLELENGTH:15.000;
#SELECTABLE:YES;
#DISPLAYBPM:180.000;
#BPMS:0.000=180.180;
#STOPS:;
#BGCHANGES:;
// cache tags:
#FIRSTBEAT:40.000;
#LASTBEAT:276.000;
#SONGFILENAME:Songs/mike songs/Bowser's Castle/Bowser's Castle.sm;
#HASMUSIC:1;
#HASBANNER:1;
#MUSICLENGTH:98.706;
// end cache tags

//---------------dance-single - ----------------
#NOTES:
     dance-single:
     :
     Beginner:
     2:
     0.182,0.277,0.091,0.000,0.000,117.000,9.000,0.000,0.000,0.000:
0000
0000
0000
0000
,
0000
0000
0000
0000
,
0000
0000
0000
0000
,
0000
0000
0000
0000
,
0000
0000
0000
0000
,
0000
0000
0000
0000
,
0000
0000
0000
0000
,
0000
0000
0000
0000
,
0000
0000
0000
0000
,
0000
0000
0000
0000
,
0001
0000
0001
0000
,
1000
0000
1000
0000
,
0001
0000
0001
0001
,
1000
0000
1000
0000
,
1000
0000
1000
0000
,
0001
0000
0001
0000
,
1000
0000
1000
1000
,
0001
0000
1001
0000
,
0001
0000
1000
0000
,
1000
0000
0001
0000
,
1000
1000
0001
0001
,
1000
0000
1000
0000
,
0001
0000
0001
0000
,
1000
0000
1000
0000
,
0001
0000
1000
0000
,
1001
0000
0000
0000
,
0001
1000
0000
0001
,
0001
0000
0000
1000
0000
0000
0000
0000
,
1000
0000
0000
0001
0000
0000
1000
0000
,
1000
0000
1001
0000
,
1000
0001
0000
1000
,
1000
0000
0000
0001
0000
0000
0000
0000
,
0001
1000
1001
0000
,
0000
0000
1000
1001
,
0001
0000
0000
0000
,
1000
0000
0000
0000
,
0001
0000
0000
0000
,
1000
0000
0000
1000
0000
0000
1000
0000
,
0001
0000
0000
0000
,
0001
0000
0000
0000
,
1000
0000
0000
0000
,
0001
0000
0000
0001
0000
0000
0001
0000
,
1000
0000
0000
1000
0000
0000
0000
0000
,
0000
0000
0000
0000
,
0000
0001
0000
0001
0000
0000
0000
0000
,
0000
0000
0000
0000
,
0001
0000
0000
1000
0000
0000
0000
0000
,
0000
0000
0000
0000
,
0000
1000
0001
0000
0000
0000
0000
0000
,
1001
0000
0000
1001
0000
0000
0000
0000
,
1000
1000
1000
0000
,
0001
0000
0001
0000
,
0001
0000
1000
0000
,
1000
0000
0000
0000
,
0001
0001
0001
0000
,
1000
0000
0001
0000
,
1000
0000
0000
1000
0000
0000
1000
0000
,
0000
0000
0000
0000
,
0001
0001
1000
0000
,
1000
0000
0001
0000
,
1000
1000
1000
0000
,
0001
0000
0000
0000
,
1000
1000
0001
0000
,
0001
0001
1000
0000
,
0001
0000
0000
0001
0000
0000
1000
0000
,
0000
1000
0000
0000
0001
0000
0000
0000
,
1000
0001
0000
0000
,
1001
0000
0000
0000
,
0000
1001
0000
0000
;

//---------------dance-single - ----------------
#NOTES:
     dance-single:
     :
     Easy:
     3:
     0.211,0.243,0.051,0.000,0.010,141.000,5.000,0.000,0.000,0.000:
0000
0000
0000
0000
,
0000
0000
0000
0000
,
0000
0000
0000
0000
,
0000
0000
0000
0000
,
0000
0000
0000
0000
,
0000
0000
0000
0000
,
0000
0000
0000
0000
,
0000
0000
0000
0000
,
0000
0000
0000
0000
,
0000
0000
0000
0000
,
0010
0000
0001
0000
,
0010
0000
0100
0000
,
1000
0000
0001
0001
,
0001
0000
0100
0000
,
0010
0000
1000
0000
,
0010
0000
0100
0000
,
0001
0000
1000
1000
,
1000
0000
1001
0000
,
0010
0000
0010
0000
,
0100
0000
0100
0000
,
1000
0000
0001
1000
,
1000
0000
0100
0000
,
0010
0000
0001
0000
,
0010
0000
0100
0000
,
1000
0000
0001
0001
,
0001
0000
0010
0000
,
0001
1000
0000
1000
,
1000
0000
0000
0001
0000
0000
0000
0000
,
0010
0000
0000
0100
0000
0000
0010
0000
,
0010
0000
0110
0000
,
1000
0001
0000
0001
,
0001
0000
0000
1000
0000
0000
0000
0000
,
0100
0001
0001
0000
,
0000
0000
1000
1001
,
1000
0000
0000
1000
0000
0000
0000
0000
,
0010
0000
0000
0100
0000
0000
0100
0000
,
0001
0000
0000
0001
0000
0000
0000
0000
,
1000
0000
0000
0001
0000
0000
1000
0000
,
1000
0000
0000
1000
0000
0000
0000
0000
,
0010
0000
0000
0100
0000
0000
0100
0000
,
0001
0000
0000
0001
0000
0000
0000
0000
,
0001
0000
0000
1000
0000
0000
0001
0000
,
0001
0000
0000
0010
0000
0000
0000
0000
,
0000
0000
0000
0000
,
0000
1000
0000
0100
0000
0000
0000
0000
,
0000
0000
0000
0000
,
1000
0000
0000
0010
0000
0000
0000
0000
,
0000
0000
0000
0000
,
0000
0100
0100
0000
0000
0000
0000
0000
,
1001
0000
0000
0100
0000
0000
0000
0000
,
0001
0000
0001
0010
,
0010
0000
1000
1000
,
0100
0000
0001
0001
,
0010
0100
1000
0000
,
1000
0000
1000
0010
,
0010
0000
0001
0001
,
1000
0000
0000
0001
0000
0000
0010
0010
,
0000
0000
0000
0000
,
0010
0000
0001
0010
,
0010
0001
1000
0000
,
0100
0100
0010
0010
,
0110
0000
0000
0000
,
0010
0000
1000
0010
,
0010
0000
0100
0010
,
0001
0000
0000
0001
0000
0000
1000
0000
,
0000
0010
0000
0000
0010
0000
1000
0000
,
1000
0001
0100
0001
,
0010
0000
0000
0010
0000
0000
0010
0000
0000
0000
0000
0000
0000
0000
0000
0000
,
0000
0000
0000
0000
1000
0000
0000
0001
0000
0000
1000
0000
0000
0000
0000
0000
;

//---------------dance-single - ----------------
#NOTES:
     dance-single:
     :
     Medium:
     5:
     0.256,0.314,0.101,0.000,0.015,167.000,10.000,0.000,0.000,0.000:
0000
0000
0000
0000
,
0000
0000
0000
0000
,
0000
0000
0000
0000
,
0000
0000
0000
0000
,
0000
0000
0000
0000
,
0000
0000
0000
0000
,
0000
0000
0000
0000
,
0000
0000
0000
0000
,
0000
0000
0000
0000
,
0000
0000
0000
0000
,
0001
0001
0100
0000
,
0001
0010
0100
0000
,
1000
0010
0010
1000
,
1000
0000
0100
0000
,
1000
1000
0100
0000
,
1000
0010
0100
0000
,
0001
0010
0010
0001
,
1000
0000
0110
0000
,
0001
0100
0100
0000
,
0010
0010
0100
0000
,
1000
0010
1000
1000
,
1000
0000
0001
0000
,
0001
0001
0100
0000
,
0001
0010
0100
0000
,
1000
0010
0010
1000
,
0001
0000
0001
0000
,
1000
0100
0000
0001
,
0100
0000
0000
1000
0000
0000
0000
0000
,
0010
0000
0000
1000
0000
0000
0100
0000
,
1000
1000
0001
0000
,
0001
0100
0000
1000
,
0100
0000
0000
0001
0000
0000
0000
0000
,
1000
0001
1001
0000
,
0001
1000
0100
0000
,
1000
0000
0000
0010
0000
0000
0010
0000
,
0100
0000
0000
0010
0000
0000
0100
0000
,
0001
0000
0000
0010
0000
0000
0010
0000
,
0100
0000
0000
1000
0000
0000
0100
0000
,
1000
0000
0000
0010
0000
0000
0010
0000
,
0100
0000
0000
0010
0000
0000
0100
0000
,
0001
0000
0000
0010
0000
0000
0010
0000
,
0100
0000
0000
0001
0000
0000
0100
0000
,
1000
0000
0000
1001
0000
0000
0000
0000
,
0000
0000
0000
0000
,
0000
0010
0000
0110
0000
0000
0000
0000
,
0000
0000
0000
0000
,
0001
0000
0000
1001
0000
0000
0000
0000
,
0000
0000
0000
0000
,
0000
0100
0010
0000
0000
0000
0000
0000
,
1001
0000
0000
0110
0000
0000
0000
0000
,
0010
0010
1000
0001
,
1000
0100
0100
0000
,
1000
0010
1000
0001
,
1000
0100
0010
0000
,
0010
0010
0001
1000
,
0001
0100
0100
0000
,
0010
0000
0000
0100
0000
0000
0001
1000
,
0000
0000
0000
0000
,
0010
0001
1000
0001
,
0010
0100
0100
1000
,
1000
0100
1000
0100
,
1100
0000
0000
0000
,
0010
1000
0001
1000
,
0010
1000
1000
0001
,
0001
0000
0000
1001
0000
0000
0100
0000
,
0000
0110
0000
0000
0010
0000
0100
0000
,
1000
0100
0010
0001
,
0010
0000
0000
0001
0000
0000
1000
0000
0000
0000
0000
0000
0000
0000
0000
0000
,
0000
0000
0000
0000
1000
0000
0000
0010
0000
0000
0100
0000
0000
0100
0000
0000
;

//---------------dance-single - ----------------
#NOTES:
     dance-single:
     :
     Hard:
     7:
     0.388,0.593,0.233,0.000,0.020,245.000,23.000,0.000,0.000,0.000:
0000
0000
0000
0000
,
0000
0000
0000
0000
,
0000
0000
0000
0000
,
0000
0000
0000
0000
,
0000
0000
0000
0000
,
0000
0000
0000
0000
,
0000
0000
0000
0000
,
0000
0000
0000
0000
,
0000
0000
0000
0000
,
0000
0000
0000
0000
,
1000
0100
0010
0000
0100
0000
0000
0000
,
1000
0100
0010
0000
0001
0000
0000
0000
,
0100
0001
1000
0000
0010
0000
0010
0000
,
1000
0001
0100
0000
,
0001
0100
0010
0000
0100
0000
0000
0000
,
0001
0100
0010
0000
1000
0000
0000
0000
,
0100
1000
0001
0000
0010
0000
0010
0000
,
0001
0000
0100
0000
0001
1000
0001
0000
,
1000
0001
0010
0000
0100
0000
0000
0000
,
1000
0100
1000
0000
0010
0000
0000
0000
,
0100
0001
1000
0000
0010
1000
0001
0000
,
1000
0001
0101
0000
,
1000
0100
0010
0000
0100
0000
0000
0000
,
1000
0100
0010
0000
0001
0000
0000
0000
,
0100
0001
1000
0000
0010
0000
0010
0000
,
1000
0001
1001
0100
,
0001
1000
0001
0000
0000
0000
0010
0000
,
0001
0000
0001
1000
0000
0100
0000
0000
,
1000
0000
0000
1100
0000
0000
0010
0000
,
0001
0000
0100
0000
0001
0001
0001
0000
,
1000
0001
1000
0000
0000
0000
0010
0000
,
1000
0000
1000
0001
0000
0100
0000
0000
,
0010
0000
1000
0001
0000
1000
0000
0001
,
0000
0010
0100
0000
1000
0000
1001
0000
,
0100
0000
0000
0100
0000
0000
0001
0100
,
0010
0000
0000
0110
0000
0000
0001
1000
,
0100
0000
0000
0100
0000
0000
1000
0100
,
0010
0000
0000
0010
0000
0000
0001
0001
,
0100
0000
0000
0100
0000
0000
0001
0100
,
0010
0000
0000
0110
0000
0000
1000
0001
,
0100
0000
0000
0100
0000
0000
1000
0100
,
0010
0000
0000
0010
0000
0000
1000
1000
,
0001
0000
0000
0110
0000
0000
0000
0000
,
0000
0000
0000
0000
,
0000
0011
0000
1100
0000
0000
0000
0000
,
0000
0000
0000
0000
,
1000
0000
0000
0110
0000
0000
0000
0000
,
0000
0000
0000
0000
,
0000
0001
1001
0000
0000
0000
0000
0000
,
0101
0000
0000
1100
0000
0000
0000
0000
,
0010
1000
0100
0010
0001
0000
1000
0000
,
0010
0100
0110
0001
,
0100
0001
1000
0010
1000
0100
1000
0000
,
0010
1000
0101
0001
,
0010
0001
0100
0010
1000
0000
0001
0000
,
0010
0100
0110
1000
,
1001
0000
0000
1100
0000
0000
0001
0001
,
0000
0000
0000
0000
,
0100
1000
0100
0010
0001
0000
0010
0000
,
0100
1000
0110
0001
,
1000
0010
1000
0001
0010
0000
0100
0000
,
1001
1100
1001
0101
,
0100
0001
0100
0010
1000
0000
0010
0000
,
1000
0001
0100
0010
1000
0000
0001
0000
,
0001
1000
0001
0100
0010
0100
0001
0010
,
0001
1000
0100
1000
0001
0010
0100
1000
,
0100
0010
0100
0010
0001
0001
1000
0010
,
0100
0000
0000
0001
0000
0000
1000
0000
0000
0000
0000
0000
0000
0001
1000
0000
,
0010
0000
0100
0000
0010
0000
0000
1000
0000
0000
0001
0000
0000
0100
0000
0000
;

//---------------dance-single - ----------------
#NOTES:
     dance-single:
     :
     Challenge:
     9:
     0.488,0.593,0.365,0.000,0.020,301.000,36.000,0.000,0.000,0.000:
0000
0000
0000
0000
,
0000
0000
0000
0000
,
0000
0000
0000
0000
,
0000
0000
0000
0000
,
0000
0000
0000
0000
,
0000
0000
0000
0000
,
0000
0000
0000
0000
,
0000
0000
0000
0000
,
0000
0000
0000
0000
,
0000
0000
0000
0000
,
1000
0100
0010
0000
0001
0000
0110
0000
,
0001
0100
0010
0000
1000
0000
1001
0000
,
0010
0001
0100
1000
0100
0001
1000
0100
,
0010
0100
0010
0000
0110
0000
1000
0000
,
0001
0100
0010
0000
1000
0000
0110
0000
,
1000
0100
0010
0000
0001
0000
1001
0000
,
0010
1000
0100
0001
0100
1000
0010
0100
,
0001
1000
0001
0010
0100
0000
0110
0000
,
1000
0010
0001
0000
0100
0000
0110
0000
,
0001
0010
1000
0000
0100
0000
1001
0000
,
0100
0001
0010
1000
0010
0001
1000
0010
,
0100
0001
0101
1000
,
0001
0100
0010
0000
1000
0000
0110
0000
,
1000
0100
0010
0000
0001
0000
1001
0000
,
0010
1000
0100
0001
0100
1000
0010
0100
,
0001
1001
0100
0110
,
0001
0001
0010
0000
0000
0000
0100
0000
,
1000
1000
0100
0010
0010
0100
0000
0000
,
0001
0000
0000
0011
0000
0100
0000
1000
,
0000
0001
0000
0010
0100
0100
0100
0000
,
1000
0010
1000
0000
0000
0000
0100
0000
,
0010
0010
1000
0001
0001
0100
0000
0000
,
0010
0000
1000
0100
0000
0001
0000
0010
,
0000
1000
0100
0000
0001
0000
0110
0000
,
1000
0000
0000
1000
0000
0000
0010
0001
,
0100
0000
0000
0110
0000
0000
1000
0010
,
0100
0000
0000
0100
0000
0000
0001
0010
,
1000
0000
0000
1100
0000
0000
0011
0010
,
0100
0000
0000
0001
0000
0000
0010
1000
,
0100
0000
0000
0110
0000
0000
0001
0010
,
0100
0000
0000
0100
0000
0000
1000
0000
,
0110
0000
0000
0101
0000
0000
1010
0010
,
0100
0000
0000
1001
0000
0010
0000
1000
,
0000
0100
0000
0001
0000
0010
0000
1000
,
0000
0110
0000
1001
0000
0010
0000
0001
,
0000
0100
0000
1000
0000
0010
0000
0001
,
0100
0000
0000
0110
0000
0010
0000
1000
,
0000
0100
0000
0001
0000
0010
0000
1000
,
0000
0100
0110
0000
0000
0000
0000
0000
,
1001
0000
0000
0110
0000
0000
0000
0000
,
0001
0010
1000
0100
0001
0000
0100
0000
,
0010
0011
1000
1100
,
0001
0100
0010
1000
0100
0010
0001
0000
,
0100
1000
0100
0000
0110
0000
0010
0000
,
1000
0100
0001
0010
1000
0000
0010
0000
,
0001
0100
0110
1000
,
1001
0000
0000
1100
0000
0000
0001
1001
,
0000
0000
0000
0000
,
1000
0010
1000
0010
0001
0010
0001
0010
,
0100
0001
1000
0010
1000
0000
0100
0000
,
0010
0001
0010
0001
0010
1000
0010
1000
,
0010
0100
1000
0000
0010
0100
0001
0000
,
1000
0001
0100
0010
0100
1000
0100
0000
,
0010
0100
0001
1000
0010
0100
0001
0000
,
0010
0100
1000
0001
0100
0010
1000
0100
,
0001
1000
0001
0100
1000
0010
0100
0010
,
0001
0010
0100
0001
0010
0100
0010
1000
,
0010
0000
0000
0001
0000
0000
0100
0000
0000
0000
0000
0000
0000
0010
1000
0000
,
0100
0000
0010
0000
0001
0000
0000
0100
0000
0000
1000
0000
0000
0010
0000
0000
;

//---------------dance-single - ----------------
#NOTES:
     dance-single:
     :
     Edit:
     9:
     0.627,0.769,0.780,0.000,0.000,356.000,77.000,0.000,0.000,0.000:
0000
0000
0000
0000
,
0000
0000
0000
0000
,
0000
0000
0000
0000
,
0000
0000
0000
0000
,
0000
0000
0000
0000
,
0000
0000
0000
0000
,
0000
0000
0000
0000
,
0000
0000
0000
0000
,
0000
0000
0000
0000
,
0000
0000
0000
0000
,
1000
0100
0010
0000
0101
0000
0000
0000
,
0001
0010
0100
0000
1010
0000
0000
0000
,
0100
0010
0001
0010
0100
1000
0001
0010
,
1100
0000
0110
0000
,
0100
0010
0100
0000
1001
0000
0000
0000
,
1000
0010
1000
0000
0101
0000
0000
0000
,
0001
0010
0100
0010
0001
0010
0100
0010
,
0101
0000
1010
0000
,
0010
0100
1001
0000
0110
0000
0000
0000
,
0010
0100
0011
0000
1010
0000
0000
0000
,
0100
1000
0001
1000
0100
0010
0001
1000
,
0110
0000
0011
0000
,
0001
0010
0100
0000
1010
0000
0000
0000
,
0010
0100
0011
0000
1001
0000
0000
0000
,
0001
0010
0100
0010
0001
0010
0100
0010
,
0101
0000
1010
0000
,
0010
0100
0001
0010
0100
0010
0001
0010
,
0100
0010
0001
1000
0010
1000
0100
1000
,
0011
0000
0000
1010
0000
0110
0011
0000
,
0110
1010
0110
0000
0011
0000
1010
0000
,
0001
0010
0100
1000
0001
0010
0100
0010
,
0001
0010
1000
0100
0001
0010
0001
0010
,
0101
0000
0101
1001
0000
0011
0101
0000
,
0011
0011
0011
0011
0011
0000
0001
0000
,
0001
0010
0100
1000
0001
0010
0100
0010
,
0001
0100
0010
0100
0001
0010
0100
0010
,
0001
0010
0100
1000
0001
0010
0100
1000
,
0001
0010
0100
1000
0100
0010
0001
0000
,
0011
0000
0000
0001
0000
0001
0010
0100
,
0000
0100
0000
0100
1000
0000
1000
0010
,
0100
0000
0100
0001
0000
0001
0010
0100
,
0010
0001
0010
0100
0010
0001
0010
0000
,
0110
1000
0001
0010
0101
1000
0001
0010
,
1100
0010
0001
0100
1010
0100
0001
0010
,
0101
0010
0001
0100
1010
0100
0001
0010
,
0101
0010
0001
0100
1010
0100
0001
1000
,
0011
1000
0100
1000
0110
1000
0001
0100
,
1010
0100
0001
0010
0101
0010
0001
0010
,
1100
0010
0001
0010
0101
1000
0001
0010
,
1001
0000
0101
0011
0000
0101
1001
0000
,
0001
0010
0100
1000
0001
0010
0100
0010
,
0001
0100
0010
0100
0001
0010
0100
0010
,
0001
0100
0010
0100
0001
0010
1000
0010
,
0001
0010
1000
0010
0001
0100
0010
0100
,
0001
0010
1000
0100
0010
1000
0001
1000
,
0010
0100
0001
0100
0010
0100
0001
0010
,
0100
0010
0001
0010
0100
1000
0001
0010
,
0100
0110
1100
0110
,
0100
1000
0010
0000
1001
0000
0100
0000
,
0100
0010
0001
0000
0011
0000
0100
0000
,
0100
1000
0010
0000
1010
0000
0001
0000
,
0100
0010
0100
0000
0101
0000
0001
0000
,
0001
0010
0001
0000
0011
0000
0100
0000
,
1000
0100
1000
0000
1100
0000
0001
0000
,
0010
0001
0010
0000
0011
0000
0100
0000
,
0100
0010
0100
0000
1100
0000
0010
0000
,
0100
1000
0100
0000
1100
0001
0010
0100
,
0010
0001
0010
0000
0110
0000
0000
0000
,
1100
0000
0011
0000
1100
0011
0000
0110
,
1010
0000
0000
0000
;
