#TITLE:SuperNOVA Nightmares;
#SUBTITLE:;
#ARTIST:DE-SIRE Retunes vs. DE-Strad vs. 100-200-400;
#TITLETRANSLIT:;
#SUBTITLETRANSLIT:;
#ARTISTTRANSLIT:;
#CREDIT:;
#BANNER:SuperNOVA Nightmares-bn.jpg;
#BACKGROUND:SuperNOVA Nightmares-bg.jpg;
#LYRICSPATH:;
#CDTITLE:cdtitle.png;
#MUSIC:SuperNOVA Nightmares.mp3;
#OFFSET:-2.940;
#SAMPLESTART:77.380;
#SAMPLELENGTH:12.000;
#SELECTABLE:YES;
#BPMS:0.000=170.000,211.500=359.999,372.000=99.999,376.000=200.000,390.000=300.000,390.500=399.998,502.500=99.999,506.500=200.000,514.500=399.998;
#STOPS:79.750=1.000
,211.500=1.600
,383.667=0.400
;
#BGCHANGES:0.000=CHAOS-bg.png=1.000=0=0=1,
212.000=Healing-D-Vision-BG.jpg=1.000=0=0=1,
372.000=Fascination MAXX-bg.png=1.000=0=0=1,
537.500=SuperNOVA Nightmares-bg.jpg=1.000=0=0=1,
99999=-nosongbg-=1.000=0=0=0 // don't automatically add -songbackground-
;
// cache tags:
#FIRSTBEAT:4.000;
#LASTBEAT:539.500;
#SONGFILENAME:Songs/juju step2/SuperNOVA Nightmares/SuperNOVA Nightmares.sm;
#HASMUSIC:1;
#HASBANNER:1;
#MUSICLENGTH:142.453;
// end cache tags

//---------------dance-single - ----------------
#NOTES:
     dance-single:
     :
     Challenge:
     11:
     0.938,1.000,0.611,0.274,0.376,800.000,87.000,39.000,0.000,10.000:
0000
0000
0000
0000
,
1001
0000
0000
0000
0010
0000
0100
1000
0010
0000
0100
0000
0010
0000
0100
0000
,
0001
0000
0010
0000
0100
0000
0010
0100
0000
0000
0010
0000
0100
0000
0010
0000
,
0110
0000
0000
0000
0010
0000
0100
0001
0010
0000
0100
0000
0010
0000
0100
0000
,
0101
0010
0100
0010
0100
0001
0000
0010
,
1100
0000
0000
0000
0010
0000
0100
0010
0100
0000
0010
0000
0100
0000
0001
0000
,
0000
0010
0100
0010
0001
0100
0000
0010
,
1100
0000
0010
0100
0000
0001
0010
0000
,
0100
0010
0000
2000
0100
0000
0000
0000
,
3011
0000
0000
0100
0000
0000
0010
0100
1000
0000
0000
0100
0000
0000
0010
0100
,
0010
0000
2000
0000
3020
0000
0230
0000
0320
0000
0230
0000
0301
0010
0100
0010
,
0001
0000
2000
0000
3020
0000
0230
0000
0320
0000
0032
0000
1003
0010
0100
0010
,
1000
0000
0200
0000
0300
0000
0010
0000
0000
0000
1000
0000
0000
0000
0001
0100
,
0010
0000
0100
0000
0000
0000
0100
0000
0010
0000
0000
0100
0000
0000
0010
0100
,
0010
0000
0000
0100
0000
0000
0001
0010
0100
0000
0000
0010
0000
0000
0100
0010
,
0100
0000
0200
0000
0302
0000
2003
0000
3020
0000
0230
0000
0301
1000
0100
0010
,
0100
0000
2000
0000
3002
0000
0203
0000
0320
0000
0230
0000
0301
1000
0100
1000
,
0010
0000
0100
0000
0000
0000
0010
0000
0000
0000
0100
0000
0000
0000
0001
0100
,
1000
0000
0010
0000
0000
0000
0010
0000
0100
0000
0000
0010
0000
0000
0100
0000
,
0020
0000
0000
0000
2000
0000
0000
0000
0000
0000
0000
0000
0000
0000
0000
3030
,
0001
0000
0100
0000
0010
1000
0000
1000
0010
0000
0200
0000
0000
0000
0000
0000
,
0301
0000
0010
0000
0100
1000
0000
1000
0100
0000
0010
0000
0001
0100
0001
0100
,
0010
0000
0100
0000
0010
0100
0000
0100
0010
0000
0002
0000
0000
0000
0000
0000
,
1003
0000
0100
0000
0001
0010
0000
0010
0001
0000
0010
0000
1000
0100
1000
0100
,
0010
0000
0100
0000
0001
0100
0000
0100
0001
0000
0020
0000
0000
0000
0000
0000
,
0130
0000
1000
0000
0100
0010
0000
0010
0001
0000
0020
0000
0000
0000
0130
0000
,
1000
0000
0010
0000
0100
0010
0000
0100
1000
0000
0020
0000
0000
0000
0000
0000
,
0130
0000
1000
0000
0010
0100
0000
1000
0100
0000
0010
0000
0001
0100
0001
0100
,
0010
1000
0100
0010
0100
0001
0100
1000
,
0010
0100
0001
0100
0010
1000
0100
0110
,
0101
1000
0100
0010
0100
0001
0100
0010
,
1000
0100
0010
0100
0001
0100
1000
0110
,
1001
0010
0100
1000
0001
0100
0010
0100
,
0010
1000
0100
0001
0100
0010
1000
1100
,
0011
1000
0010
0100
0001
0100
1000
0010
,
0100
0001
0100
1000
0010
0100
0010
1100
,
0110
0010
0001
1000
0100
0010
1000
0100
,
0010
0100
0010
0002
0000
0000
0000
1003
,
0100
0010
0001
0100
0010
0100
0010
0200
,
0000
0000
0000
0000
0310
0001
1000
0100
,
0010
0100
0001
0010
0100
1000
0100
0010
,
0100
0010
1000
0200
0000
0000
0000
0310
,
0001
0100
0010
1000
0100
0001
0010
0100
,
1000
0100
0010
0011
0000
1100
0000
0100
,
0010
0100
0010
1000
0100
0010
0100
0110
,
0000
0011
0000
1100
0000
1001
0000
0010
,
0110
1000
0100
0010
0100
0001
0010
0100
,
0001
0000
0100
0000
0010
0000
0100
0010
0001
0000
0100
0000
0010
0000
0100
0000
,
0110
0001
1000
0010
0100
0001
0010
1110
,
0000
0111
0000
1101
0000
1011
0000
0010
,
0100
0001
0010
0100
1000
0100
0010
0110
,
1000
0101
0000
1100
0000
0110
0000
0010
,
0100
0000
0000
0010
0000
0001
0010
0100
1000
0000
0100
0000
0010
0000
0100
0000
,
1001
0000
0000
0000
1100
0000
0000
0000
0011
0000
0000
0000
,
1010
0000
0000
0000
0101
0000
0000
0000
0000
0000
0000
0000
,
0110
0000
0000
0000
1010
0000
0000
0000
0101
0000
0000
0000
,
0110
0000
0000
0000
1100
0000
0000
0000
0000
0000
0000
0000
,
0110
0000
0000
0000
0101
0000
0000
0000
1010
0000
0000
0000
,
0110
0000
0000
0000
0101
0000
0000
0000
0000
0000
0100
0000
,
0010
0000
0000
0000
0100
0000
0000
0000
0001
0000
0000
0000
,
0010
0000
0000
0000
0100
0000
0000
0000
0010
0000
0000
0000
,
0001
0010
0100
0001
0010
0100
0001
0010
,
0100
0001
0010
0100
0010
0100
0010
0100
,
1000
0100
0010
1000
0100
0010
1000
0100
,
0010
1000
0100
0001
0010
0100
0010
0100
,
0010
0100
0001
0100
0010
0001
0100
0010
,
0001
0100
0010
0001
0100
0010
0100
0010
,
0001
0010
0100
0010
0100
1000
0001
0010
,
0100
0010
0100
1000
0010
1000
0010
1000
,
0100
0010
0001
0100
0010
0001
0100
0010
,
0001
0100
0010
0001
0100
0001
0100
0001
,
0010
0100
1000
0010
0100
1000
0010
0100
,
1000
0010
0100
1000
0100
0001
0100
0001
,
1000
0100
0001
1000
0100
0001
1000
0100
,
0001
1000
0100
0001
0010
0100
0010
0100
,
0001
0010
1000
0001
0010
1000
0001
0010
,
1000
0001
0010
1000
0100
0001
0100
0001
,
0010
0100
1000
0000
0100
0010
0001
0000
,
0010
0100
1000
0000
0100
0010
0001
0000
,
1000
0100
0001
0000
0001
0100
1000
0000
,
1000
0010
0001
0000
0001
0010
0100
1000
,
0100
0010
0100
0000
0010
0001
0010
0000
,
0100
1000
0100
0000
0010
0100
0010
0000
,
1000
0001
1000
0000
0100
0010
0100
0000
,
0001
0100
0001
0000
1000
0010
1000
0000
,
1100
0000
0000
0000
0011
0000
0000
0000
0110
0000
0000
0000
,
1010
0000
0000
0000
0101
0000
0000
0000
0000
0000
0000
0000
,
1010
0000
0000
0000
0110
0000
0000
0000
1001
0000
0000
0000
,
0101
0000
0000
0000
0110
0000
0000
0000
0000
0000
0000
0000
,
1101
0000
0000
0000
1011
0000
0000
0000
1101
0000
0000
0000
,
0111
0000
0000
0000
1110
0000
0000
0000
0000
0000
0100
0000
,
0010
0000
0000
0000
0100
0000
0000
0000
0001
0000
0000
0000
,
0010
0000
0000
0000
0100
0000
0000
0000
0000
0000
0100
0000
,
0020
0100
1000
0001
0100
1000
0100
1000
,
1030
0100
0010
0001
1000
0100
0010
0001
0010
0100
1000
0001
,
0010
0100
1000
0100
0010
0001
1000
0100
0010
0001
1000
0100
,
0001
0010
0100
1000
0001
0010
0100
1000
0100
0010
0001
1000
,
0100
0000
0010
0000
0001
0000
0010
0000
0100
0000
1000
0000
0001
0000
0000
0110
0000
0000
0000
0000
0000
0100
0000
0000
,
0000
0010
0000
1100
0000
0001
0000
0010
,
0000
0101
0000
0010
0000
0001
0000
1100
,
0000
0100
0000
0010
0000
0110
0000
0001
,
0000
0100
0000
0110
0000
1100
0000
0100
,
0000
0010
0000
0110
0000
0001
0000
0100
,
0000
1010
0000
0100
0000
0001
0000
0110
,
0000
1000
0000
0001
0000
1010
0000
0100
,
0000
0110
0000
0001
0000
1100
0000
0001
,
0000
0100
0000
0110
0000
1000
0000
0010
,
0000
0110
0000
1000
0000
0010
0000
0110
,
0000
1000
0000
0100
0000
0110
0000
0100
,
0000
0101
0000
1000
0000
0110
0000
1000
,
0000
0100
0000
1010
0000
0100
0000
0001
,
0000
0110
0000
0010
0000
0100
0000
1010
,
0000
1000
0000
0001
0000
0110
0000
0010
,
0000
1100
0000
0010
0000
0110
0000
0001
,
0000
0100
0000
0010
0000
1000
0000
0100
,
0000
0010
0000
0100
0000
0001
0000
0100
,
0000
0010
0000
0100
0000
0010
0000
1000
,
0000
0001
0000
0100
0000
0010
0000
1000
,
0000
0001
0000
0100
0000
0010
0000
0100
,
0000
0001
0000
1000
0000
0100
0000
0010
,
0000
0100
0000
0001
0000
0100
0000
0010
,
0000
1000
0000
0100
0000
0010
0000
0001
,
0000
0100
0000
0010
0000
0100
0000
0001
,
0000
1000
0000
0010
0000
0100
0000
0010
,
0000
0100
0000
0010
0000
0100
0000
0001
,
0000
1000
0010
0100
0010
0200
0000
0000
,
0000
0320
0000
0000
0000
0130
0000
0010
,
0100
0000
0100
0000
0001
0000
0010
0100
,
0000
0010
0000
0100
0000
0001
0000
0010
,
0000
0100
0000
0000
0000
1000
0000
0010
,
0000
0000
0000
0100
0000
0001
0000
0000
,
0000
0010
0000
0100
0000
0001
0000
0010
,
0000
0100
0000
1000
0000
0220
0000
0000
,
0000
0000
0000
0330
0000
0001
0000
0010
,
0000
0100
0000
0220
0000
0000
0000
0330
;

//---------------dance-single - ----------------
#NOTES:
     dance-single:
     :
     Hard:
     10:
     0.813,1.000,0.407,0.091,0.498,740.000,58.000,13.000,0.000,1.000:
0000
0000
0000
0000
,
1001
0000
0010
1000
0100
0001
0010
0100
,
0001
0010
0100
0001
0100
1000
0010
0100
,
0110
0000
0010
0100
0010
1000
0010
0100
,
1001
0010
0100
0010
0100
0001
0000
0010
,
1100
0000
0010
0100
0001
0010
0100
0001
,
0000
0010
0100
0010
0001
0100
0000
0010
,
1100
0000
0010
0100
0000
0001
0010
0000
,
0100
0010
0000
2000
0100
0000
0000
0000
,
3011
0000
0000
0100
0000
0000
0010
0100
1000
0000
0000
0100
0000
0000
0010
0100
,
0010
0000
1000
0000
0010
0000
0100
0000
0010
0000
0100
0000
0001
0010
0100
1000
,
0001
0000
1000
0000
0010
0000
0100
0000
0010
0000
0001
0000
1000
0100
0010
0001
,
1000
0000
0100
0000
0000
0000
0010
0000
0000
0000
1000
0000
0000
0000
0001
0100
,
0010
0000
0100
0000
0000
0000
0100
0000
0010
0000
0000
0100
0000
0000
0010
0000
,
0010
0000
0000
0100
0000
0000
0001
0010
0100
0000
0000
0010
0000
0000
0100
0000
,
0100
0000
0100
0000
0001
0000
1000
0000
0010
0000
0100
0000
0001
1000
0100
0010
,
0001
0000
1000
0000
0001
0000
0100
0000
0010
0000
0100
0000
0001
1000
0100
0010
,
0100
0000
0100
0000
0000
0000
0010
0000
0000
0000
0100
0000
0000
0000
0001
0100
,
1000
0000
0010
0000
0000
0000
0010
0000
0100
0000
0000
0010
0000
0000
0100
0000
,
0020
0000
0000
0000
2000
0000
0000
0000
0000
0000
0000
0000
0000
0000
0000
3030
,
0001
0000
0100
0000
0010
1000
0000
1000
0010
0000
0100
0000
0000
0000
0000
0000
,
0001
0000
0010
0000
0100
1000
0000
1000
0100
0000
0010
0000
0001
0100
0001
0100
,
0010
0000
0100
0000
0010
0100
0000
0100
0010
0000
0001
0000
0000
0000
0000
0000
,
1000
0000
0100
0000
0001
0010
0000
0010
0001
0000
0010
0000
1000
0100
1000
0100
,
0010
0000
0100
0000
0001
0100
0000
0100
0001
0000
0010
0000
0000
0000
0000
0000
,
0100
0000
1000
0000
0100
0010
0000
0010
0001
0000
0010
0000
0000
0000
0100
0000
,
1000
0000
0010
0000
0100
0010
0000
0100
1000
0000
0010
0000
0000
0000
0000
0000
,
0100
0000
1000
0000
0010
0100
0000
1000
0100
0000
0010
0000
0001
0100
0001
0100
,
0010
1000
0100
0010
0100
0001
0100
1000
,
0010
0100
0001
0100
0010
1000
0100
0010
,
0101
1000
0100
0010
0100
0001
0100
0010
,
1000
0100
0010
0100
0001
0100
1000
0010
,
1001
0010
0100
1000
0001
0100
0010
0100
,
0010
1000
0100
0001
0100
0010
1000
0100
,
0011
1000
0010
0100
0001
0100
1000
0010
,
0100
0001
0100
1000
0010
0100
0010
1000
,
0110
0010
0001
1000
0100
0010
1000
0100
,
0010
0100
0010
0002
0000
0000
0000
1003
,
0100
0010
0001
0100
0010
0100
0010
0200
,
0000
0000
0000
0000
0310
0001
1000
0100
,
0010
0100
0001
0010
0100
1000
0100
0010
,
0100
0010
1000
0200
0000
0000
0000
0310
,
0001
0100
0010
1000
0100
0001
0010
0100
,
1000
0100
0010
0011
0000
1100
0000
0100
,
0010
0100
0010
1000
0100
0010
0100
0110
,
0000
0011
0000
1100
0000
1001
0000
0010
,
0110
1000
0100
0010
0100
0001
0010
0100
,
0001
0100
0010
0100
0001
0100
0010
0100
,
0110
0001
1000
0010
0100
0001
0010
0110
,
0000
0101
0000
1100
0000
1001
0000
0010
,
0100
0001
0010
0100
1000
0100
0010
0110
,
1000
0101
0000
1100
0000
0110
0000
0010
,
0100
0000
0000
0010
0000
0001
0010
0100
1000
0000
0100
0000
0010
0000
0100
0000
,
1001
0000
0000
0000
1100
0000
0000
0000
0011
0000
0000
0000
,
1010
0000
0000
0000
0101
0000
0000
0000
0000
0000
0000
0000
,
0110
0000
0000
0000
1010
0000
0000
0000
0101
0000
0000
0000
,
0110
0000
0000
0000
1100
0000
0000
0000
0000
0000
0000
0000
,
0110
0000
0000
0000
0101
0000
0000
0000
1010
0000
0000
0000
,
0110
0000
0000
0000
0101
0000
0000
0000
0000
0000
0100
0000
,
0010
0000
0000
0000
0100
0000
0000
0000
0001
0000
0000
0000
,
0010
0000
0000
0000
0100
0000
0000
0000
0010
0000
0000
0000
,
0001
0000
0010
0000
0100
0000
0010
0000
0000
0000
0100
0000
,
0010
0000
0000
0000
0100
0000
0001
0000
0010
0000
0100
0000
,
0010
0000
0001
0000
0010
0000
0100
0000
0000
0000
0010
0000
,
0100
0000
0000
0000
1000
0000
0010
0000
0100
0000
0010
0000
,
0100
0000
1000
0000
0100
0000
0010
0000
0000
0000
0100
0000
,
0010
0000
0000
0000
0001
0000
0100
0000
0010
0000
0001
0000
,
0100
0000
0010
0000
0100
0000
1000
0000
0000
0000
0100
0000
,
0010
0000
0100
0000
,
0001
0000
0010
0000
0100
0000
0010
0000
0000
0000
0100
0000
,
0010
0000
0000
0000
1000
0000
0100
0000
0010
0000
0100
0000
,
0010
0000
0001
0000
0010
0000
0100
0000
0000
0000
0100
0000
,
0001
0000
0000
0000
0010
0000
1000
0000
0100
0000
0001
0000
,
0100
0000
0010
0000
0100
0000
1000
0000
0000
0000
0100
0000
,
0010
0000
0000
0000
0001
0000
0100
0000
1000
0000
0010
0000
,
0100
0000
0001
0000
0010
0000
0100
0000
0000
0000
0100
0000
,
0010
0000
0100
0000
,
0010
0100
0010
0000
0100
0010
0100
0000
,
1000
0100
1000
0000
0001
0010
0001
0000
,
0001
0100
0001
0000
0100
1000
0100
0000
,
0010
0001
0010
0000
0001
0010
0100
1000
,
0100
0010
0100
0000
0010
0001
0010
0000
,
0100
1000
0100
0000
0010
0100
0010
0000
,
1000
0001
1000
0000
0100
0010
0100
0000
,
0001
0100
0001
0000
1000
0010
1000
0000
,
1100
0000
0000
0000
0011
0000
0000
0000
0110
0000
0000
0000
,
1010
0000
0000
0000
0101
0000
0000
0000
0000
0000
0000
0000
,
1010
0000
0000
0000
0110
0000
0000
0000
1001
0000
0000
0000
,
0101
0000
0000
0000
0110
0000
0000
0000
0000
0000
0000
0000
,
0101
0000
0000
0000
0011
0000
0000
0000
0101
0000
0000
0000
,
0110
0000
0000
0000
1100
0000
0000
0000
0000
0000
0100
0000
,
0010
0000
0000
0000
0100
0000
0000
0000
0001
0000
0000
0000
,
0010
0000
0000
0000
0100
0000
0000
0000
0000
0000
0100
0000
,
0020
0100
1000
0001
0100
1000
0100
1000
,
1030
0100
0010
0001
1000
0100
0010
0001
0010
0100
1000
0001
,
0010
0100
1000
0100
0010
0001
1000
0100
0010
0001
1000
0100
,
0001
0010
0100
1000
0001
0010
0100
1000
0100
0010
0001
1000
,
0100
0000
0010
0000
0001
0000
0010
0000
0100
0000
1000
0000
0001
0000
0000
0100
0000
0000
0000
0000
0000
0100
0000
0000
,
0000
0010
0000
0100
0000
0001
0000
0010
,
0000
0001
0000
0010
0000
0001
0000
0100
,
0000
0001
0000
0010
0000
0100
0000
0001
,
0000
0100
0000
0010
0000
1000
0000
0100
,
0000
0010
0000
0100
0000
0001
0000
0100
,
0000
0010
0000
0100
0000
0001
0000
0100
,
0000
1000
0000
0001
0000
0010
0000
0100
,
0000
0010
0000
0001
0000
0100
0000
0001
,
0000
0100
0000
0010
0000
1000
0000
0010
,
0000
0100
0000
1000
0000
0010
0000
0100
,
0000
1000
0000
0100
0000
0010
0000
0100
,
0000
0001
0000
1000
0000
0010
0000
1000
,
0000
0100
0000
0010
0000
0100
0000
0001
,
0000
0100
0000
0010
0000
0100
0000
0010
,
0000
1000
0000
0001
0000
0100
0000
0010
,
0000
1000
0000
0010
0000
0100
0000
0001
,
0000
0100
0000
0010
0000
1000
0000
0100
,
0000
0010
0000
0100
0000
0001
0000
0100
,
0000
0010
0000
0100
0000
0010
0000
1000
,
0000
0001
0000
0100
0000
0010
0000
1000
,
0000
0001
0000
0100
0000
0010
0000
0100
,
0000
0001
0000
1000
0000
0100
0000
0010
,
0000
0100
0000
0001
0000
0100
0000
0010
,
0000
1000
0000
0100
0000
0010
0000
0001
,
0000
0100
0000
0010
0000
0100
0000
0001
,
0000
1000
0000
0010
0000
0100
0000
0010
,
0000
0100
0000
0010
0000
0100
0000
0001
,
0000
1000
0010
0100
0010
0200
0000
0000
,
0000
0320
0000
0000
0000
0130
0000
0010
,
0100
0000
0100
0000
0001
0000
0010
0100
,
0000
0010
0000
0100
0000
0001
0000
0010
,
0000
0100
0000
0000
0000
1000
0000
0010
,
0000
0000
0000
0100
0000
0001
0000
0000
,
0000
0010
0000
0100
0000
0001
0000
0010
,
0000
0100
0000
1000
0000
0220
0000
0000
,
0000
0000
0000
0330
0000
0001
0000
0010
,
0000
0100
0000
0220
0000
0000
0000
0330
;
