#TITLE:X's Intro Stage;
#SUBTITLE:(from Mega Man X4);
#ARTIST:Capcom;
#TITLETRANSLIT:;
#SUBTITLETRANSLIT:;
#ARTISTTRANSLIT:;
#CREDIT:;
#BANNER:X's Intro Stage (from Mega Man X4).PNG;
#BACKGROUND:X's Intro Stage (from Mega Man X4)-bg.bmp;
#LYRICSPATH:;
#CDTITLE:;
#MUSIC:X's Intro Stage (from Mega Man X4).mp3;
#OFFSET:-1.539;
#SAMPLESTART:41.255;
#SAMPLELENGTH:12.000;
#SELECTABLE:YES;
#BPMS:0.000=157.117;
#STOPS:63.000=1.528
;
#BGCHANGES:;
// cache tags:
#FIRSTBEAT:0.000;
#LASTBEAT:300.000;
#SONGFILENAME:Songs/zelda et megaman/X's Intro Stage (from Mega Man X4)/steps.sm;
#HASMUSIC:1;
#HASBANNER:1;
#MUSICLENGTH:118.158;
// end cache tags

//---------------dance-single - Basic----------------
#NOTES:
     dance-single:
     Basic:
     Easy:
     4:
     0.295,0.316,0.068,0.127,0.000,221.000,8.000,15.000,0.000,0.000:
0001
0010
0100
0000
,
1000
0100
0010
0000
,
0001
1000
0010
0010
,
1000
0100
0010
0000
,
0001
0100
0010
1000
,
1000
0100
0010
0000
,
0001
0010
0100
0000
,
1000
0100
0010
0000
,
1000
0010
0100
0010
,
0001
0010
0100
0000
,
0001
0100
0010
0000
,
0001
0010
0100
0000
,
1000
0001
1000
0100
,
0001
0010
0100
0000
,
1000
0010
0100
0000
,
1000
0100
0010
0000
,
0000
0000
0001
0000
,
0001
0100
0010
1000
,
1000
0010
1000
0000
,
1000
0000
0110
0001
,
0001
1000
0100
0000
,
1000
0001
0100
0000
,
1000
0001
0100
0000
,
1000
0001
0010
0000
,
1000
0000
0101
0001
,
0001
0100
0010
1000
,
1000
0001
0100
0000
,
0001
1000
0010
0000
,
0001
1000
0100
0000
,
1000
0001
0100
0000
,
1000
0001
0100
0000
,
1000
0001
0100
0000
,
0001
0010
1100
0001
,
0001
1000
0100
0000
,
1000
0001
0100
0000
,
1000
0001
0100
0000
,
1000
0001
0100
0000
,
1000
0001
0100
0000
,
1000
0001
0100
0000
,
1000
0001
0010
0000
,
1000
0001
0010
0000
,
0001
0000
0010
0001
,
0001
0100
0010
1000
,
1000
0001
0100
0000
,
0001
1000
0010
0000
,
0001
1000
0100
0000
,
1000
0001
1100
0001
,
1000
0001
0100
0000
,
0001
1000
0010
0000
,
1000
0000
0110
0001
,
0001
0100
0010
1000
,
1000
0001
0100
0000
,
1000
0001
0010
0000
,
0001
1000
0100
0000
,
1000
0001
0100
0000
,
1000
0001
0100
0000
,
0001
1000
0100
0000
,
0001
0010
1100
0011
,
0001
1000
0100
0000
,
1000
0001
0100
0000
,
1000
0001
0100
0000
,
1000
0001
0100
0000
,
0001
1000
0100
0000
,
1000
0001
0100
0000
,
1000
0000
0000
0000
,
0001
0000
1000
0000
,
0010
0000
0002
0003
,
2000
3000
0020
0030
,
0200
0300
2000
3000
,
0002
0003
0020
0030
,
0200
0300
0002
0003
,
2000
3000
0002
0003
,
0200
0300
2000
3000
,
0010
0010
2002
0000
,
0000
0000
0000
3003
;

//---------------dance-single - Standard----------------
#NOTES:
     dance-single:
     Standard:
     Medium:
     6:
     0.440,0.537,0.161,0.085,0.000,335.000,19.000,10.000,0.000,0.000:
0001
0010
1000
0000
0010
0000
0001
0000
,
0001
0010
0200
0000
0000
0000
0000
0000
,
0301
0000
0010
0000
0001
1000
1000
0000
,
0001
0010
0200
0000
0000
0000
0300
0000
,
1001
0100
0010
0100
,
0001
0010
0200
0000
0000
0000
0000
0000
,
0301
0010
1000
0000
0010
0000
0001
0000
,
0001
0010
0200
0000
0000
0000
0000
0000
,
0301
0000
1000
0010
0100
0000
0001
0000
,
0001
0010
1000
0000
0010
0000
0001
0000
,
0001
0010
1000
0000
0010
0000
0001
0000
,
0001
0010
1000
0000
0010
0000
0001
0000
,
0011
0000
0001
0010
0001
0000
1000
0000
,
0001
0010
1000
0000
0010
0000
0001
0000
,
1000
0010
0001
0000
0010
0000
1000
0000
,
0001
0010
1000
0000
0010
0001
0000
0000
,
0000
0000
0000
0000
1000
0100
0000
0000
,
1001
0100
0010
0100
,
1000
0010
0200
0000
,
1300
0001
0110
1000
,
0001
0010
0100
0000
0010
0000
0100
0000
,
0001
0010
0100
0000
0010
0000
0100
0000
,
1000
0100
0010
0001
,
1000
0100
0010
0001
,
1000
0010
0001
0000
0011
0000
1000
0000
,
1001
0100
0010
0100
,
1000
0100
0010
0001
,
1000
0100
0010
0001
,
0001
0010
0100
0000
0010
0000
0100
0000
,
0001
0100
1010
1000
,
0001
0100
0010
0000
1000
0000
0000
0000
,
1000
0100
0010
0001
,
0001
1000
0100
0000
0101
0000
1001
0000
,
0001
0010
0100
0000
0010
0000
0100
0000
,
1000
0100
0010
0001
,
0001
0100
0010
1000
,
0001
0100
0010
0000
1000
0000
0000
0000
,
0001
0100
1010
1000
,
1000
0100
0010
0001
,
1000
0100
0010
0001
,
0001
0010
0100
2000
,
0000
0000
0000
3000
0100
1000
0010
0000
,
1001
0100
0010
0100
,
1000
0100
0010
0001
,
0001
0100
0010
1000
,
0001
0010
0100
0000
0010
0000
0100
0000
,
1100
1000
1001
0010
,
1000
0100
0010
0001
,
1000
0100
0010
0001
,
1000
0001
0110
1000
,
1001
0100
0010
0100
,
1000
0100
0010
0001
,
0001
0100
0010
1000
,
0001
0010
0100
0000
0010
0000
0100
0000
,
0001
0100
1010
1000
,
1000
0100
0010
0001
,
0001
0010
0100
0000
0010
0000
0100
0000
,
0001
1000
0100
0000
0101
0000
0001
0000
,
0001
0010
0100
0000
0010
0000
0100
0000
,
1000
0100
0010
0001
,
0001
0010
0100
1000
,
0001
0100
0010
0000
1000
0000
0000
0000
,
0001
0010
0100
0000
0010
0000
0100
0000
,
0001
0100
0010
0000
2000
0000
0000
0000
,
3001
0000
0002
0000
,
1003
0000
1001
0000
,
0001
1000
0010
0100
1000
0001
0010
0100
,
1000
0001
0100
0010
0100
0001
1000
0010
,
0100
0001
0100
0100
0010
0100
0001
1000
,
0010
0100
1000
0001
0010
0100
0001
0100
,
1000
0010
0100
0001
0010
0100
1000
0001
,
0100
0100
0001
1000
0001
0100
0001
0010
,
0010
0100
1000
0010
0010
0100
0001
0100
,
0010
1000
0100
0000
2002
0000
0000
0000
,
0000
0000
0000
0000
0000
3003
0000
0000
;

//---------------dance-single - Heavy----------------
#NOTES:
     dance-single:
     Heavy:
     Hard:
     8:
     0.461,0.540,0.110,0.372,0.152,324.000,13.000,44.000,0.000,0.000:
2002
0000
0000
0000
0000
0000
0000
0000
0000
0000
3003
0000
,
0220
0000
0000
0000
0000
0000
0000
0000
0000
0000
0330
0000
,
2002
0000
0000
3003
,
2200
0000
0000
0000
0000
3300
0022
0000
0000
0000
0033
0000
,
0002
0000
0000
0000
0000
0000
0000
0003
,
0020
0000
0000
0030
,
0200
0000
0000
0300
,
2000
0000
0000
0000
0020
0000
0000
3030
,
0000
0000
0001
0000
0010
0100
0000
0010
,
0000
0000
0001
0000
1000
0100
0000
0010
,
0000
0000
0001
0000
0100
0010
0000
0001
,
0001
0000
0220
0000
,
0330
0000
0010
0000
0001
1000
0000
0010
,
0000
0000
0001
0000
0100
0010
0000
0100
,
0000
0000
0001
0000
1000
0100
0000
0010
,
0001
0000
2002
0000
,
0000
0000
0000
0000
3003
0000
0000
0000
0010
0000
0000
1000
0000
0000
0001
0000
,
0002
0000
0000
0000
0000
0000
0000
0003
0010
0000
0000
0100
0000
0000
1000
0000
,
0200
0000
0000
0000
0000
0000
0000
0000
0000
0000
0000
0000
0010
0300
0000
0000
,
0001
0000
0000
0000
0010
0000
0000
0100
,
0100
0000
0000
0000
0000
0000
0000
0000
0001
0000
0000
1000
0000
0000
0010
0000
,
0200
0000
0000
0000
0000
0000
0000
0300
0010
0000
0000
0001
0000
0000
0010
0000
,
1000
0000
0000
0010
,
0002
0000
0000
0000
0000
0000
0000
0000
2003
0000
0000
0000
0000
0000
0000
3000
,
0010
0000
0100
0000
0001
0010
0100
1000
,
0010
0000
0000
0000
0001
0000
0000
0000
0100
0000
0000
0001
0010
0000
0000
0001
,
0010
0000
0000
0000
1000
0000
0000
0000
0010
0000
0000
0001
1000
0000
0000
0001
,
1000
0000
0000
0000
0010
0000
0000
0000
0001
0000
0000
1000
0010
0000
0000
0100
,
0001
0000
0000
0000
0001
0001
0001
0000
,
0010
0000
0000
0000
0100
0000
0000
0001
1000
0000
0000
0010
0100
0000
0000
0000
,
0001
0000
0000
0000
0010
0000
0000
0010
1000
0000
0000
0010
0001
0000
0000
0000
,
0010
0000
0000
0000
0001
0000
0000
0100
0010
0000
0000
0100
0010
0000
0000
0000
,
0001
1000
0100
0010
0100
0001
1000
0000
,
0110
0000
0001
0000
0001
0001
0000
0002
,
0000
0000
0000
0003
1000
0000
0000
0000
1000
0000
1000
0000
0000
0000
2000
0000
,
0000
0000
0000
3000
0010
0000
0000
0000
0010
0000
0010
0000
0000
0000
0010
0000
,
0020
0000
0200
0000
,
0330
0000
0001
0000
1000
0100
0000
0010
,
0010
0000
0020
0000
0000
0000
0000
0030
,
0001
1000
0100
0001
,
0010
0010
0200
0000
,
0000
0000
0000
0000
0000
0000
0300
0000
0001
0000
0000
1000
0000
0000
0010
0000
,
0200
0000
0000
0000
0000
0000
0000
0300
0001
0000
0000
0100
0000
0000
0010
0000
,
2000
0000
0000
0000
0000
0000
0000
0000
0000
3000
0000
0000
0001
0000
0000
0000
,
0011
0000
1100
0000
0010
0000
0100
0001
,
0010
0000
0000
0000
0100
0000
0000
0000
1000
0000
0000
0010
0000
0000
0100
0000
,
0002
0000
0000
0000
0000
0000
0003
0000
1000
0000
0000
0010
0000
0000
0100
0000
,
0020
0000
0000
0000
0000
0000
0000
0000
0000
0030
0000
0000
0001
0000
0000
0000
,
2000
0000
0000
0000
0200
0000
0000
3300
,
0010
0000
0001
0000
0100
0010
0100
0000
,
0001
0000
1000
0000
0001
0000
1000
0100
0000
0010
0001
0000
0000
0000
0001
0000
,
0001
0000
1000
0000
0001
0000
1000
0100
0000
0010
0001
0000
0000
0000
0100
0000
,
0100
0000
0010
0000
0100
0000
0010
1000
0000
0001
0100
0000
0000
0000
1000
0000
,
1000
0000
0001
0000
1000
0000
0001
0010
0000
0100
1000
0000
0000
0000
0010
0000
,
0010
0000
0100
0000
0010
0000
0100
0001
0000
1000
0010
0000
0000
0000
1000
0000
,
1000
0000
0001
0000
1000
0000
0001
0010
0000
0100
1000
0000
0000
0000
0100
0000
,
0100
0000
0010
0000
0100
0000
0010
1000
0000
0001
0100
0000
0000
0000
0010
0000
,
0010
0000
0100
0000
0010
0000
0100
0001
0000
1000
0010
0000
0000
0000
0000
0000
,
0000
0000
0001
0000
0010
0100
0000
2000
,
0000
0000
3001
0000
0010
0100
0000
0020
,
0000
0000
0031
0000
0100
0010
0000
1000
,
0002
0000
0203
0000
,
0000
0300
0000
0000
0010
0000
0000
0000
0001
0000
1000
0000
0000
0000
0020
0000
,
0000
0000
0031
0000
0010
0100
0000
1000
,
0200
0000
0000
0000
0000
0000
0000
0300
,
0001
0010
0100
1000
,
0001
0000
0100
0010
0001
1000
0100
1000
,
0100
1000
0010
0001
1000
0001
1000
0001
,
0010
1000
0010
0001
1000
0100
0010
1000
,
0001
0001
0100
0010
0001
0100
0010
1000
,
0100
0001
1000
0010
1000
0001
0100
0100
,
0010
0100
1000
0100
0010
0001
0100
0001
,
0010
0100
0001
0100
0010
0010
0001
0100
,
0010
0000
1001
0110
2002
0000
0000
0000
,
0000
0000
0000
0000
,
3003
0000
0000
0000
;
