#TITLE:Hugs N' Drugs;
#SUBTITLE:;
#ARTIST:Alien Speech;
#TITLETRANSLIT:;
#SUBTITLETRANSLIT:;
#ARTISTTRANSLIT:;
#CREDIT:;
#BANNER:hugs.PNG;
#BACKGROUND:hugs2.PNG;
#LYRICSPATH:;
#CDTITLE:;
#MUSIC:Alien Speech - Hugs N' Drugs.mp3;
#OFFSET:1.755;
#SAMPLESTART:39.575;
#SAMPLELENGTH:12.000;
#SELECTABLE:YES;
#BPMS:0.000=130.000,64.000=65.000,66.000=130.000,126.000=65.000,128.000=130.000,140.000=65.000,144.000=130.000;
#STOPS:;
#BGCHANGES:;
// cache tags:
#FIRSTBEAT:4.000;
#LASTBEAT:212.000;
#SONGFILENAME:Songs/stepmix .10/Hugs N' Drugs/hugsndrugs.sm;
#HASMUSIC:1;
#HASBANNER:1;
#MUSICLENGTH:101.074;
// end cache tags

//---------------dance-single - ----------------
#NOTES:
     dance-single:
     :
     Hard:
     12:
     0.924,0.952,0.514,0.435,1.000,558.000,52.000,44.000,40.000,6.000:
0000
0000
0000
0000
,
2002
0000
0000
0010
0000
0000
3003
0000
,
2200
0000
0000
0001
0000
0000
3300
0000
,
0220
0000
0000
1000
0000
0000
0330
0000
,
0202
0000
0000
0010
0000
0000
0303
0000
,
2001
3100
1002
0103
,
2010
3100
0201
0310
,
2200
0000
3311
0000
1010
0202
1313
0000
,
0010
0000
1000
0000
0001
0000
0100
0000
0010
0000
1000
0000
0001
0100
0000
0100
,
1001
0000
0001
0100
0001
0000
0100
0000
0010
1000
0100
0000
0001
0000
1000
0000
,
1100
0000
0010
0100
0010
0000
1000
0000
1000
0010
0001
0010
1000
0000
0100
0000
,
0202
0000
0303
1000
0001
0000
0100
0000
1001
0100
1000
0000
0001
0100
0010
0000
,
0010
1010
0000
0100
0101
0000
1000
0000
0010
1000
0100
0001
0100
1000
0001
0000
,
0010
1000
0010
1000
0100
0000
0001
0100
0001
0100
0001
0100
1000
0001
0010
0000
,
0010
0000
1000
0000
0100
0000
0010
0000
0100
0000
0000
0000
0010
0000
0001
0000
1000
0000
0100
0000
0010
0000
0001
0010
0001
0000
0010
0000
0100
0000
0000
0000
,
1000
0100
0000
0001
0100
0000
0010
1000
0000
0001
0100
0000
0001
1000
0001
0000
,
100M
0000
0000
0000
0000
0000
0M00
0000
0000
0000
0000
0000
M0M0
0000
0000
0000
0000
0000
0000
0000
0000
0000
0000
0000
M10M
0000
0000
0000
0000
0000
00M0
0000
0000
0000
0000
0000
MM00
0000
0000
0000
0000
0000
000M
0000
0000
0000
0000
0000
0M10
0000
0000
0000
0000
0000
M000
0000
0000
0000
0000
0000
00M0
0000
0000
0000
0000
0000
0M00
0000
0000
0000
0000
0000
M001
0000
0000
0000
0000
0000
00M0
0000
0000
0000
0000
0000
0M0M
0000
0000
0000
0000
0000
M0M0
0000
0000
0000
0000
0000
0001
0000
0000
0000
0000
0000
0000
0000
0000
0000
0000
0000
0000
0000
0000
0000
0100
0000
0000
0000
0000
0000
0000
0000
0000
0000
0000
0000
0000
0000
0000
0000
0010
0000
0000
0000
0000
0000
0000
0000
0000
0000
0000
0000
0000
0000
0000
0000
1000
0000
0000
0000
0000
0000
0000
0000
0000
0000
0000
0000
0000
0000
0000
0000
0001
0000
0000
0000
0000
0000
0000
0000
0000
0000
0000
0000
0000
0000
0000
0000
1000
0000
0000
0000
0000
0000
0000
0000
0000
0000
0000
0000
0000
0000
0000
0000
,
0001
0000
0000
0000
0000
0000
0100
0000
0000
1000
0000
0000
0100
0000
0000
0010
0000
0000
0100
0000
0000
0000
0000
0000
1000
0000
0000
0000
0100
0000
0000
0000
0010
0000
0000
0000
M001
0000
0000
0000
0010
0000
0000
0000
0100
0000
0000
0000
,
1000
0000
0000
0000
0000
0000
0001
0000
0000
0010
0000
0000
010M
0000
0000
0010
0000
0000
0001
0000
0000
0000
0000
0000
1000
0000
0000
0000
0100
0000
0000
0000
1100
0000
0000
0000
0001
0000
0000
0000
0010
0000
0000
0000
0011
0000
0000
0000
,
2000
0100
3100
0020
0001
0031
100M
0100
M001
0100
100M
0010
,
100M
0010
M001
0010
1000
0100
0010
0001
0100
0010
1000
0100
,
0010
0000
0000
0000
0000
0000
0001
0000
0000
1000
0000
0000
0000
0000
0000
1000
0000
0000
0001
0000
0000
0000
0000
0000
0010
0000
0000
0000
0100
0000
0000
0000
0001
0000
0000
0000
1000
0000
0000
0000
0100
0000
0000
0000
0010
0000
0000
0000
,
0001
0000
0000
0000
0000
0000
0010
0000
0000
1000
0000
0000
0000
0000
0000
1000
0000
0000
0100
0000
0000
0000
0000
0000
2M00
0000
0000
0000
3100
0000
0000
0000
002M
0000
0000
0000
0031
0000
0000
0000
02M0
0000
0000
0000
0310
0000
0000
0000
,
2M00
0000
3100
0000
0M02
0000
0103
0000
0M20
0000
0130
0000
2010
0000
0000
0001
0000
0000
3010
0000
0000
0102
0000
0000
,
1000
0000
0103
0000
0010
1000
0100
0001
0100
1000
0100
1000
0001
0000
0001
0100
,
0001
0100
0010
0000
0101
0000
1100
0000
1000
0100
0010
0001
0100
0000
0010
1000
,
0001
0100
0010
0000
1010
0000
0011
0000
0120
0000
1030
1000
0100
0000
0010
0010
,
0001
0100
0010
0000
0100
0000
0110
0000
1000
0100
0100
0000
0101
0000
0010
0001
,
0001
0000
1001
0000
0010
0100
0010
0000
1001
0000
0110
1000
0001
0000
0010
1000
,
0100
0010
0001
0010
0100
1000
0001
0000
0100
0010
1000
0000
1001
0000
0001
0010
,
0001
0010
1000
0100
1000
0100
1000
0000
0010
1000
0100
1000
0010
0100
0001
0010
,
0001
0100
0001
1000
0100
0100
1000
0000
1200
M000
0010
00M0
0001
000M
0310
MMMM
,
1100
0000
0110
0000
0011
0000
0101
0000
0110
0000
1010
0000
1000
0001
1000
0001
,
2000
3000
0000
1000
0100
0000
0010
0000
0001
0000
0100
0000
0010
0000
1000
0000
,
0002
0003
0000
0010
0100
0000
1000
0000
0010
0000
0001
0000
0010
0000
0100
0000
,
2000
0000
0100
0000
0100
0000
0200
0000
3000
0000
0300
0001
0100
0000
0001
0000
0020
0000
0000
0000
0000
0000
2030
0000
0000
0000
0000
0000
3100
0000
0001
0000
,
0110
0000
0000
0010
0001
0000
1000
0000
0010
0000
0100
0000
0001
0100
0001
0000
,
1001
0000
0000
0010
0100
0000
1000
0000
0010
0000
0110
0000
0100
0001
0001
0000
,
1010
0000
0100
0001
0100
0000
1000
0100
0100
0000
1100
0000
0010
0001
0100
0000
,
0011
0000
1000
0100
1000
0000
0010
0100
0100
0000
0110
0000
0100
0010
0010
0000
,
1010
0000
0001
0010
0100
0000
1000
0000
0010
0100
0001
0000
1000
0100
0010
0000
,
0110
0000
0001
0010
1000
0000
0010
0100
0001
0000
0100
1000
0010
0100
0001
0000
,
0010
1000
0010
0001
0100
0001
0010
1000
0010
0001
0100
0001
0010
1000
0010
0000
,
1001
0000
0100
0000
0010
0000
0001
0000
0100
0000
1000
0000
0100
0001
0010
0001
,
1000
0000
0010
0000
0100
0000
0001
0000
1000
0000
0100
0000
0010
0000
0001
0000
0010
0000
0001
0000
0100
0000
0010
0000
1000
0000
0010
0000
0001
0000
0010
0100
,
0010
0000
1000
0000
0100
0000
1000
0000
0001
0000
0010
0000
0100
0000
0010
0000
1000
0000
0010
0000
0100
0000
0010
0000
0001
0000
0100
0000
0010
0000
1000
0001
,
0100
0000
0010
0000
1000
0000
0001
0000
1000
0000
0001
0000
0010
0000
0100
0000
0010
0000
0001
0000
0100
0000
0010
0000
0001
0000
0010
0000
0100
0000
0010
1000
,
0100
0000
0010
0000
0001
0000
1000
0000
0100
0000
0010
0000
0100
0000
0001
0000
0100
0000
0001
0000
0010
0000
0001
0000
1000
0000
0010
0000
0100
0000
0010
1000
,
0010
0000
0100
0000
0001
0000
0010
0000
0100
0000
0100
0000
0001
0000
0100
1000
0100
0000
1000
0000
0010
0000
0100
0000
0001
0000
1000
0000
0100
0000
0001
0100
,
0010
0000
1000
0000
0010
0000
0001
0000
0010
0000
1000
0000
0100
0000
0010
0001
0010
0000
0100
0000
1000
0000
0100
0000
0010
0000
0001
0000
0100
0000
0001
1000
,
0010
0000
0100
0000
0001
0000
0100
0000
0001
0000
0010
0000
0100
0000
1000
0100
1000
0000
0010
0000
0001
0000
1000
0000
0100
0000
0010
0000
0001
0000
1000
0000
,
0002
0000
0000
2003
0000
0000
3200
0000
0000
0320
0000
0000
0032
0000
0000
0203
0000
0000
0301
0100
0001
1000
0100
0000
,
2002
3003
0000
0000
0000
0000
0000
0000
0000
0000
0000
0000
0000
0000
0000
0000
0000
0000
0000
0000
0000
0000
0000
0000
0000
0000
0000
0000
0000
0000
0000
0000
;

//---------------dance-single - ----------------
#NOTES:
     dance-single:
     :
     Medium:
     9:
     0.630,0.682,0.228,0.168,0.361,406.000,23.000,17.000,0.000,0.000:
0000
0000
0000
0000
,
2000
0000
3100
0000
,
0020
0000
0031
0000
,
0002
0000
0013
0000
,
2000
0000
3100
0000
,
0010
1001
0100
0110
,
1000
1100
0001
0101
,
0010
1100
0100
1001
,
0010
0000
1000
0000
0100
0000
0010
0000
0100
0000
0010
0000
1000
0001
0000
0100
,
0001
0000
0100
0000
0010
0000
1000
0000
0100
0000
0010
0000
0001
0100
0001
0000
,
0010
0000
0100
0000
0001
0000
1000
0000
0100
0000
1000
0000
0010
0100
0010
0000
,
1000
0000
0100
0000
0001
0000
0100
0000
0010
0000
0100
0000
0001
1000
0100
0000
,
1000
0000
0010
0000
0001
0000
0010
0000
0100
0000
0001
0000
0010
1000
0010
0000
,
0001
0100
0000
1000
0100
0000
0010
0000
0001
0000
0001
0000
1000
0000
1000
0000
,
0001
0010
0000
1000
0100
0000
0100
0000
0001
0000
0010
0000
1000
0000
1000
0000
,
0020
0100
0100
0130
0002
1000
1000
1003
,
0020
0000
0000
2030
0000
0000
3002
0000
0000
1003
0000
0000
0001
0000
0100
0000
0010
0000
0100
0000
0001
0000
1000
0000
,
0100
0010
0001
0100
1000
0010
0100
0001
1000
0100
0010
0001
,
0100
0010
0100
0001
0100
1000
0100
0010
1000
0001
0100
0010
,
0001
1000
0100
1000
0010
0100
0100
0001
0010
0100
1000
0100
,
0001
1000
0010
0001
0010
1000
0002
0000
0000
0103
0000
0000
,
2000
3100
0020
0130
,
0002
0000
1003
0000
0020
0100
0130
0000
,
2000
0001
3001
0000
0010
0100
0010
0100
,
0001
0000
1000
0000
0001
1000
0001
1000
0001
0000
1000
0000
0100
0000
0010
0000
,
0001
0000
0010
0000
0100
1000
0100
0000
0010
0000
0001
0000
0100
0000
0010
0000
,
0100
0000
0001
0000
0010
0100
0010
0000
0100
0000
0001
0000
1000
0000
0010
0000
,
0100
0000
0001
0000
1000
0001
1000
0000
0100
0000
0001
0000
1000
0000
0010
0000
,
0100
0000
0001
0100
0001
0000
1000
0000
0010
0000
0001
0000
0100
0000
0000
1000
,
0100
0010
0001
0100
0010
1000
0100
0010
,
0001
0000
0000
0001
0100
0000
0100
0000
0010
0000
1000
0000
0001
0000
0100
0000
,
0100
0000
0001
0010
0000
1000
0010
0000
1000
0001
1000
0001
0001
1000
0001
1000
,
0001
0000
0100
0000
0001
0000
0101
0000
1000
0000
0100
0000
1000
0100
1000
0100
,
1000
0000
0100
0010
0000
0010
0001
0010
,
0001
0000
0010
1000
0000
0001
0010
0100
,
1001
0000
0000
0110
0000
0000
0010
0100
0100
0000
0000
0110
0000
0000
1000
0001
,
1000
0010
0100
0001
0100
1000
0010
1010
,
1000
0100
0010
0001
0100
0010
1000
1001
,
0010
0100
0010
0001
0100
0010
1000
0110
,
0001
0100
0001
0010
0100
1000
0100
1100
,
0010
0001
0010
0100
0001
0100
1000
0110
,
0001
1000
0100
1000
0001
0100
0010
1001
,
0100
0001
0010
1000
0100
0010
0100
0011
,
0010
0000
1000
0000
0100
0000
0001
0000
0010
0000
1000
0000
0010
0100
0010
0100
,
0001
0000
1000
0000
0100
0000
0010
0000
0001
0000
0100
0000
0001
1000
0100
0000
,
0010
0000
0100
0000
0001
0000
1000
0000
0100
0000
0001
0000
0100
0010
0100
0000
,
1000
0000
0100
0000
1000
0000
0010
0000
0100
0000
0001
0000
0010
0001
0100
0000
,
1000
0000
0100
0000
0100
0000
0001
0000
0100
0000
0100
0000
1000
0010
1000
0000
,
0001
0000
0100
0000
0010
0000
0100
0000
1001
0000
0010
0000
0100
0001
0010
0000
,
0001
0000
0010
0000
0001
0000
0100
0000
1010
0000
0100
0000
0001
0100
0010
0000
,
1000
0000
0100
0000
0010
0000
0001
0000
0100
0000
0101
0000
0010
1000
0100
0000
,
0010
0000
0100
0000
0001
0000
1000
0000
1100
0000
0101
0000
0010
1000
0001
0100
,
2002
0000
0000
0000
,
3003
0000
0000
0000
;

//---------------dance-single - ----------------
#NOTES:
     dance-single:
     :
     Easy:
     6:
     0.407,0.446,0.218,0.139,0.025,252.000,22.000,14.000,0.000,0.000:
0000
0000
0000
0000
,
2000
0000
0000
3000
,
0002
0000
0000
0003
,
0020
0000
0000
0030
,
0200
0000
0000
0300
,
1000
0010
0100
0001
,
0010
0100
1000
0001
,
1001
0110
1001
0110
,
0010
0000
1000
0000
0010
0000
1000
0000
0001
0000
0100
0000
0001
0100
0000
0001
,
0000
0000
1000
0000
0100
0000
0010
0001
,
0100
0000
0010
0000
1000
0000
0001
0100
,
0001
0000
0100
0000
0001
0000
1000
0010
,
1000
0000
0010
0000
0001
0000
0010
1000
,
0100
0000
0001
0000
0010
0100
0010
0000
,
1001
0000
0010
0000
0001
0100
0010
0000
,
0110
0000
1000
0000
0001
0000
0010
1000
,
0002
0000
0000
1000
0000
0000
0000
0000
1003
0000
0000
0000
0100
0000
0000
0000
,
0001
0010
0001
0010
0001
0000
0100
0000
,
0010
1000
0010
1000
0010
0000
0100
0000
,
0001
1000
0100
1000
0100
0000
0010
0000
,
0100
0001
1000
0100
1000
0000
1001
0000
,
0010
0110
0001
0101
,
0010
1010
0100
1100
,
0010
0000
0011
0000
0001
1000
0001
1000
,
0010
0100
0010
0100
0002
0000
1000
0000
,
0010
1003
0020
1000
,
0100
1030
0200
0001
,
0010
0301
2000
0010
,
0100
3010
0001
0101
,
1000
0010
1000
0000
1000
0000
1001
0000
,
0010
0100
0010
0000
0001
1000
0100
0000
,
0010
0001
0100
0000
2001
0000
0100
0000
,
3010
0100
0010
0100
0001
1000
0001
1000
,
0001
0000
0000
0100
0000
0000
1000
0000
,
0100
0000
0000
0010
0000
0000
0001
0000
,
2000
0000
0000
0001
0000
0000
0000
0000
3002
0000
0000
0100
0000
0000
0000
0000
,
1003
0000
0001
0000
0100
0000
0010
1000
,
0001
0000
0010
0000
1000
0000
0001
0010
,
0100
0000
0001
0000
0100
0000
1000
0100
,
0001
0000
0010
0000
0001
0000
0100
0001
,
1000
0000
1001
0000
0100
0000
0010
0100
,
0010
0000
0101
0000
1000
0000
0001
0010
,
1000
0000
1100
0000
0010
0001
0100
0001
,
1000
0100
1000
0100
0010
0001
0010
0001
,
0100
0000
0001
0000
1000
0001
1000
0001
,
1000
0000
0100
0000
0010
0100
0010
0100
,
0010
0000
0001
0000
1000
0100
1000
0001
,
0100
0000
0010
0000
0001
0010
0001
0100
,
0001
0000
1100
0000
0010
0100
0001
1000
,
0001
0000
0011
0000
0010
1000
0100
1000
,
0001
0000
0101
0000
0010
1000
0001
1000
,
0010
0100
0001
1000
0010
0100
0001
1000
,
2002
0000
0000
0000
,
3003
0000
0000
0000
;
