#TITLE:Get Ready 2 Rokk;
#SUBTITLE:;
#ARTIST:Freezepop;
#TITLETRANSLIT:;
#SUBTITLETRANSLIT:;
#ARTISTTRANSLIT:;
#CREDIT:;
#BANNER:banner.JPG;
#BACKGROUND:;
#LYRICSPATH:;
#CDTITLE:!tizaTitle.png;
#MUSIC:Guitar Hero - Get Ready 2 Rokk.ogg;
#OFFSET:-1.320;
#SAMPLESTART:117.501;
#SAMPLELENGTH:15.200;
#SELECTABLE:YES;
#BPMS:0.000=190.000;
#STOPS:;
#BGCHANGES:;
// cache tags:
#FIRSTBEAT:4.000;
#LASTBEAT:561.083;
#SONGFILENAME:Songs/Reggaeton and more/Get Ready 2 Rokk/getready2rokk.sm;
#HASMUSIC:1;
#HASBANNER:1;
#MUSICLENGTH:183.484;
// end cache tags

//---------------dance-single - ----------------
#NOTES:
     dance-single:
     :
     Challenge:
     11:
     0.740,1.000,0.507,0.714,0.207,727.000,93.000,131.000,0.000,15.000:

0000
0000
0000
0000
,
1000
0100
0010
0001
1000
0100
0010
0001
,
1000
0100
0010
0001
1001
0000
0000
0000
,
0001
0010
0100
1000
0001
0010
0100
1000
,
0001
0010
0100
1000
1001
0000
0000
0000
,
1000
0010
0100
0001
1000
0010
0100
0001
,
1000
0010
0100
0001
0101
0000
0000
0000
,
0001
0100
0010
1000
0001
0100
0010
1000
,
0001
0100
0010
1000
2020
0000
3030
1000
,
1001
0001
0100
0010
1000
0100
0010
0100
,
1000
0001
0100
0010
2000
0000
0002
3003
,
1001
1000
0100
0010
0001
0100
0010
1000
,
0010
0100
0001
0010
0200
0010
1000
0300
,
1100
1000
0010
0100
0001
0100
0010
1000
,
0100
1000
0010
0100
0002
0000
2000
3003
,
0110
0010
0100
0010
1000
0100
0010
0001
,
1000
0010
0100
0001
2002
0000
3003
1000
,
1100
0100
0010
0100
1000
0010
0100
0001
,
1000
0000
0100
0000
0010
0000
0100
0000
1000
0100
0010
0001
1000
0100
0010
0000
,
0100
1000
0010
0100
0001
0100
0010
1000
,
0100
0010
0001
0010
0002
1000
0010
1000
,
1003
0010
0100
0001
1000
0100
0010
0001
,
1000
0100
0001
0100
2000
0000
0020
3030
,
1000
0001
0100
0010
1000
0001
0010
0100
,
1000
0000
0000
0010
0000
0000
0100
0000
0000
0001
0000
0000
1000
0000
0000
0001
0100
0001
0100
0000
0000
0000
0000
0000
,
1000
0100
1000
0010
1000
0100
0010
0001
,
0100
0000
0001
0000
0010
0000
0001
0000
0100
0000
0010
1000
0100
0001
0100
0000
,
1000
0100
0010
0100
1000
0001
0100
0010
,
0100
0001
1000
0100
0010
0001
0010
0100
,
2002
0000
0000
0000
,
0000
0000
0000
0000
,
0000
0000
0000
0000
,
0000
0000
0000
0000
0000
0000
0000
3003
,
2200
0000
0000
0000
0000
0000
3300
0000
1000
0010
0000
0000
0000
0000
0000
0000
,
2000
3200
0320
0032
,
2000
0000
0000
0000
0000
0000
3003
0000
0001
1000
0000
0000
0000
0000
0000
0000
,
2000
3020
0230
0302
,
2000
0000
0000
0000
0000
0000
3003
0000
1000
0010
0000
0000
0000
0000
0000
0000
,
0200
0302
0023
0230
,
2000
0000
0000
0000
0000
0000
3300
0000
0100
0010
0000
0000
0000
0000
0000
0000
,
1100
0110
0011
0001
,
2002
0000
0000
0000
0010
3003
0000
0000
,
1100
0000
0000
0000
0000
0000
1100
0000
0100
0000
0010
0000
,
0011
0000
0001
0000
0100
0000
1010
0000
1000
0000
0001
0000
,
2002
0000
0000
0000
0000
0000
0000
0000
0000
0000
0000
0000
3003
0000
0000
2000
0200
0000
0000
0000
0000
0000
3300
0000
,
2002
0000
0000
0000
0000
0000
0000
3003
,
2002
0000
0000
0000
0000
0000
0000
0000
0000
0000
0000
0000
3003
0000
0000
2000
0020
0000
0000
0000
0000
0000
3030
0000
,
0202
0000
0000
0000
0000
0000
0000
0000
0000
0000
0000
0303
2020
0000
0000
0000
0000
0000
0000
0000
0000
0000
0000
3030
,
2002
0000
0000
0000
0000
0000
0000
0000
0000
0000
0000
0000
0000
3003
0000
0200
0020
0000
0000
0000
0000
0000
0330
0000
,
2002
0000
0000
0000
0000
0000
0000
3003
,
2002
0000
0000
0000
0000
0000
0000
0000
0000
0000
0000
0000
3003
0000
0000
2000
0020
0000
0000
0000
0000
0000
3030
0000
,
0202
0000
0000
0000
0000
0000
0000
0000
0000
0000
0000
0303
2020
0000
0000
0000
0000
0000
0000
0000
0000
0000
0000
3030
,
2002
0000
0010
0000
,
3003
0000
1000
0010
0001
0010
1000
0100
,
0001
0000
0001
0200
2000
0000
0000
0000
,
0000
0000
0000
3300
1000
0010
0100
0001
,
0202
0000
1000
0000
,
0303
0000
1000
0010
0100
0001
0100
0010
,
1000
0000
1000
0100
0010
0000
0100
0010
,
0001
0000
0001
0100
0010
1000
0100
0010
,
0011
0001
0100
0010
1000
0100
1000
0010
,
0100
0001
0010
0001
0100
0000
0000
0000
,
1000
0010
0000
0100
0001
0010
0000
1000
,
0010
0001
0000
0001
1001
0000
0000
0000
,
1000
0100
0010
0010
0100
1000
0010
0010
,
0100
0001
0010
0100
1100
0000
0000
0000
,
1100
1100
0000
0010
0110
0110
0000
0001
,
0011
0011
0000
1001
1001
0000
0000
0000
,
1000
0000
0100
0000
1000
0000
0010
0100
,
0001
0000
0011
0000
1001
0000
1100
1000
,
0010
0000
0110
0000
0101
0000
1000
0100
,
0010
0011
1001
1100
,
1000
0100
0010
0001
1000
0010
0100
0001
,
1000
0010
0100
0010
1000
0000
2002
3003
,
1000
0010
0100
0010
1000
0001
0100
0010
,
0100
0001
1000
0100
0020
0100
0001
0030
,
1100
0010
0100
0001
0010
0001
0100
0010
,
1000
0100
1000
0010
0101
0000
1001
0000
,
1100
0100
1000
0010
0100
0010
1000
0100
,
0010
0001
1000
0001
1001
1000
1100
0100
,
0220
0000
0000
0000
,
0000
0000
0000
0000
,
0000
0000
0000
0000
,
0000
0000
0000
0330
,
2200
0000
0000
0000
0000
0000
3300
0000
1000
0010
0000
0000
0000
0000
0000
0000
,
2000
3200
0320
0032
,
2000
0000
0000
0000
0000
0000
3003
0000
0001
1000
0000
0000
0000
0000
0000
0000
,
2000
3020
0230
0302
,
2000
0000
0000
0000
0000
0000
3003
0000
1000
0010
0000
0000
0000
0000
0000
0000
,
0200
0302
0023
0230
,
2000
0000
0000
0000
0000
0000
3300
0000
0100
0010
0000
0000
0000
0000
0000
0000
,
1100
0110
0011
0001
,
2002
0000
0000
0000
0010
3003
0000
0000
,
2200
0000
0000
0000
0010
0000
0000
3300
,
0202
0000
0000
0000
1000
0000
0000
0303
,
1000
0100
1000
0100
1000
0010
1000
0001
0100
0000
0010
0000
1000
0100
0010
0000
,
0010
0001
0010
0100
1000
0100
0010
0100
1000
0000
0010
0000
0100
0001
1000
0000
,
1000
0100
1000
0100
1000
0000
0001
0100
0001
0100
0001
0000
1000
0010
1000
0010
,
1000
0000
0001
0010
0001
0010
0001
0000
1000
0001
1000
0001
1000
0000
0100
0010
,
0001
1000
0000
0000
0000
0000
1000
0100
0000
0000
0000
0000
0100
0010
0000
0001
0000
0000
0100
0010
0000
1000
0000
0000
,
1100
0000
0000
0100
0000
0000
0010
0000
0000
0001
0000
0000
0010
0100
0000
1000
0000
0000
1000
0100
0000
0010
0000
0000
,
0001
0010
0100
1000
0001
0010
0100
1000
0001
0100
0010
1000
0001
0100
0010
1000
,
0001
0000
0100
0000
0010
1000
0000
0010
1000
0000
1000
0100
0000
1000
0100
0000
,
2002
0000
0000
0000
,
0000
0000
0000
0000
0000
0000
0000
3003
,
2002
0000
0000
0000
0000
0000
0000
0000
0000
0000
0000
0000
3003
0000
0000
2000
0020
0000
0000
0000
0000
0000
3030
0000
,
0202
0000
0000
0000
0000
0000
0000
0000
0000
0000
0000
0303
2020
0000
0000
0000
0000
0000
0000
0000
0000
0000
0000
3030
,
2002
0000
0000
0000
0000
0000
0000
0000
0000
0000
0000
0000
0000
3003
0000
0200
0020
0000
0000
0000
0000
0000
0330
0000
,
2002
0000
0000
0000
0000
0000
0000
3003
,
2002
0000
0000
0000
0000
0000
0000
0000
0000
0000
0000
0000
3003
0000
0000
2000
0020
0000
0000
0000
0000
0000
3030
0000
,
0202
0000
0000
0000
0000
0000
0000
0000
0000
0000
0000
0303
2020
0000
0000
0000
0000
0000
0000
0000
0000
0000
0000
3030
,
1000
0100
0010
0100
1000
0001
0100
0010
,
0100
0001
1000
0100
0011
0000
0000
0000
,
1000
0010
0001
0100
1000
0100
0001
0010
,
1000
0010
0001
0100
1100
0000
0000
0000
,
1000
0100
0010
0001
1000
0010
0100
0010
,
1000
0100
0010
0100
1100
0000
0000
0000
,
1000
0100
0001
1000
0010
0001
0100
1000
,
0001
0010
1000
0100
0110
0000
0000
0000
,
1000
0100
0010
0001
1000
0010
0100
0001
,
1000
0100
0010
0100
2100
0000
0020
3030
,
1000
0100
1000
0010
0100
0001
0010
0001
,
0100
0010
1000
0100
0021
0001
0001
0031
,
0011
0010
0100
1000
1010
0010
0100
0001
,
0101
0000
0100
0000
0010
0000
1000
0000
1001
0000
1000
0100
0010
0001
0010
0100
,
1000
1000
0010
0010
0100
0001
0010
0100
,
1000
1000
0100
0100
0010
0001
0010
0100
,
2200
0000
0000
0010
,
0002
3300
0000
0000
0000
0000
0113
0000
,
2002
0000
0010
0000
,
0010
0000
0000
3003
,
0011
0010
0200
2000
,
0010
0000
0001
0000
,
0011
0000
0000
0000
0001
3300
0000
0000
,
1000
0000
0100
0000
0000
0000
1000
0010
0100
0000
0001
0000
0000
0000
1000
0000
,
2002
0000
0000
0000
,
0000
0000
0000
0000
,
0000
0000
0000
0000
,
0000
0000
0000
0000
0000
0000
0000
3003
,
1000
0000
0000
0000
0000
0000
0100
0000
0000
0000
0000
0000
0000
0000
0010
0000
0000
0000
0000
0000
0000
0000
0001
0000
0000
0000
0000
0000
0000
0000
1000
0000
0000
0000
0000
0000
0000
0001
0000
0000
0000
0000
0000
0000
1000
0000
0000
0000
,
0000
0000
0000
0000
0000
0000
0000
0000
0000
0000
0000
0000
0000
1001
0000
0000
0000
0000
0000
0000
0000
0000
0000
0000
0000
0000
0000
0000
0000
0000
0000
0000
0000
0000
0000
0000
0000
0000
0000
0000
0000
0000
0000
0000
0000
0000
0000
0000
;
