#TITLE:Minami Ikebukuro Hardcore Custom;
#SUBTITLE:;
#ARTIST:m1dy;
#TITLETRANSLIT:;
#SUBTITLETRANSLIT:;
#ARTISTTRANSLIT:;
#CREDIT:;
#BANNER:hccustom-bn.png;
#BACKGROUND:hccustom.png;
#LYRICSPATH:;
#CDTITLE:cdtitle.png;
#MUSIC:02.m1dy - Minami Ikebukuro Hardcore Custom.mp3;
#OFFSET:0.100;
#SAMPLESTART:108.646;
#SAMPLELENGTH:23.300;
#SELECTABLE:YES;
#BPMS:0.000=404.160,20.250=382.720,20.500=381.460,20.750=380.780,21.000=380.420,21.250=378.779,21.500=357.899,21.750=336.999,22.000=313.980,22.250=289.940,22.500=279.320,22.750=262.101,23.000=230.521,23.250=223.701,23.500=212.881,24.000=199.921,24.500=179.501,25.000=164.681,25.250=137.801,25.500=113.821,25.750=101.401,26.000=72.561,26.750=34.141,27.250=36.621,28.000=404.159,458.000=101.040,463.000=202.081,551.000=202.061,583.000=202.061,587.000=202.041,615.000=101.021,618.000=101.001,626.000=100.701,627.000=105.001,627.500=104.001,629.000=103.501,631.000=404.159,874.000=404.139,875.000=404.119,876.000=404.099;
#STOPS:215.500=0.594
,338.333=0.445
,397.000=0.445
,458.000=0.594
,630.125=0.080
,754.000=0.297
,813.000=0.445
;
#BGCHANGES:;
// cache tags:
#FIRSTBEAT:20.000;
#LASTBEAT:954.000;
#SONGFILENAME:Songs/new again/Minami Ikebukuro Hardcore Custom/MIHC.sm;
#HASMUSIC:1;
#HASBANNER:0;
#MUSICLENGTH:181.237;
// end cache tags

//---------------dance-single - ----------------
#NOTES:
     dance-single:
     :
     Hard:
     14:
     1.000,1.000,0.734,0.033,1.000,1661.000,133.000,6.000,0.000,0.000:
0000
0000
0000
0000
,
0000
0000
0000
0000
,
0000
0000
0000
0000
,
0000
0000
0000
0000
,
0000
0000
0000
0000
,
0001
0010
0100
1000
0001
0100
0010
1000
0001
0010
0100
1000
0001
0100
0010
1000
,
0001
0010
0100
1000
0001
0100
0010
1000
0001
0010
0100
1000
0100
0010
0000
0000
,
1000
0000
0001
0010
0000
0100
0010
0000
0001
1000
0000
0001
,
0100
0000
1000
0010
0000
0100
0001
0000
0010
0100
0000
1000
,
0010
0000
0100
0001
0000
0010
0100
0000
1000
0010
0000
0100
,
0001
0000
0010
0100
0000
0010
1000
0000
0100
0001
0000
0010
,
1000
0000
0010
0100
0000
0010
1000
0000
0100
0001
0000
0010
,
1000
0000
0100
0010
0000
1000
0001
0000
0010
0100
0000
0001
,
0010
0000
0100
1000
0000
0000
0100
0000
0000
0010
0000
0000
,
0001
0000
0100
0000
0010
0000
1000
0000
0000
0100
0000
0000
0001
0000
0000
0100
0000
0000
0010
0000
0000
1000
0000
0000
,
0001
0000
0100
0010
0000
0001
0100
0000
0010
1000
0000
0100
,
0001
0000
1000
0100
0000
0001
0010
0000
0100
1000
0000
0001
,
0010
0000
0100
1000
0000
0010
0001
0000
0100
1000
0000
0001
,
0010
0000
0100
1000
0000
0010
0100
0000
0001
0010
0000
1000
,
0100
0000
0001
0010
0000
1000
0001
0000
0010
0100
0000
1000
,
0010
0000
0001
1000
0000
0010
0100
0000
0001
0010
0000
1000
,
0001
0100
0010
1000
,
0100
0000
1000
0000
0100
0000
0010
0000
0000
0100
0000
0000
0001
0000
0000
1000
0000
0000
0100
0000
0000
0001
0000
0000
,
0010
0000
1000
0100
0000
0010
0001
0000
0100
0010
0000
1000
,
0100
0000
0001
1000
0000
0100
0010
0000
1000
0100
0000
0010
,
0001
0000
1000
0010
0000
0001
0100
0000
0010
1000
0000
0100
,
0001
0000
0010
0100
0000
1000
0010
0000
0001
1000
0000
0010
,
0100
0000
1000
0010
0000
0100
0001
0000
1000
0010
0000
0001
,
0100
0000
0010
1000
0000
0001
0010
0000
1000
0100
0000
0001
,
0010
0000
1000
0100
0000
0000
0001
0000
0000
0010
0000
0000
,
0100
0000
0001
0000
0010
0000
1000
0000
0000
0010
0000
0000
0100
0000
0000
0001
0000
0000
0010
0000
0000
0100
0000
0000
,
0001
0000
1000
0010
0000
0001
0100
0000
0010
0001
0000
0100
,
0010
0000
1000
0100
0000
0010
1000
0000
0010
0001
0000
1000
,
0100
0000
0001
0010
0000
0100
1000
0000
0001
0100
0000
1000
,
0010
0000
0100
0001
0000
1000
0100
0000
0001
0010
0000
0100
,
1000
0000
0001
0100
0000
1000
0010
0000
0100
0001
0000
0010
,
0100
0000
0001
0010
0000
0100
1000
0000
0001
0100
0000
1000
,
0010
0000
0000
0000
,
0000
0000
0000
0000
0000
0000
1000
0010
,
0101
0000
0000
0000
,
0000
0000
0000
0010
,
0110
0000
0000
0000
,
0000
0000
0000
0000
0000
0000
0000
0000
0001
0010
0100
1000
0001
0010
0100
1000
,
0001
0000
0000
0000
,
0000
0000
0000
0000
0000
0000
1000
0100
,
0011
0101
1010
0101
,
0100
0000
0010
0000
0001
0000
0100
0000
0000
0000
0000
0000
0001
0000
0010
0000
0100
0000
1000
0000
0000
0100
0000
0000
,
0010
0000
0000
0000
,
0000
0000
0000
1000
,
0110
0000
0000
0000
,
0000
0000
0000
0000
0000
0000
0000
0000
1000
0100
0010
0001
1000
0100
0010
0001
,
1000
0000
0000
0000
,
0000
0000
0000
0000
0000
0000
1000
0100
,
0010
0000
0100
0000
1000
0000
0001
0000
0100
0010
0100
0010
1000
0000
0100
0000
,
1000
0000
0100
0010
0000
1000
0100
0000
0010
0001
0000
0100
,
1000
0000
0001
0100
0000
1000
0010
0000
0001
0100
0000
0010
,
0001
0000
0100
0010
0000
1000
0100
0000
0010
1000
0000
0100
,
0001
0000
0010
0100
0000
1000
0010
0000
0001
1000
0000
0010
,
0100
0000
0001
0010
0000
1000
0100
0000
0010
0001
0000
0100
,
0010
0000
1000
0100
0000
0001
1000
0000
0100
0010
0000
0001
,
0100
0000
0000
0000
0010
0000
1000
0000
0000
0100
0000
0000
0010
0000
0000
0001
0000
0000
0100
0000
0000
1000
0000
0000
,
0001
0010
0100
1000
0001
0010
0100
1000
0001
0010
0100
1000
0001
0010
0100
1000
,
0001
0000
0100
0010
0000
0001
0100
0000
0010
0001
0000
0100
,
1000
0000
0001
0100
0000
1000
0010
0000
0001
0100
0000
0010
,
0001
0000
0100
0010
0000
0001
0100
0000
1000
0010
0000
0100
,
1000
0000
0001
0010
0000
1000
0100
0000
0010
0001
0000
0100
,
1000
0000
0001
0100
0000
1000
0010
0000
0100
0001
0000
0010
,
0100
0000
0001
0010
0000
0100
1000
0000
0001
0100
0000
1000
,
0010
0001
0010
0100
,
1000
0000
0010
0000
0100
0000
0001
0000
0000
0010
0000
0000
0100
0000
0000
1000
0000
0000
0010
0000
0000
0100
0000
0000
,
0001
0000
0010
0100
0000
1000
0010
0000
0001
0100
0000
0010
,
0001
0000
0010
0100
0000
1000
0010
0000
0001
0100
0000
0010
,
1000
0000
0100
0010
0000
1000
0100
0000
0010
0001
0000
1000
,
0100
0000
0001
0010
0000
1000
0100
0000
0010
1000
0000
0100
,
0001
0000
0010
0100
0000
0001
0010
0000
0100
1000
0000
0010
,
0001
0000
0010
0100
0000
1000
0010
0000
0001
0100
0000
0010
,
1000
0100
0010
0001
0100
0010
0100
0010
,
1000
0100
0010
0001
1000
0100
0010
0001
1000
0010
0100
0001
1000
0010
0100
0001
,
1000
0000
0010
0100
0000
0001
0010
0000
0100
1000
0000
0010
,
0100
0000
1000
0010
0000
0100
0001
0000
1000
0010
0000
0001
,
0100
0000
0001
0010
0000
1000
0100
0000
0010
1000
0000
0100
,
0010
0000
0001
0100
0000
0010
0001
0000
0100
0010
0000
0001
,
0100
0000
0010
1000
0000
0001
0100
0000
1000
0010
0000
0100
,
0001
0000
0010
0100
0000
0001
0010
0000
0100
1000
0000
0010
,
0100
0000
0000
0000
0000
0000
0000
0000
1000
0000
0000
0000
0010
0000
0000
0000
0000
0000
0000
0000
0100
0000
0000
0000
0001
0000
0000
0000
0000
0000
0000
0000
0000
0000
0000
0000
1000
0000
0000
0100
0000
0000
0010
0000
0000
0001
0000
0000
,
1000
0000
0000
0010
0000
0000
0100
0000
0000
0001
0000
0000
1000
0000
0000
0000
0000
0000
0000
0000
0010
0000
0000
0000
0100
0000
0000
0000
0000
0000
0000
0000
1000
0000
0000
0000
0010
0000
0000
0000
0000
0000
0000
0000
0001
0000
0000
0000
,
0100
0000
0010
0001
0000
1000
0100
0000
0001
0010
0000
0001
,
0100
0000
0010
1000
0000
0100
0010
0000
0001
0100
0000
0010
,
0001
0000
1000
0100
0000
0001
0010
0000
0001
1000
0000
0001
,
0100
0000
1000
0010
0000
0100
0001
0000
1000
0010
0000
0001
,
0100
0000
0010
1000
0000
0100
0010
0000
0001
0100
0000
0010
,
0001
0000
1000
0100
0000
0001
0010
0000
0100
1000
0000
0001
,
0010
0000
0000
0000
1000
0000
0100
0000
0010
0000
0100
0000
1000
0000
0000
0010
0000
0000
0100
0000
0000
0010
0000
0000
,
1000
0000
0000
0001
0000
0000
0010
0000
0000
0000
0100
0000
0001
0000
0000
0000
0010
0000
0100
0000
0000
0000
0001
0000
,
0010
0000
1000
0100
0000
0010
1000
0000
0100
0010
0000
0001
,
0100
0000
0010
0001
0000
1000
0100
0000
0001
0010
0000
0100
,
1000
0000
0001
0100
0000
0001
0010
0000
0100
0001
0000
1000
,
0100
0000
0001
0010
0000
0001
0100
0000
0001
1000
0000
0010
,
0001
0000
1000
0100
0000
0001
0010
0000
0001
0100
0000
0010
,
1000
0000
0000
0000
0000
0000
0000
0000
1000
0100
0010
0001
1000
0010
0100
0001
,
1000
0000
0000
0100
0000
0000
0010
0000
0000
0001
0000
0000
1000
0000
0000
0010
0000
0000
0100
0000
0000
0001
0000
0000
1000
0000
0000
0000
0000
0000
0000
0000
0010
0000
0000
0000
0100
0000
0000
0000
0000
0000
0000
0000
0001
0000
0000
0000
,
0010
0000
1000
0100
0000
0010
0001
0000
1000
0010
0000
0001
,
0100
0000
0010
0001
0000
0100
1000
0000
0010
0100
0000
0001
,
0010
0000
1000
0001
0000
0010
0100
0000
0001
0010
0000
0100
,
1000
0000
0001
0010
0000
1000
0100
0000
1000
0001
0000
0010
,
0100
0000
0001
0010
0000
0001
0100
0000
0010
0001
0000
0100
,
1000
0000
0001
0010
0000
1000
0100
0000
1000
0001
0000
0010
,
0100
0000
0000
0000
0001
0000
0010
0000
0000
0000
0100
0000
1000
0000
0001
0000
0100
0000
0010
0000
0000
1000
0000
0000
,
0001
0000
0000
0010
0000
0000
0100
0000
0000
0001
0000
0000
1000
0000
0000
0000
0100
0000
0010
0000
0000
0000
0001
0000
,
0100
0000
0010
0001
0000
0100
1000
0000
0010
0100
0000
0001
,
0010
0000
1000
0100
0000
0010
0001
0000
1000
0100
0000
0001
,
0010
0000
0001
0100
0000
0010
0001
0000
0100
1000
0000
0001
,
0010
0000
1000
0100
0000
0001
0010
0000
1000
0001
0000
0100
,
0010
0000
0001
0100
0000
0010
1000
0000
0100
0001
0000
0010
,
0100
0000
0001
0010
0000
0100
1000
0000
0000
0200
0000
0000
,
0000
0000
2300
0000
3020
0000
0130
0010
,
0101
0010
1100
0001
1010
0100
1001
0010
,
0011
0100
1100
0001
0110
1000
0020
0000
,
0000
0000
0000
0230
,
0000
0000
2300
0000
0000
0000
3010
1000
,
0101
0010
1100
0010
0011
0100
0011
1000
,
1100
0010
1001
0110
0101
0110
1010
0100
,
0011
0100
1010
0100
0011
0001
0101
0100
,
0110
1000
0011
0100
1010
0001
0110
1000
,
0011
0100
1001
1000
0110
0010
1100
0100
,
0011
0100
1100
0010
0110
0011
1001
0100
,
0110
0001
1100
0010
0101
1000
1100
0010
,
0101
1000
1100
0010
0101
0100
1100
0010
,
0101
1000
1010
0100
0011
0010
1100
0110
,
0110
0000
0001
0010
1100
0000
0110
0000
0001
0010
0100
1000
0011
0000
0100
0000
,
1001
0100
0011
0100
1010
0001
0011
0100
,
1010
0010
0101
1000
1100
0010
0011
0100
,
1010
0100
0011
0010
1100
0010
0011
0100
,
1010
0100
0011
0100
1100
0011
0101
0010
,
0110
1000
0011
0010
0101
1000
1100
0010
,
0101
0100
0011
1000
1100
0010
0101
1000
,
0110
0010
0011
1000
0101
0100
0110
1000
,
0011
0000
0100
0010
1001
0000
0101
0000
1000
0100
0010
0001
1100
0000
0100
0000
,
0011
0010
1010
0100
0011
1000
0011
0100
,
1100
0001
1100
0010
1001
0100
0011
0010
,
0110
0100
1100
0010
0101
1000
0110
0001
,
1100
0100
0110
0001
1100
0110
0011
0010
,
1100
0010
0110
1000
0011
0100
1010
0010
,
0011
0001
0101
0100
0110
0001
1100
0010
,
0101
0000
1000
0000
0110
0000
0001
0000
1100
0000
0100
0000
0011
0000
0010
0001
,
0010
0000
0100
0010
0100
0000
1000
0000
0001
0010
0100
1000
1001
0000
0000
0000
,
0000
0000
0000
0010
,
0000
0100
0000
0001
,
0000
0000
0000
0000
,
0000
0000
0000
0010
,
0000
0000
0000
1000
,
0000
0010
0000
0100
,
0000
0000
0000
0000
,
0000
0000
0000
0001
,
0000
0010
0100
0001
,
0000
0000
0000
0010
,
0000
0000
0000
0000
0000
0000
0000
0000
0100
0000
0000
0000
0000
0000
0000
0000
0010
0000
0000
0000
0000
0000
0000
0000
0100
0010
0100
0010
0100
0010
0100
0010
,
0100
0000
0000
0000
0000
0000
0010
0000
0000
0000
0000
0000
0100
0000
0000
0000
0000
0000
0010
0000
0000
0000
0000
0000
0100
0000
0000
0000
0000
0000
0010
0000
0000
0000
0000
0000
0100
0000
0000
0000
0000
0000
0010
0000
0000
0000
0000
0000
0100
0000
0000
0000
0000
0000
0010
0000
0000
0000
0000
0000
0100
0000
0000
0000
0000
0000
0010
0000
0000
0000
0000
0000
0100
0000
0000
0000
0000
0000
0010
0000
0000
0000
0000
0000
0100
0000
0000
0000
0000
0000
0010
0000
0000
0000
0000
0000
0100
0000
0000
0000
0000
0000
0010
0000
0000
0000
0000
0000
0000
0000
0000
0000
0000
0000
0000
0000
0000
0000
0000
0000
0000
0000
0000
0000
0000
0000
0000
0000
0000
0000
0000
0000
0000
0000
0000
0000
0000
0000
0000
0000
0000
0000
0000
0000
1000
0000
0000
0000
0000
0000
0000
0000
0000
0000
0000
0000
0000
0000
0000
0000
0000
0000
0000
0000
0000
0000
0000
0000
0000
0000
0000
0000
0000
0000
0000
0000
0010
0000
0000
0000
0000
0000
0000
0000
0000
0000
0000
0000
0000
0000
0000
0000
,
0001
0000
1000
0100
0000
0001
0010
0000
0100
1000
0000
0010
,
0100
0000
0001
0010
0000
1000
0100
0000
0001
0010
0000
0100
,
0001
0000
0010
0100
0000
0001
0010
0000
0100
1000
0000
0001
,
0100
0000
1000
0010
0000
0100
0001
0000
1000
0100
0000
0001
,
0010
0000
0100
1000
0000
0001
0100
0000
0001
0010
0000
1000
,
0100
0000
0010
0001
0000
1000
0100
0000
0001
0010
0000
0100
,
1000
0000
0100
0000
0010
0000
0001
0000
1000
0000
0010
0000
0001
0010
0100
1000
,
0001
0000
0000
0010
0000
0000
0100
0000
0000
1000
0000
0000
0001
0000
0000
0100
0000
0000
0010
0000
0000
1000
0000
0000
0001
0000
0000
0100
0000
0000
0010
0000
0000
1000
0000
0000
0001
0000
0000
0000
0000
0000
0000
0000
0010
0000
0000
0000
,
0100
0000
0001
0010
0000
0100
1000
0000
0010
0001
0000
1000
,
0100
0000
0001
0010
0000
0100
1000
0000
0100
0001
0000
1000
,
0100
0000
0001
0010
0000
0001
1000
0000
0010
0001
0000
0100
,
0010
0000
1000
0001
0000
1000
0100
0000
0010
0001
0000
0100
,
1000
0000
0010
0001
0000
1000
0010
0000
0001
0100
0000
0010
,
1000
0000
0001
0010
0000
1000
0100
0000
0010
0001
0000
0100
,
0010
0000
0000
0100
0000
0000
1000
0000
0000
0001
0010
0100
,
1000
0000
0000
0100
0000
0000
0010
0000
0000
0001
0000
0000
1000
0000
0000
0010
0000
0000
0100
0000
0000
0000
0010
0000
,
0001
0000
0100
0010
0000
0001
1000
0000
0010
0100
0000
0001
,
0010
0000
1000
0001
0000
0010
0100
0000
1000
0010
0000
0001
,
0100
0000
0010
0001
0000
0100
1000
0000
0001
0010
0000
0100
,
1000
0000
0001
0100
0000
0010
1000
0000
0100
0010
0000
1000
,
0100
0000
0010
0001
0000
1000
0010
0000
0001
0100
0000
0010
,
1000
0000
0000
0000
0100
0000
0010
0000
0000
0000
1000
0000
0100
0000
0000
0000
0010
0000
0001
0000
0000
0010
0000
0000
,
0100
0000
1000
0000
0001
0000
0100
0000
0010
0000
1000
0000
0001
0010
0100
1000
,
0001
0000
0000
0010
0000
0000
0100
0000
0000
1000
0000
0000
0001
0000
0000
0100
0000
0000
0010
0000
0000
1000
0000
0000
0001
0000
0000
0100
0000
0000
0010
0000
0000
1000
0000
0000
0001
0000
0000
0000
0000
0000
0000
0000
0010
0000
0000
0000
,
0100
0000
0001
1000
0000
0100
0010
0000
0001
0100
0000
1000
,
0001
0000
0010
0100
0000
0001
0010
0000
0001
0100
0000
0010
,
1000
0000
0100
0010
0000
1000
0100
0000
0010
0001
0000
1000
,
0010
0000
0001
0100
0000
0010
1000
0000
0001
0010
0000
1000
,
0100
0000
0010
0001
0000
1000
0010
0000
0001
0100
0000
0010
,
1000
0000
0001
0010
0000
1000
0100
0000
0010
0001
0000
0100
,
0010
0000
0000
0000
0000
0000
0000
0000
1000
0000
0000
0000
0100
0000
0000
0000
0000
0000
0000
0000
0000
0000
0000
0000
0000
0000
0000
0000
0000
0000
0000
0000
0000
0000
0000
0000
0001
0000
0000
0010
0000
0000
0100
0000
0000
1000
0000
0000
,
0001
0000
0000
0100
0000
0000
0010
0000
0000
1000
0000
0000
0001
0000
0000
0000
0000
0000
0000
0000
0100
0000
0000
0000
0010
0000
0000
0000
0000
0000
0000
0000
0001
0000
0000
0000
0100
0000
0000
0000
0000
0000
0000
0000
0010
0000
0000
0000
,
0001
0000
0100
1000
0000
0010
0100
0000
0001
0010
0000
1000
,
0100
0000
0010
0001
0000
1000
0010
0000
0001
0100
0000
0010
,
1000
0000
0100
0001
0000
1000
0100
0000
0001
0010
0000
0100
,
1000
0000
0001
0100
0000
0001
0010
0000
1000
0100
0000
0010
,
0001
0000
0010
0100
0000
1000
0010
0000
0001
0100
0000
0010
,
0001
0000
0010
1000
0000
0001
0100
0000
0001
0010
0000
0100
,
0001
0000
0000
0000
0100
0000
1000
0000
0100
0000
0010
0000
0001
0000
0000
0100
0000
0000
0010
0000
0000
1000
0000
0000
,
0001
0000
0000
0010
0000
0000
0100
0000
0000
0000
0010
0000
1000
0000
0000
0000
0001
0000
0010
0000
0000
0000
1000
0000
,
0100
0000
0010
0001
0000
0100
1000
0000
0001
0100
0000
0001
,
0010
0000
1000
0001
0000
0010
0100
0000
1000
0010
0000
0100
,
1000
0000
0010
0001
0000
1000
0010
0000
0001
0100
0000
0010
,
1000
0000
0100
0010
0000
1000
0100
0000
0010
0001
0000
1000
,
0100
0000
0001
0010
0000
0001
1000
0000
0010
0100
0000
0001
,
0010
0000
0000
0000
0000
0000
0000
0000
1000
0100
0010
0001
1000
0010
0100
0001
,
1000
0000
0000
0100
0000
0000
0010
0000
0000
0001
0000
0000
1000
0000
0000
0010
0000
0000
0100
0000
0000
0001
0000
0000
1000
0000
0000
0000
0000
0000
0000
0000
0100
0000
0000
0000
0010
0000
0000
0000
0000
0000
0000
0000
0001
0000
0000
0000
,
0100
0000
0010
0001
0000
0100
1000
0000
0001
0100
0000
0001
,
0010
0000
0100
0001
0000
1000
0010
0000
0001
0100
0000
0010
,
1000
0000
0100
0010
0000
0001
0100
0000
0010
0001
0000
1000
,
0100
0000
0001
0010
0000
0100
1000
0000
0010
0001
0000
1000
,
0010
0000
0001
0100
0000
0010
1000
0000
0001
0010
0000
1000
,
0100
0000
0010
0001
0000
0100
1000
0000
0001
0100
0000
1000
,
0010
0000
0000
0000
0100
0000
0001
0000
0000
0000
0100
0000
1000
0000
0100
0000
0010
0000
0001
0000
0000
0010
0000
0000
,
0100
0000
0000
1000
0000
0000
0001
0000
0000
0100
0000
0000
0010
0000
0000
0000
0100
0000
0001
0000
0000
0000
1000
0000
,
0010
0000
0001
0100
0000
0010
1000
0000
0100
0001
0000
1000
,
0100
0000
0001
0010
0000
0100
1000
0000
0010
0100
0000
0001
,
0010
0000
0100
0001
0000
0010
0100
0000
0001
0010
0000
0100
,
1000
0000
0001
0010
0000
0001
0100
0000
1000
0001
0000
0010
,
0100
0000
1000
0010
0000
0001
1000
0000
0100
0010
0000
1000
,
0100
0000
0010
0001
0000
1000
0100
0000
0000
0000
0000
0000
,
0000
0000
0000
0000
,
0000
0000
0110
0000
,
0000
0000
0000
0000
,
0000
1000
1100
0000
,
0000
0000
0000
0000
,
1000
0100
0010
0001
1000
0010
0100
0001
1000
0000
0000
0000
0000
0000
0000
0000
,
0000
0000
0000
0000
,
0000
0000
1000
0100
0011
0000
1010
0000
,
0101
0000
0000
0011
0000
0000
1000
0010
0100
0001
0000
0000
,
0001
0000
0010
0000
0100
0000
1000
0000
0000
0010
0000
0000
0100
0000
0000
0000
0000
0000
0000
0000
0000
0000
0000
0000
,
0000
0000
0000
0000
,
0000
1000
1100
0000
,
0000
0000
0000
0000
,
0001
0010
0100
1000
0001
0100
0010
1000
0001
0000
0000
0000
0000
0000
0000
0000
,
0000
0000
0000
0000
,
0000
0000
1000
0100
0011
0000
1010
0000
,
0101
0011
0000
0000
,
0000
0000
0000
0000
,
0000
0000
0000
0000
,
0000
0000
1001
0000
;

//---------------dance-single - Copied from----------------
#NOTES:
     dance-single:
     Copied from:
     Challenge:
     21:
     1.000,1.000,1.000,0.033,1.000,2280.000,576.000,6.000,0.000,1.000:
0000
0000
0000
0000
,
0000
0000
0000
0000
,
0000
0000
0000
0000
,
0000
0000
0000
0000
,
0000
0000
0000
0000
,
1000
0001
1000
0001
1000
0001
1000
0001
1000
0001
1000
0001
1000
0001
1000
0001
,
1000
0001
1000
0001
1000
0001
1000
0001
1000
0001
1000
0001
1000
0001
0000
0000
,
1100
0000
0001
1010
0000
0100
1010
0000
0001
1010
0000
0001
,
0110
0000
1000
0011
0000
0100
1001
0000
0010
0101
0000
1000
,
0011
0000
0100
1001
0000
0010
0101
0000
1000
0011
0000
0100
,
1001
0000
0010
1100
0000
0010
1001
0000
0100
0011
0000
0010
,
1001
0000
0010
1100
0000
0010
1001
0000
0100
1001
0000
0010
,
1001
0000
0100
0011
0000
1000
0101
0000
0010
1100
0000
0001
,
1010
0000
0100
1010
0000
0000
0101
0000
0000
1010
0000
0000
,
0001
0000
0100
0000
0010
0000
1000
0000
0000
0100
0000
0000
0001
0000
0000
0100
0000
0000
0010
0000
0000
1000
0000
0000
,
0011
0000
0100
1010
0000
0001
1100
0000
0010
1001
0000
0100
,
0011
0000
1000
0110
0000
0001
1010
0000
0100
1001
0000
0001
,
1010
0000
0100
1001
0000
0010
0101
0000
0100
1010
0000
0001
,
0110
0000
0100
1001
0000
0010
1100
0000
0001
0110
0000
1000
,
0110
0000
0001
0110
0000
1000
0101
0000
0010
0101
0000
1000
,
0110
0000
0001
1100
0000
0010
1100
0000
0001
0110
0000
1000
,
0011
0101
0011
1100
,
0100
0000
1000
0000
0100
0000
0010
0000
0000
0100
0000
0000
0001
0000
0000
1000
0000
0000
0100
0000
0000
0001
0000
0000
,
0110
0000
1000
0101
0000
0010
1001
0000
0100
0011
0000
1000
,
0110
0000
0001
1010
0000
0100
0011
0000
1000
0101
0000
0010
,
0101
0000
1000
0110
0000
0001
1100
0000
0010
1001
0000
0100
,
0011
0000
0010
1100
0000
1000
0011
0000
0001
1100
0000
0010
,
0101
0000
1000
0011
0000
0100
0011
0000
1000
0110
0000
0001
,
1100
0000
0010
1100
0000
0001
0110
0000
1000
0110
0000
0001
,
1010
0000
0001
0110
0000
0000
1001
0000
0000
0110
0000
0000
,
0100
0000
0001
0000
0010
0000
1000
0000
0000
0010
0000
0000
0100
0000
0000
0001
0000
0000
0010
0000
0000
0100
0000
0000
,
0011
0000
1000
0110
0000
0001
1100
0000
0010
1001
0000
0100
,
0011
0000
1000
0101
0000
0010
1100
0000
0010
0101
0000
1000
,
0110
0000
0001
1010
0000
0100
1010
0000
0001
0110
0000
1000
,
0011
0000
0100
0011
0000
1000
0110
0000
0001
1010
0000
0100
,
1010
0000
0001
0110
0000
1000
0011
0000
0100
1001
0000
0010
,
1100
0000
0001
1010
0000
0100
1010
0000
0001
0110
0000
1000
,
0011
0000
0000
0000
,
0000
0000
0000
0000
0000
0000
1000
0010
,
0101
0000
0000
0000
,
0000
0000
0000
0010
,
0110
0000
0000
0000
,
0000
0000
0000
0000
0000
0000
0000
0000
0001
0010
0100
1000
0001
0010
0100
1000
,
0011
0000
0000
0000
,
0000
0000
0000
0000
0000
0000
1000
0100
,
0011
0101
1010
0101
,
0100
0000
0010
0000
0001
0000
0100
0000
0000
0000
0000
0000
0001
0000
0010
0000
0100
0000
1000
0000
0000
0100
0000
0000
,
0011
0000
0000
0000
,
0000
0000
0000
1000
,
0110
0000
0000
0000
,
0000
0000
0000
0000
0000
0000
0000
0000
1000
0100
0010
0001
1000
0100
0010
0001
,
1100
0000
0000
0000
,
0000
0000
0000
0000
0000
0000
1000
0100
,
0010
0000
0100
0000
1000
0000
0001
0000
0100
0010
0100
0010
1000
0000
0100
0000
,
1001
0000
0100
0011
0000
1000
0101
0000
0010
1001
0000
0100
,
1010
0000
0001
0110
0000
1000
0110
0000
0001
1100
0000
0010
,
1001
0000
0100
0011
0000
1000
0101
0000
0010
1001
0000
0100
,
1001
0000
0010
0101
0000
1000
0110
0000
0001
1100
0000
0010
,
1100
0000
0001
0110
0000
1000
0101
0000
0010
1001
0000
0100
,
0011
0000
1000
0110
0000
0001
1010
0000
0100
1010
0000
0001
,
1100
0000
0000
0000
0010
0000
1001
0000
0000
0100
0000
0000
0010
0000
0000
0001
0000
0000
0100
0000
0000
1000
0000
0000
,
0001
0010
0100
1000
0001
0010
0100
1000
0001
0010
0100
1000
0001
0010
0100
1000
,
0011
0000
0100
1010
0000
0001
1100
0000
0010
1001
0000
0100
,
1010
0000
0001
0110
0000
1000
0110
0000
0001
1100
0000
0010
,
1001
0000
0100
1010
0000
0001
0110
0000
1000
0011
0000
0100
,
1010
0000
0001
0110
0000
1000
0101
0000
0010
1001
0000
0100
,
1010
0000
0001
0110
0000
1000
0011
0000
0100
1001
0000
0010
,
1100
0000
0001
1010
0000
0100
1010
0000
0001
0110
0000
1000
,
0011
0101
1010
0101
,
1000
0000
0010
0000
0100
0000
0001
0000
0000
0010
0000
0000
0100
0000
0000
1000
0000
0000
0010
0000
0000
0100
0000
0000
,
1001
0000
0010
0101
0000
1000
0110
0000
0001
1100
0000
0010
,
1001
0000
0010
0101
0000
1000
0110
0000
0001
1100
0000
0010
,
1001
0000
0100
0011
0000
1000
0101
0000
0010
0101
0000
1000
,
0110
0000
0001
0110
0000
1000
0101
0000
0010
1001
0000
0100
,
1001
0000
0010
1100
0000
0001
1010
0000
0100
1001
0000
0010
,
0101
0000
0010
0101
0000
1000
0110
0000
0001
1100
0000
0010
,
1001
0100
0010
0001
0100
0010
0100
0010
,
1000
0100
0010
0001
1000
0100
0010
0001
1000
0010
0100
0001
1000
0100
0010
0001
,
1100
0000
0010
1100
0000
0001
1010
0000
0100
1001
0000
0010
,
0101
0000
1000
0011
0000
0100
0011
0000
1000
0110
0000
0001
,
0110
0000
0001
0110
0000
1000
0101
0000
0010
1001
0000
0100
,
1010
0000
0001
1100
0000
0010
1001
0000
0100
1010
0000
0001
,
1100
0000
0010
1100
0000
0001
0110
0000
1000
0011
0000
0100
,
1001
0000
0010
1100
0000
0001
1010
0000
0100
1001
0000
0010
,
0101
0000
0000
0000
0000
0000
0000
0000
1000
0000
0000
0000
0011
0000
0000
0000
0000
0000
0000
0000
0100
0000
0000
0000
1001
0000
0000
0000
0000
0000
0000
0000
0000
0000
0000
0000
1000
0000
0000
0100
0000
0000
0010
0000
0000
0001
0000
0000
,
1000
0000
0000
0100
0000
0000
0010
0000
0000
0001
0000
0000
1100
0000
0000
0000
0000
0000
0000
0000
0010
0000
0000
0000
0101
0000
0000
0000
0000
0000
0000
0000
1000
0000
0000
0000
0110
0000
0000
0000
0000
0000
0000
0000
0001
0000
0000
0000
,
1100
0000
0010
0101
0000
1000
0110
0000
0001
1010
0000
0001
,
1100
0000
0010
1001
0000
0100
1010
0000
0001
1100
0000
0010
,
0101
0000
1000
0110
0000
0001
0110
0000
0001
1010
0000
0001
,
0110
0000
1000
0011
0000
0100
0011
0000
1000
0110
0000
0001
,
1100
0000
0010
1001
0000
0100
1010
0000
0001
1100
0000
0010
,
0101
0000
1000
0110
0000
0001
1010
0000
0100
1010
0000
0001
,
0110
0000
0000
0000
1000
0000
0100
0000
0010
0000
0100
0000
1000
0000
0000
0010
0000
0000
0100
0000
0000
0010
0000
0000
,
1000
0000
0000
0001
0000
0000
1010
0000
0000
0000
0100
0000
1001
0000
0000
0000
0010
0000
1100
0000
0000
0000
0001
0000
,
0110
0000
1000
0101
0000
0010
1001
0000
0100
1010
0000
0001
,
1100
0000
0010
0101
0000
1000
0110
0000
0001
1010
0000
0100
,
1010
0000
0001
0110
0000
0001
1010
0000
0100
0011
0000
1000
,
0110
0000
0001
1010
0000
0001
1100
0000
0001
1100
0000
0010
,
0101
0000
1000
0110
0000
0001
1010
0000
0001
1100
0000
0010
,
1001
0000
0000
0000
0000
0000
0000
0000
1000
0100
0010
0001
1000
0010
0100
0001
,
1000
0000
0000
0100
0000
0000
0010
0000
0000
0001
0000
0000
1000
0000
0000
0100
0000
0000
0010
0000
0000
0001
0000
0000
1100
0000
0000
0000
0000
0000
0000
0000
0010
0000
0000
0000
1100
0000
0000
0000
0000
0000
0000
0000
0001
0000
0000
0000
,
0110
0000
1000
0101
0000
0010
0101
0000
1000
0110
0000
0001
,
1100
0000
0010
1001
0000
0100
1001
0000
0010
1100
0000
0001
,
0110
0000
1000
0101
0000
0010
1100
0000
0001
1010
0000
0100
,
1010
0000
0001
0110
0000
1000
0110
0000
1000
0101
0000
0010
,
1100
0000
0001
1010
0000
0001
1100
0000
0010
1001
0000
0100
,
1010
0000
0001
0110
0000
1000
0110
0000
1000
0101
0000
0010
,
1100
0000
0000
0000
0001
0000
1010
0000
0000
0000
0100
0000
1000
0000
0001
0000
0100
0000
0010
0000
0000
1000
0000
0000
,
0001
0000
0000
0010
0000
0000
0100
0000
0000
0001
0000
0000
1010
0000
0000
0000
0100
0000
1010
0000
0000
0000
0001
0000
,
1100
0000
0010
1001
0000
0100
1001
0000
0010
1100
0000
0001
,
0110
0000
1000
0101
0000
0010
0101
0000
1000
0110
0000
0001
,
1010
0000
0001
1100
0000
0010
1001
0000
0100
1010
0000
0001
,
0110
0000
1000
0110
0000
0001
0110
0000
1000
0011
0000
0100
,
1010
0000
0001
1100
0000
0010
1001
0000
0100
1001
0000
0010
,
1100
0000
0001
1010
0000
0100
1001
0000
0000
0200
0000
0000
,
0000
0000
0000
0000
2300
0000
0000
0000
3020
0000
0000
0000
0130
0001
0010
1000
,
0101
0000
0010
0001
1100
0000
0001
0100
1010
0001
0100
0000
1001
0100
0010
0100
,
0011
0000
0100
0010
1100
0000
0001
1000
0110
0001
1000
0000
0020
0100
0000
0100
,
0000
0000
0100
0000
0000
0000
0100
0000
0100
0100
0000
0000
0231
0001
0000
0001
,
0000
0000
0001
0000
2300
0000
0010
0000
0010
0010
0000
0000
3010
0001
1000
0010
,
0101
0000
0010
0001
1100
0000
0010
0100
0011
1000
0100
0000
0011
0100
1000
0010
,
1100
0000
0000
0000
0010
0000
0101
0000
1001
0000
0000
0000
0110
0000
0000
0000
0101
0000
0000
0000
0110
0000
0000
0000
0001
0000
0001
0010
0001
0010
0001
0010
,
0001
0010
0001
0010
0001
0010
0001
0010
0001
0010
0001
0010
0001
0010
0001
0010
0001
0010
0001
0010
0001
0010
0001
0010
1000
0000
1000
0100
1000
0100
1000
0100
,
1000
0100
1000
0100
1000
0100
1000
0100
0010
0000
0010
0100
0010
0100
0010
0100
0010
0100
0010
0100
0010
0100
0010
0100
0001
0000
0001
1000
0001
1000
0001
1000
,
0001
1000
0001
1000
0001
1000
0001
1000
0001
1000
0001
1000
0001
1000
0001
1000
0001
1000
0001
1000
0001
1000
0001
1000
0001
1000
0001
1000
0001
1000
0001
1000
,
0001
1000
0001
1000
0001
1000
0001
1000
0001
1000
0001
1000
0001
1000
0001
1000
0001
1000
0001
1000
0001
1000
0001
1000
0100
0000
0100
0010
0100
0010
0100
0010
,
0100
0010
0100
0010
0100
0010
0100
0010
0100
0010
0100
0010
0100
0010
0100
0010
0100
0010
0100
0010
0100
0010
0100
0010
0001
0000
0001
1000
0001
1000
0001
1000
,
0001
1000
0001
1000
0001
1000
0001
1000
0010
0000
0010
1000
0010
1000
0010
1000
0010
1000
0010
1000
0010
1000
0010
1000
0100
0000
0100
0001
0100
0001
0100
0001
,
0100
0001
0100
0001
0100
0001
0100
0001
0100
0001
0100
0001
0100
0001
0100
0001
0100
0001
0100
0001
0100
0001
0100
0001
0100
0001
0100
0001
0100
0001
0100
0001
,
0100
0001
0100
0001
0100
0001
0100
0001
0100
0001
0100
0001
0100
0001
0100
0001
0100
0001
0100
0001
0100
0001
0100
0001
1000
0000
1000
0010
1000
0010
1000
0010
,
1000
0010
1000
0010
1000
0010
1000
0010
1000
0010
1000
0010
1000
0010
1000
0010
1000
0010
1000
0010
1000
0010
1000
0010
0100
0000
0100
0010
0100
0010
0100
0010
,
0100
0010
0100
0010
0100
0010
0100
0010
0001
0000
0001
1000
0001
1000
0001
1000
0001
1000
0001
1000
0001
1000
0001
1000
0010
0000
0010
0100
0010
0100
0010
0100
,
0010
0100
0010
0100
0010
0100
0010
0100
0010
0100
0010
0100
0010
0100
0010
0100
0010
0100
0010
0100
0010
0100
0010
0100
0010
0100
0010
0100
0010
0100
0010
0100
,
0010
0100
0010
0100
0010
0100
0010
0100
0010
0100
0010
0100
0010
0100
0010
0100
0010
0100
0010
0100
0010
0100
0010
0100
1000
0000
1000
0001
1000
0001
1000
0001
,
1000
0001
1000
0001
1000
0001
1000
0001
1000
0001
1000
0001
1000
0001
1000
0001
1000
0001
1000
0001
1000
0001
1000
0001
0100
0000
0100
0010
0100
0010
0100
0010
,
0100
0010
0100
0010
0100
0010
0100
0010
1000
0000
1000
0001
1000
0001
1000
0001
1000
0001
1000
0001
1000
0001
1000
0001
0010
0000
0010
1000
0010
1000
0010
1000
,
0010
1000
0010
1000
0010
1000
0010
1000
0010
1000
0010
1000
0010
1000
0010
1000
0010
1000
0010
1000
0010
1000
0010
1000
0010
1000
0010
1000
0010
1000
0010
1000
,
0010
1000
0010
1000
0010
1000
0010
1000
0010
1000
0010
1000
0010
1000
0010
1000
0010
1000
0010
1000
0010
1000
0010
1000
0100
0000
0100
0010
0100
0010
0100
0010
,
0100
0010
0100
0010
0100
0010
0100
0010
0100
0010
0100
0010
0100
0010
0100
0010
0100
0010
0100
0010
0100
0010
0100
0010
0100
0000
0100
0001
0100
0001
0100
0001
,
0100
0001
0100
0001
0100
0001
0100
0001
0010
0000
0010
0100
0010
0100
0010
0100
0010
0100
0010
0100
0010
0100
0010
0100
0010
0000
0010
1000
0010
1000
0010
1000
,
0010
1000
0010
1000
0010
1000
0010
1000
0010
1000
0010
1000
0010
1000
0010
1000
0010
1000
0010
1000
0010
1000
0010
1000
0010
1000
0010
1000
0010
1000
0010
1000
,
0010
1000
0010
1000
0010
1000
0010
1000
0010
1000
0010
1000
0010
1000
0010
1000
0010
1000
0010
1000
0010
1000
0010
1000
0100
0000
0100
0001
0100
0001
0100
0001
,
0100
0001
0100
0001
0100
0001
0100
0001
0100
0001
0100
0001
0100
0001
0100
0001
0100
0001
0100
0001
0100
0001
0100
0001
0010
0000
0010
0100
0010
0100
0010
0100
,
0010
0100
0010
0100
0010
0100
0010
0100
1000
0000
1000
0100
1000
0100
1000
0100
1000
0100
1000
0100
1000
0100
1000
0100
0001
0000
0001
0010
0001
0010
0001
0010
,
0001
0010
0001
0010
0001
0010
0001
0010
0001
0010
0001
0010
0001
0010
0001
0010
0001
0010
0001
0010
0001
0010
0001
0010
0001
0010
0001
0010
0001
0010
0001
0010
,
0001
0010
0001
0010
0001
0010
0001
0010
0001
0010
0001
0010
0001
0010
0001
0010
0001
0010
0001
0010
0001
0010
0001
0010
1100
0000
0000
0000
0000
0000
0000
0000
,
0000
0000
0000
0010
,
0000
0100
0000
0001
,
0000
0000
0000
0000
,
0000
0000
0000
0010
,
0000
0000
0000
1000
,
0000
0010
0000
0100
,
0000
0000
0000
0000
,
0000
0000
0000
0001
,
0000
0010
0100
0001
,
0000
0000
0000
0010
,
0000
0000
0000
0000
0000
0000
0000
0000
0100
0000
0000
0000
0000
0000
0000
0000
0010
0000
0000
0000
0000
0000
0000
0000
0100
0010
0100
0010
0100
0010
0100
0010
,
0100
0000
0000
0000
0000
0000
0010
0000
0000
0000
0000
0000
0100
0000
0000
0000
0000
0000
0010
0000
0000
0000
0000
0000
0100
0000
0000
0000
0000
0000
0010
0000
0000
0000
0000
0000
0100
0000
0000
0000
0000
0000
0010
0000
0000
0000
0000
0000
0100
0000
0000
0000
0000
0000
0010
0000
0000
0000
0000
0000
0100
0000
0000
0000
0000
0000
0010
0000
0000
0000
0000
0000
0100
0000
0000
0000
0000
0000
0010
0000
0000
0000
0000
0000
0100
0000
0000
0000
0000
0000
0010
0000
0000
0000
0000
0000
0100
0000
0000
0000
0000
0000
0010
0000
0000
0000
0000
0000
0000
0000
0000
0000
0000
0000
0000
0000
0000
0000
0000
0000
0000
0000
0000
0000
0000
0000
0000
0000
0000
0000
0000
0000
0000
0000
0000
0000
0000
0000
0000
0000
0000
0000
0000
0000
1001
0000
0000
0000
0000
0000
0000
0000
0000
0000
0000
0000
0000
0000
0000
0000
0000
0000
0000
0000
0000
0000
0000
0000
0000
0000
0000
0000
0000
0000
0000
0000
0010
0000
0000
0000
0000
0000
0000
0000
0000
0000
0000
0000
0000
0000
0000
0000
,
0101
0000
1000
0110
0000
0001
1010
0000
0100
1001
0000
0010
,
1100
0000
0001
0110
0000
1000
0110
0000
0001
1010
0000
0100
,
1001
0000
0010
1100
0000
0001
1010
0000
0100
1010
0000
0001
,
0110
0000
1000
0011
0000
0100
0011
0000
1000
0110
0000
0001
,
1010
0000
0100
1010
0000
0001
1100
0000
0001
0110
0000
1000
,
0101
0000
0010
0101
0000
1000
0110
0000
0001
1010
0000
0100
,
1001
0000
0100
0000
0010
0000
0001
0000
1000
0000
0010
0000
0001
0010
0100
1000
,
0001
0000
0000
0010
0000
0000
0100
0000
0000
1000
0000
0000
0001
0000
0000
0100
0000
0000
0010
0000
0000
1000
0000
0000
0001
0000
0000
0100
0000
0000
0010
0000
0000
1000
0000
0000
0101
0000
0000
0000
0000
0000
0000
0000
0010
0000
0000
0000
,
1100
0000
0001
1010
0000
0100
1001
0000
0010
0101
0000
1000
,
0110
0000
0001
1010
0000
0100
1001
0000
0100
0011
0000
1000
,
0110
0000
0001
0110
0000
0001
1100
0000
0010
1001
0000
0100
,
0011
0000
1000
0011
0000
1000
0101
0000
0010
1001
0000
0100
,
1001
0000
0010
0101
0000
1000
0110
0000
0001
1100
0000
0010
,
1100
0000
0001
0110
0000
1000
0101
0000
0010
1001
0000
0100
,
0011
0000
0000
1100
0000
0000
1010
0000
0000
1001
0010
0100
,
1000
0000
0000
0100
0000
0000
0010
0000
0000
0001
0000
0000
1000
0000
0000
0010
0000
0000
1100
0000
0000
0000
0010
0000
,
1001
0000
0100
1010
0000
0001
1100
0000
0010
1100
0000
0001
,
0110
0000
1000
0101
0000
0010
0101
0000
1000
0110
0000
0001
,
1100
0000
0010
1001
0000
0100
1010
0000
0001
1010
0000
0100
,
1010
0000
0001
1100
0000
0010
1001
0000
0100
0011
0000
1000
,
0101
0000
0010
0101
0000
1000
0110
0000
0001
1100
0000
0010
,
1001
0000
0000
0000
0100
0000
0011
0000
0000
0000
1000
0000
0101
0000
0000
0000
0010
0000
0101
0000
0000
0010
0000
0000
,
0100
0000
1000
0000
0001
0000
0100
0000
0010
0000
1000
0000
0001
0010
0100
1000
,
0001
0000
0000
0010
0000
0000
0100
0000
0000
1000
0000
0000
0001
0000
0000
0100
0000
0000
0010
0000
0000
1000
0000
0000
0001
0000
0000
0100
0000
0000
0010
0000
0000
1000
0000
0000
0101
0000
0000
0000
0000
0000
0000
0000
0010
0000
0000
0000
,
1100
0000
0001
1010
0000
0100
1010
0000
0001
0110
0000
1000
,
0101
0000
0010
1100
0000
0001
1010
0000
0001
1100
0000
0010
,
1001
0000
0100
0011
0000
1000
0101
0000
0010
0101
0000
1000
,
0110
0000
0001
1100
0000
0010
1100
0000
0001
0110
0000
1000
,
0101
0000
0010
0101
0000
1000
0110
0000
0001
1100
0000
0010
,
1100
0000
0001
0110
0000
1000
0101
0000
0010
1001
0000
0100
,
0011
0000
0000
0000
0000
0000
0000
0000
1000
0000
0000
0000
0101
0000
0000
0000
0000
0000
0000
0000
0000
0000
0000
0000
0000
0000
0000
0000
0000
0000
0000
0000
0000
0000
0000
0000
0001
0000
0000
0010
0000
0000
0100
0000
0000
1000
0000
0000
,
0001
0000
0000
0100
0000
0000
0010
0000
0000
1000
0000
0000
0101
0000
0000
0000
0000
0000
0000
0000
0100
0000
0000
0000
1010
0000
0000
0000
0000
0000
0000
0000
0001
0000
0000
0000
1100
0000
0000
0000
0000
0000
0000
0000
0010
0000
0000
0000
,
1001
0000
0100
1001
0000
0010
1100
0000
0001
0110
0000
1000
,
0101
0000
0010
0101
0000
1000
0110
0000
0001
1100
0000
0010
,
1001
0000
0100
0011
0000
1000
0110
0000
0001
1010
0000
0100
,
1010
0000
0001
1100
0000
0001
0110
0000
1000
0101
0000
0010
,
1001
0000
0010
0101
0000
1000
0110
0000
0001
1100
0000
0010
,
0101
0000
0010
1100
0000
0001
0110
0000
0001
1010
0000
0100
,
0011
0000
0000
0000
0100
0000
1000
0000
0100
0000
0010
0000
0001
0000
0000
0100
0000
0000
0010
0000
0000
1000
0000
0000
,
0001
0000
0000
0010
0000
0000
1100
0000
0000
0000
0010
0000
1100
0000
0000
0000
0001
0000
0110
0000
0000
0000
1000
0000
,
0101
0000
0010
1001
0000
0100
1010
0000
0001
1100
0000
0001
,
0110
0000
1000
0101
0000
0010
0101
0000
1000
0011
0000
0100
,
1001
0000
0010
0101
0000
1000
0110
0000
0001
1100
0000
0010
,
1001
0000
0100
0011
0000
1000
0101
0000
0010
0101
0000
1000
,
0110
0000
0001
0110
0000
0001
1100
0000
0010
1100
0000
0001
,
0110
0000
0000
0000
0000
0000
0000
0000
1000
0100
0010
0001
1000
0010
0100
0001
,
1000
0000
0000
0100
0000
0000
0010
0000
0000
0001
0000
0000
1000
0000
0000
0010
0000
0000
0100
0000
0000
0001
0000
0000
1010
0000
0000
0000
0000
0000
0000
0000
0100
0000
0000
0000
1010
0000
0000
0000
0000
0000
0000
0000
0001
0000
0000
0000
,
1100
0000
0010
1001
0000
0100
1010
0000
0001
1100
0000
0001
,
1010
0000
0100
0011
0000
1000
0110
0000
0001
1100
0000
0010
,
1001
0000
0100
1010
0000
0001
1100
0000
0010
0101
0000
1000
,
0110
0000
0001
1010
0000
0100
1001
0000
0010
0101
0000
1000
,
0110
0000
0001
1100
0000
0010
1100
0000
0001
0110
0000
1000
,
0101
0000
0010
1001
0000
0100
1010
0000
0001
0110
0000
1000
,
0011
0000
0000
0000
0100
0000
0011
0000
0000
0000
0100
0000
1000
0000
0100
0000
0010
0000
0001
0000
0000
0010
0000
0000
,
0100
0000
0000
1000
0000
0000
0001
0000
0000
0100
0000
0000
1010
0000
0000
0000
0100
0000
0011
0000
0000
0000
1000
0000
,
0110
0000
0001
1100
0000
0010
1001
0000
0100
0011
0000
1000
,
0110
0000
0001
1010
0000
0100
1001
0000
0010
1100
0000
0001
,
1010
0000
0100
1001
0000
0010
1100
0000
0001
1010
0000
0100
,
1010
0000
0001
0110
0000
0001
0110
0000
1000
0101
0000
0010
,
0101
0000
1000
0110
0000
0001
1010
0000
0100
0011
0000
1000
,
0101
0000
0010
0101
0000
1000
0110
0000
0000
0000
0000
0000
,
0000
0000
0000
0000
,
0000
0000
0110
0000
,
0000
0000
0000
0000
,
0000
1000
1100
0000
,
0000
0000
0000
0000
,
1000
0100
0010
0001
1000
0010
0100
0001
1010
0000
0000
0000
0000
0000
0000
0000
,
0000
0000
0000
0000
,
0000
0000
1000
0100
0011
0000
1010
0000
,
0101
0000
0000
0011
0000
0000
1000
0010
0100
0001
0000
0000
,
0001
0000
0010
0000
0100
0000
1000
0000
0000
0010
0000
0000
0101
0000
0000
0000
0000
0000
0000
0000
0000
0000
0000
0000
,
0000
0000
0000
0000
,
0000
1000
1100
0000
,
0000
0000
0000
0000
,
0001
0010
0100
1000
0001
0100
0010
1000
0101
0000
0000
0000
0000
0000
0000
0000
,
0000
0000
0000
0000
,
0000
0000
1000
0100
0011
0000
1010
0000
,
0101
0000
0000
0000
0011
0000
0000
0000
1000
0000
1000
0001
1000
0001
1000
0001
,
1000
0001
1000
0001
1000
0001
1000
0001
1000
0001
1000
0001
1000
0001
1000
0001
,
1000
0001
1000
0001
1000
0001
1000
0001
1000
0001
1000
0001
1000
0001
1000
0001
,
1000
0001
1000
0001
1000
0001
1000
0001
0110
0000
0000
0000
0000
0000
0000
0000
;
