#TITLE:Over Shiver Mountain;
#SUBTITLE:Paper Mario (2000);
#ARTIST:Nintendo;
#TITLETRANSLIT:;
#SUBTITLETRANSLIT:;
#ARTISTTRANSLIT:;
#CREDIT:;
#BANNER:Over Shiver Mountain.jpg;
#BACKGROUND:Over Shiver Mountain-bg.jpg;
#LYRICSPATH:;
#CDTITLE:!Necros.png;
#MUSIC:Over Shiver Mountain.mp3;
#OFFSET:-0.640;
#SAMPLESTART:39.274;
#SAMPLELENGTH:12.000;
#SELECTABLE:YES;
#BPMS:0.000=100.980;
#STOPS:;
#BGCHANGES:;
// cache tags:
#FIRSTBEAT:0.000;
#LASTBEAT:138.250;
#SONGFILENAME:Songs/VGMP 3/Over Shiver Mountain (Necros)/Over Shiver Mountain.sm;
#HASMUSIC:1;
#HASBANNER:1;
#MUSICLENGTH:94.641;
// end cache tags

//---------------dance-single - ----------------
#NOTES:
     dance-single:
     :
     Hard:
     10:
     0.927,0.893,1.000,0.127,1.000,479.000,123.000,12.000,103.000,1.000:

0100
0001
1000
0000
1001
0000
0100
0000
0010
0000
0100
0000
1001
0000
0010
0000
,
0100
0001
1000
0000
1001
0000
0100
0000
0001
0000
0010
0000
0101
0000
1000
0000
,
0100
0000
0000
0001
0000
0000
0101
0000
0000
0000
0000
0000
0011
0000
0000
0000
0000
0000
1100
0000
0000
0000
0000
0000
0010
0000
0000
0100
0000
0000
0110
0000
0000
0000
0000
0000
0001
0000
0010
0000
0001
0000
1100
0000
0000
1100
0000
0000
,
0001
0010
0100
1000
0100
0010
0001
0010
0100
1000
0100
0010
1001
0010
0100
1000
,
0001
0100
0010
1000
0011
0100
0001
0100
0010
1000
0010
0100
1001
0100
0010
1000
,
0010
0100
0001
1000
0011
0100
0010
0100
0001
1000
0001
0100
1010
0100
0001
1000
,
0001
0100
0010
1000
0011
0100
0001
0100
0010
1000
0010
0100
1001
0100
0010
1000
,
MM2M
MM0M
MM0M
MM0M
MM0M
MM0M
MM0M
MM3M
0001
0010
0100
1000
0101
0010
0001
0010
,
0100
1000
0100
0010
1001
0010
0100
1000
0001
0100
0010
1000
0011
0100
0001
0100
,
0010
1000
0010
0100
1001
0100
0011
1000
0010
0100
0001
1000
0011
0100
0010
0100
,
0001
1000
0001
0100
1010
0100
0001
1000
0001
0100
0010
1000
0011
0100
0001
0100
,
0010
1000
0010
0100
0001
0100
0011
1000
02MM
00MM
00MM
00MM
M3M2
M0M0
M0M0
M0M0
,
MM23
MM00
MM00
MM00
1M31
0010
0100
1000
0101
0010
1001
0010
0100
1000
0101
0010
,
1001
0010
0101
1000
0011
0100
0010
1000
0011
0100
1001
0100
0010
1001
0010
1100
,
1001
0100
0011
1000
1010
0100
0001
1000
0011
0100
1010
0100
0001
1000
0011
0100
,
1010
0100
0011
1000
0011
0100
0010
1000
0011
0100
1001
0100
0010
1001
0010
1100
,
1001
0000
0000
0100
0000
0000
0011
0000
0000
1000
0000
0000
1010
0000
0000
0000
0000
0000
0100
0000
0000
0001
0000
0000
0100
0000
0000
0000
0010
0000
1000
0000
0000
0000
0000
0000
1000
0000
0000
0010
0000
0000
1000
0000
0000
0000
0001
0000
,
0100
0000
0000
0000
0000
0000
0100
0000
0000
0001
0000
0000
0100
0000
0000
0000
0010
0000
1000
0000
0000
0000
0000
0000
1000
0000
0000
0010
0000
0000
1000
0000
0000
0000
0010
0000
0001
0000
0000
0000
0000
0000
0100
0000
0000
0001
0000
0000
,
0100
0000
0000
0000
0001
0000
1000
0000
0000
0000
0000
0000
1000
0000
0000
0010
0000
0000
1000
0000
0000
0000
0010
0000
0100
0000
0000
0000
0000
0000
0001
0000
0000
0010
0000
0000
0100
0000
0010
1000
0000
0000
0001
0000
0000
0000
0000
0000
,
0010
0000
0100
0000
1000
0000
0100
0001
0100
0000
0010
0000
1000
0010
1000
0000
,
0001
0000
0000
0000
0000
0000
0100
0000
0000
0001
0000
0000
0100
0000
0000
0000
0001
0000
0010
0000
0000
0000
0000
0000
1000
0000
0000
0010
0000
0000
1000
0000
0000
0000
0000
0000
0001
0000
0000
0000
0000
0000
0100
0000
0000
0001
0000
0000
,
0100
0000
0000
0000
0000
0000
0010
0000
0000
0000
0000
0000
1000
0000
0000
0010
0000
0000
1000
0000
0000
0000
0010
0000
0001
0000
0000
0000
0000
0000
0000
0000
0000
0000
0000
0000
0100
0000
0000
1000
0000
0000
0100
0000
0000
0000
0000
0000
,
0010
0000
0100
0000
1001
0100
0010
1000
0101
0010
1001
0100
0010
1000
0101
0010
,
1100
0010
0101
1000
0110
0001
1000
0010
0001
1000
0110
0001
1000
0110
0001
1010
,
1100
0001
1000
0100
0011
1000
0110
0001
1100
0010
1001
0100
0010
1001
1001
0010
,
1001
0000
0010
M000
0100
0000
1M00
0000
0000
00M0
0000
0000
1001
0000
0000
0010
0000
0000
0100
0000
0000
1000
0000
0000
0101
0000
0000
0010
0000
0000
1001
0000
0000
0010
0000
0000
0100
0000
0000
1000
0000
0000
0101
0000
0000
0010
0000
0000
,
1001
0010
0101
1000
0011
0100
0010
1000
0011
0100
1001
0100
0010
1001
0010
1100
,
1001
0100
0011
1000
1010
0100
0001
1000
0011
0100
1010
0100
0001
1000
0011
0100
,
1010
0100
0011
1000
0011
0100
0010
1000
0011
0100
1001
0100
0010
1001
0010
1100
,
1001
0100
0011
1000
MM2M
MM0M
MM0M
MM0M
MM0M
MM0M
MM0M
MM3M
2001
3010
0100
1000
,
0101
0010
1001
0010
0100
1000
0101
0010
1001
0010
0101
1000
0012
0103
0010
1000
,
0011
0100
1001
0100
0010
1001
0010
1100
1001
0100
0011
1000
1020
0130
0001
1000
,
0011
0100
1010
0100
0001
1000
0011
0100
1010
0100
0011
1000
0012
0103
0010
1000
,
0011
0100
1001
0100
0010
1001
0010
1100
1001
0100
0011
1000
02MM
00MM
00MM
00MM
,
M32M
0000
0000
0000
M00M
0000
0000
0000
M00M
0000
0000
0000
M00M
0000
0000
0000
MM32
0000
0000
0000
MM00
0000
0000
0000
MM00
0000
0000
0000
MM00
0000
0000
0003
MMM1
0000
0000
0000
0000
0000
0000
0000
0000
0000
0000
0000
0000
0000
0000
0000
0000
0000
0000
0000
0000
0000
0000
0000
0000
0000
0000
0000
0000
0000
0000
0000
;

//---------------dance-single - ----------------
#NOTES:
     dance-single:
     :
     Challenge:
     10:
     1.000,1.000,1.000,0.264,1.000,481.000,193.000,25.000,8.000,44.000:




0001
0010
0100
0000
1001
0000
0100
0000
0010
0000
0100
0000
1001
0000
0010
0000
,
0001
0010
0100
0000
0011
0000
0100
0000
0001
0000
0010
0000
0101
0000
1000
0000
,
0100
0000
0000
0001
0000
0000
1010
0000
0000
0000
0000
0000
0111
0000
0000
0000
0000
0000
1100
0000
0000
0000
0000
0000
0010
0000
0000
0100
0000
0000
0110
0000
0000
0000
0000
0000
1011
0000
0100
0000
0010
0000
1100
0000
0000
1100
0000
0000
,
1001
0010
0100
1000
0101
0010
1001
0010
0100
1000
0101
0010
1101
0010
0101
1000
,
0011
0100
1000
0001
1011
0100
0011
0100
1000
0011
1000
0101
1010
0100
1010
0001
,
1100
0010
0001
1000
1101
0010
1100
0010
0001
1000
0101
0010
1101
0010
0101
1000
,
0011
0100
1000
0001
1011
0100
0011
0100
1000
0011
1000
0101
1010
0100
1010
0100
,
2M00
0000
0000
0000
0000
0000
0000
3000
1201
0310
0100
1000
1101
0010
1001
0010
,
0100
1000
0101
0010
1101
0010
0101
1000
2011
3100
1000
0001
1011
0100
0011
0100
,
1000
0011
1000
0101
1010
0100
1010
0001
1102
0013
0001
1000
1101
0010
1100
0010
,
0001
1000
0101
0010
1101
0010
0101
1000
2011
3100
1000
0001
1011
0100
0011
0100
,
1000
0011
1000
0101
0011
0100
1010
0100
2M00
0000
0000
0000
32M0
0000
0000
0000
,
032M
0000
0000
0000
1231
0310
0100
1000
0101
0010
1001
0010
0100
1000
0101
0010
,
1001
0010
0101
1000
2011
3100
1000
0001
1010
0100
0011
0100
1000
0011
1000
0101
,
0011
0100
1010
0001
1102
0013
0001
1000
0101
0010
1100
0010
0001
1000
0101
0010
,
1100
0010
0101
1000
2011
3100
1000
0001
1010
0100
0011
0100
1000
0011
1000
0101
,
0011
0000
0000
0100
0000
0000
1010
0000
0000
0001
0000
0000
1110
0000
0000
0000
0000
0000
1100
0000
0000
0011
0000
0000
1100
0000
0000
0000
0010
0000
1100
0000
0000
0000
0000
0000
1001
0000
0000
0110
0000
0000
1001
0000
0000
0000
0001
0000
,
0110
0000
0000
0000
0000
0000
1100
0000
0000
0010
0000
0000
1000
0000
0000
0000
0010
0000
1100
0000
0000
0000
0000
0000
0110
0000
0000
0001
0000
0000
0100
0000
0000
0000
0010
0000
0101
0000
0000
0000
0000
0000
1100
0000
0000
0011
0000
0000
,
1000
0000
0000
0000
0001
0000
1010
0000
0000
0000
0000
0000
1100
0000
0000
0001
0000
0000
0100
0000
0000
0000
0010
0000
1100
0000
0000
0000
0000
0000
1001
0000
0000
0010
0000
0000
0100
0000
0010
1001
0000
0000
0101
0000
0000
0000
0000
0000
,
0010
0000
0100
0000
1000
0000
1100
0010
1100
0000
1001
0000
0010
0100
0010
0000
,
1001
0000
0000
0000
0000
0000
0100
0000
0000
0010
0000
0000
0100
0000
0000
0000
0010
0000
1001
0000
0000
0000
0000
0000
0010
0000
0000
0100
0000
0000
0010
0000
0000
0000
0000
0000
1000
0000
0000
0000
0000
0000
0101
0000
0000
0010
0000
0000
,
1100
0000
0000
0000
0000
0000
1001
0000
0000
0000
0000
0000
0010
0000
0000
0100
0000
0000
1010
0000
0000
0000
0010
0000
1001
0000
0000
0000
0000
0000
0000
0000
0000
0000
0000
0000
0001
0000
0000
0010
0000
0000
0001
0000
0000
0000
0000
0000
,
0010
0000
0100
0000
1001
0100
0010
1000
0101
0010
1001
0100
0010
1000
0101
0010
,
1100
0010
0101
1000
0110
0001
1000
0010
0001
1000
0110
0001
1000
0110
0001
1010
,
1100
0001
1000
0100
0011
1000
0110
0001
1100
0010
1001
0100
0010
1001
1101
0010
,
1001
0000
0100
0010
1000
0000
0101
0000
0000
0110
0000
0000
1201
0000
0000
0310
0000
0000
0100
0000
0000
1000
0000
0000
1101
0000
0000
0010
0000
0000
1001
0000
0000
0010
0000
0000
0100
0000
0000
1000
0000
0000
0101
0000
0000
0010
0000
0000
,
1101
0010
0101
1000
2011
3100
1000
0001
1011
0100
0011
0100
1000
0011
1000
0101
,
1010
0100
1010
0001
1102
0013
0001
1000
1101
0010
1100
0010
0001
1000
0101
0010
,
1101
0010
0101
1000
2011
3100
1000
0001
1011
0100
0011
0100
1000
0011
1000
0101
,
1010
0100
1010
0100
2M00
0000
0000
0000
0000
0000
0000
3000
1201
0310
0100
1000
,
1101
0010
1001
0010
0100
1000
0101
0010
1101
0010
0101
1000
2011
3100
1000
0001
,
1011
0100
0011
0100
1000
0011
1000
0101
1010
0100
1010
0001
1102
0013
0001
1000
,
1101
0010
1100
0010
0001
1000
0101
0010
1101
0010
0101
1000
2011
3100
1000
0001
,
1011
0100
0011
0100
1000
0011
1000
0101
0011
0100
1010
0100
2M00
0000
0000
0000
,
32M0
0000
0000
0000
032M
0000
0000
0000
1231
0300
0000
0000
0000
0000
0000
0000
;

//---------------dance-single - ----------------
#NOTES:
     dance-single:
     :
     Beginner:
     11:
     1.000,1.000,1.000,0.264,1.000,485.000,208.000,25.000,8.000,63.000:



0001
0010
0100
0000
1001
0000
0100
0000
0010
0000
0100
0000
1001
0000
0010
0000
,
0001
0010
0100
0000
0011
0000
0100
0000
0001
0000
0010
0000
0101
0000
1000
0000
,
0100
0000
0000
0001
0000
0000
1010
0000
0000
0000
0000
0000
0111
0000
0000
0000
0000
0000
1100
0000
0000
0000
0000
0000
0010
0000
0000
0100
0000
0000
0110
0000
0000
0000
0000
0000
1011
0000
0100
0000
0010
0000
1100
0000
0000
1100
0000
0000
,
1001
0010
0100
1000
0101
0010
1001
0010
0100
1000
0101
0010
1101
0010
0101
1000
,
0011
0100
1000
0001
1011
0100
0011
0100
1000
0011
1000
0101
1010
0100
1010
0001
,
1100
0010
0001
1000
1101
0010
1100
0010
0001
1000
0101
0010
1101
0010
0101
1000
,
0011
0100
1000
0001
1011
0100
0011
0100
1000
0011
1000
0101
1010
0100
1010
0100
,
2M00
0000
0000
0000
0000
0000
0000
3000
1201
0310
0100
1000
1101
0010
1001
0010
,
0100
1000
0101
0010
1101
0010
0101
1000
2011
3100
1000
0001
1011
0100
0011
0100
,
1000
0011
1000
0101
1010
0100
1010
0001
1102
0013
0001
1000
1101
0010
1100
0010
,
0001
1000
0101
0010
1101
0010
0101
1000
2011
3100
1000
0001
1011
0100
0011
0100
,
1000
0011
1000
0101
0011
0100
1010
0100
2M00
0000
0000
0000
32M0
0000
0000
0000
,
032M
0000
0000
0000
1231
0310
0100
1000
0101
0010
1001
0010
0100
1000
0101
0010
,
1001
0010
0101
1000
2011
3100
1000
0001
1010
0100
0011
0100
1000
0011
1000
0101
,
0011
0100
1010
0001
1102
0013
0001
1000
0101
0010
1100
0010
0001
1000
0101
0010
,
1100
0010
0101
1000
2011
3100
1000
0001
1010
0100
0011
0100
1000
0011
1000
0101
,
0011
0000
0000
0100
0000
0000
1010
0000
0000
0001
0000
0000
1110
0000
0000
0000
0000
0000
1100
0000
0000
0011
0000
0000
1110
0000
0000
0000
0010
0000
1101
0000
0000
0000
0000
0000
1001
0000
0000
0110
0000
0000
1011
0000
0000
0000
0001
0000
,
1110
0000
0000
0000
0000
0000
1101
0000
0000
0011
0000
0000
1000
0000
0000
0000
0010
0000
1100
0000
0000
0000
0000
0000
0111
0000
0000
0001
0000
0000
1100
0000
0000
0000
0010
0000
0101
0000
0000
1000
0000
0000
1100
0000
0000
0111
0000
0000
,
1100
0000
0000
0000
0001
0000
1110
0000
0000
0000
0000
0000
1110
0000
0000
0001
0000
0000
0100
0000
0000
0000
0010
0000
1101
0000
0000
0000
0000
0000
1011
0000
0000
0010
0000
0000
0100
0000
0010
1001
0000
0000
1101
0000
0000
0000
0000
0000
,
0011
0000
0110
0000
1010
0000
1100
0010
1101
0000
1011
0000
0010
1100
0010
0100
,
1101
0000
0000
0000
0000
0000
1100
0000
0000
0010
0000
0000
0101
0000
0000
0000
0010
0000
1001
0000
0000
0000
0000
0000
0011
0000
0000
0100
0000
0000
1010
0000
0000
0000
0000
0000
1000
0000
0000
0000
0000
0000
1101
0000
0000
0010
0000
0000
,
1110
0000
0000
0000
0000
0000
1101
0000
0000
0000
0000
0000
0110
0000
0000
0100
0000
0000
1010
0000
0000
0000
0010
0000
1101
0000
0000
0000
0000
0000
1000
0000
0000
0000
0000
0000
0001
0000
0000
0110
0000
0000
0001
0000
0000
0100
0000
0000
,
0110
0000
0101
0000
1001
0100
0010
1000
0101
0010
1001
0100
0010
1000
0101
0010
,
1100
0010
0101
1000
0110
0001
1000
0010
0001
1000
0110
0001
1000
0110
0001
1010
,
1100
0001
1000
0100
0011
1000
0110
0001
1100
0010
1001
0100
0010
1001
1101
0010
,
1001
0000
0100
0010
1000
0000
0101
0000
0000
0110
0000
0000
1201
0000
0000
0310
0000
0000
0100
0000
0000
1000
0000
0000
1101
0000
0000
0010
0000
0000
1001
0000
0000
0010
0000
0000
0100
0000
0000
1000
0000
0000
0101
0000
0000
0010
0000
0000
,
1101
0010
0101
1000
2011
3100
1000
0001
1011
0100
0011
0100
1000
0011
1000
0101
,
1010
0100
1010
0001
1102
0013
0001
1000
1101
0010
1100
0010
0001
1000
0101
0010
,
1101
0010
0101
1000
2011
3100
1000
0001
1011
0100
0011
0100
1000
0011
1000
0101
,
1010
0100
1010
0100
2M00
0000
0000
0000
0000
0000
0000
3000
1201
0310
0100
1000
,
1101
0010
1001
0010
0100
1000
0101
0010
1101
0010
0101
1000
2011
3100
1000
0001
,
1011
0100
0011
0100
1000
0011
1000
0101
1010
0100
1010
0001
1102
0013
0001
1000
,
1101
0010
1100
0010
0001
1000
0101
0010
1101
0010
0101
1000
2011
3100
1000
0001
,
1011
0100
0011
0100
1000
0011
1000
0101
0011
0100
1010
0100
2M00
0000
0000
0000
,
32M0
0000
0000
0000
032M
0000
0000
0000
1231
0300
0000
0000
0000
0000
0000
0000
;
