#TITLE:Pretty Girl;
#SUBTITLE:(The Way);
#ARTIST:Sugarcult;
#TITLETRANSLIT:;
#SUBTITLETRANSLIT:;
#ARTISTTRANSLIT:;
#CREDIT:;
#BANNER:Sugarcultban.png;
#BACKGROUND:Sugarcultbg.jpg;
#LYRICSPATH:;
#CDTITLE:!ObsTitle.png;
#MUSIC:Sugarcult - Pretty Girl (The Way).mp3;
#OFFSET:-0.217;
#SAMPLESTART:11.003;
#SAMPLELENGTH:12.000;
#SELECTABLE:YES;
#BPMS:0.000=85.040,64.000=170.080,96.000=85.040,144.000=170.060,248.000=85.040;
#STOPS:;
#BGCHANGES:;
// cache tags:
#FIRSTBEAT:0.000;
#LASTBEAT:278.125;
#SONGFILENAME:Songs/Fresh Flock of Fantastic Files F4/(Observer) Pretty Girl (The Way)/sugarcult.sm;
#HASMUSIC:1;
#HASBANNER:1;
#MUSICLENGTH:149.010;
// end cache tags

//---------------dance-single - ----------------
#NOTES:
     dance-single:
     :
     Challenge:
     10:
     0.824,1.000,0.872,0.289,0.825,687.000,130.000,43.000,0.000,0.000:
1001
0100
1000
0010
1100
0001
0100
0010
1001
0100
1000
0010
1100
0001
0100
0010
,
1001
0010
0100
1000
0101
0010
0100
0010
1001
0010
0100
1000
0101
0010
0100
0010
,
1001
0100
1000
0010
1100
0001
0100
0010
1001
0100
1000
0010
1100
0001
0100
0010
,
1001
0010
0100
1000
0101
0010
0100
0010
1001
0010
0100
1000
0101
0010
0100
0000
,
0110
0000
0000
0000
1000
0000
0010
0000
0000
0000
1000
0000
0100
0000
0000
0000
0101
0000
0000
0000
0001
0000
0100
0000
0000
0000
0010
0000
0001
0010
0001
0010
,
1100
0000
0000
0000
0010
0000
1000
0000
0000
0000
0010
0000
0100
0000
0000
0000
0011
0000
0000
0000
0010
0000
0001
0000
0000
0000
0100
0000
1000
0100
1000
0100
,
0011
0000
0000
0000
1000
0000
0010
0000
0000
0000
0001
0000
0010
0000
0000
0000
1100
0000
0000
0000
1000
0000
0100
0000
0000
0000
0010
0000
0100
0010
0100
0010
,
1001
0000
0100
1000
0000
0010
0100
0000
0011
0000
0100
0010
0200
0000
0320
0030
,
1001
0000
0000
0100
0001
0000
0100
0000
1010
0000
0000
0010
1000
0000
0001
0000
,
0110
0000
0000
0000
0000
0000
1000
0000
0100
0000
0000
0000
0010
0000
0000
0000
1100
0000
0000
0000
0000
0000
0001
0000
0010
0000
0000
0000
1000
0010
1000
0010
,
0101
0000
0000
0010
1000
0000
0010
0100
0010
0000
0000
0001
0100
0000
0010
0000
,
2000
0000
3000
0100
0001
0000
0100
0000
2000
0000
3000
0010
0100
0000
0001
0000
,
1001
0000
0100
0010
1001
0000
0010
0000
0001
0000
0100
0010
1100
0000
0001
0010
,
0100
0001
0100
0010
0100
0001
0010
0000
2000
0000
3100
0000
0001
0000
0100
0000
,
1001
0000
0010
0100
1001
0000
0010
0000
1000
0000
0100
0010
0101
0000
0010
0100
,
0001
0000
0100
0000
0010
0000
1000
0000
0001
0000
0100
0000
0010
0000
0000
0000
1001
0000
0000
0001
0010
0000
0100
0000
0010
0000
0001
0000
0010
0000
0100
0000
,
2002
0000
0000
0000
0000
3003
0000
0000
0000
0000
0100
0000
0010
0000
0200
0000
,
0000
0320
0000
0230
0000
0310
0100
0202
,
0000
0000
0303
0000
0000
1000
0100
2000
,
0000
3200
0000
2300
0000
3100
0001
0220
,
0000
0000
0330
0000
0000
0001
0100
0001
,
0000
0101
0000
0011
0000
1100
0010
0100
,
0001
0000
0100
0000
0010
0000
1000
0000
0101
0000
0100
0010
0100
0000
1010
0000
,
0100
0000
0001
0000
0010
0000
1000
0000
0101
0000
0100
0001
0010
0000
1100
0000
,
1001
0000
0010
0100
0000
1000
0100
0000
1010
0000
0001
0100
0000
0001
0010
0000
,
0101
0000
0010
0100
0000
1000
0010
0000
1100
0000
0010
0001
0000
0100
0010
0000
,
1001
0000
0100
0001
0000
0100
1000
0000
0110
0000
1000
0100
0000
0010
0100
0000
,
1010
0000
0100
0001
0000
1000
0100
0000
0011
0000
1000
0000
0110
0000
0000
0100
,
1001
0000
0000
0100
0010
0000
0001
0000
0110
0000
0000
0010
0100
0000
0001
0000
,
0011
0000
0000
0000
0000
0000
0100
0000
1000
0000
0000
0000
0010
0000
0000
0000
0101
0000
0000
0000
0000
0000
0100
0000
1000
0000
0000
0000
0010
0001
0010
0001
,
1100
0000
0000
0100
0001
0000
0010
0000
1100
0000
0000
0010
0001
0000
0100
0000
,
1010
0000
0000
0100
0010
0000
0001
0000
0110
0000
0000
1000
0100
0000
0010
0000
,
1001
0000
0010
0100
0001
0000
1100
0000
1010
0000
0100
0010
0001
0000
1000
0010
,
0100
0001
0100
0010
0100
0001
0010
0000
1100
0000
0010
0000
0101
0000
1000
0000
,
0011
0000
1000
0100
1000
0000
0110
0000
0011
0000
0100
1000
0010
0000
0001
0100
,
0010
0000
1000
0000
0100
0000
1000
0000
0010
0000
0100
0000
1000
0000
0000
0000
1001
0000
0000
0010
0100
0000
1000
0000
0100
0000
0010
0000
0100
0000
1000
0000
,
0220
0000
0000
0330
0000
0100
0010
2000
,
0000
3002
0000
2003
0000
3010
0100
0022
,
0000
0000
0033
0000
0000
0100
1000
0020
,
0000
0032
0000
0023
0000
0130
1000
2002
,
0000
0000
3003
0000
0000
0100
0010
1000
,
0000
1100
0000
1010
0000
0110
0000
0010
,
1100
0110
0000
0101
0110
0000
1010
0000
,
0000
0101
0000
0011
1100
0000
0100
1000
,
0202
0000
0000
0303
0000
0100
0001
0020
,
0000
2030
0000
3020
0000
0130
0001
2200
,
0000
0000
3300
0000
0000
1000
0010
0200
,
0000
0302
0000
0203
0000
0310
1000
2020
,
0000
0000
0000
3030
0000
0010
0100
0011
,
0000
0110
0000
1100
0000
1010
0000
0000
,
1000
0000
0100
0000
0010
0000
0001
0000
0110
0000
0001
0010
1000
0000
0011
0000
,
1000
0000
0010
0000
0100
0000
0001
0000
1010
0000
0010
0100
0001
0000
1100
0000
,
0010
0000
0100
0000
0001
0000
1000
0000
0011
0000
1000
0100
0001
0000
0101
0000
,
0000
0000
0100
0010
1000
0000
0110
0000
0001
0010
0100
1000
0001
0010
0100
1000
,
0001
0010
0001
0010
0001
0010
0001
0010
0001
0010
0001
0010
0001
0010
0001
0010
,
0100
0010
0100
0010
0100
0010
0100
0010
0100
0010
0100
0010
0100
0010
0100
0010
,
0100
1000
0100
1000
0100
1000
0100
1000
0100
1000
0100
1000
0100
1000
0100
1000
,
0010
0100
0010
0100
0010
0100
0010
0100
0010
0001
0010
0001
0010
0001
0010
0001
,
0010
1000
0010
1000
0010
1000
0010
1000
0010
1000
0010
1000
0010
1000
0010
1000
,
0100
0001
0100
0001
0100
0001
0100
0001
0100
0001
0100
0001
0100
0001
0100
0001
,
0100
0010
0100
0010
0100
0010
0100
0010
0100
0010
0100
0010
0100
0010
0100
0010
,
1000
0100
1000
0100
1000
0100
1000
0100
0010
0001
0010
0001
0010
0001
0010
0001
,
0110
0000
1000
0000
0100
0000
1000
0000
0011
0000
0100
1000
0010
0000
1100
0000
0011
0000
0100
0000
0010
0000
1000
0000
0101
0000
0010
0100
0001
0000
0110
0000
,
1100
0000
0010
0000
0001
0000
0100
0000
1001
0000
0100
1000
0100
0000
0011
0000
0110
0000
1000
0000
0010
0000
0100
0000
0011
0000
1000
0010
0100
0000
1100
0000
,
0011
0000
0100
0000
0010
0000
1000
0000
0110
0000
0001
0010
0100
0000
1001
0000
0110
0000
1000
0000
0010
0000
0100
0000
0011
0000
1000
0100
1000
0000
0110
0000
,
1001
0000
0010
0000
0100
0000
1000
0000
0101
0000
0010
0001
0010
0000
1100
0000
0101
0000
0010
0000
1000
0000
0100
0000
0011
0000
0000
0000
0100
0000
0000
0000
,
1001
0000
0000
0100
0001
0000
0010
0000
1100
0000
0000
0100
1000
0000
0010
0000
,
1001
0000
0000
0100
0010
0000
1000
0000
0101
0000
0000
0010
1000
0000
0100
0000
,
0011
0000
0000
0100
0010
0000
1000
0000
0110
0000
0000
0100
0010
0000
1000
0100
,
1000
0000
0010
0000
1000
0000
0010
0000
0100
0000
0001
0000
0010
0000
0000
0000
2200
3300
0000
0000
0000
0000
0000
0000
0000
0000
0000
0000
0000
0000
0000
0000
;

//---------------dance-single - ----------------
#NOTES:
     dance-single:
     :
     Hard:
     7:
     0.617,0.793,1.000,0.544,0.154,393.000,170.000,81.000,0.000,0.000:
1001
0001
1001
0110
,
0010
0110
1100
0001
,
0010
1000
0100
0011
,
1100
0110
0110
1001
,
0011
0100
1100
0010
0011
0100
1100
0001
,
0110
1000
0110
0001
1100
0110
2002
3003
,
1001
0010
1100
0010
0001
1000
0011
1100
,
0010
1100
0010
0011
0100
1100
0110
0011
,
1001
0000
0000
0100
0010
0000
0000
0000
1001
0000
0000
0010
0100
0000
0000
0000
,
0011
0000
0000
1000
0100
0000
0000
0000
1100
0000
0000
0010
0001
0000
0000
0000
,
0110
0000
0000
0100
0010
0000
1000
0001
0110
0000
0000
0100
0010
0000
0100
0000
,
1000
0000
0000
0010
0002
0000
0003
0000
1000
0000
0000
0010
0002
0000
0003
0000
,
0110
0100
1000
0100
0010
0001
0010
1001
,
0110
0000
1001
0000
0100
0010
0001
0000
0220
0000
0000
0000
0000
0000
0330
0000
,
0001
0000
0010
0100
1000
0000
0010
0000
1001
0000
0110
0000
1001
0000
1000
0010
,
0001
0000
1100
0000
1000
0010
0001
0000
0220
0000
0000
0000
0000
0000
0330
0000
,
2002
0000
0000
3003
0000
1000
0001
0200
,
0000
0320
0000
0230
0000
0300
0000
0220
,
0000
0000
0000
0330
0000
0100
0010
0002
,
0000
2003
0000
3002
0000
0003
0000
0000
,
0022
0000
0000
0033
0000
1000
0100
0010
,
0000
1001
0000
1010
0000
1100
0001
0000
,
2000
0000
3200
0000
0320
0000
0032
0003
,
0002
0003
0020
0030
0200
0300
2000
3000
,
1001
0011
1100
0011
,
0110
1001
1100
1010
,
0101
0101
1100
1100
0110
0110
1001
1001
,
0011
1100
1010
0101
1001
1001
0220
0330
,
1100
0000
0000
0010
0001
0000
0000
0000
1100
0000
0000
0100
0001
0000
0000
0000
,
0011
0000
0000
0100
1000
0000
0000
0000
0110
0000
0000
1000
0100
0000
0000
0000
,
1001
0000
0000
0100
0001
0000
1000
0001
0110
0000
0000
1001
0110
0000
0000
0000
,
0011
0000
0000
0010
2200
0000
3300
0000
0011
0000
0000
1000
0200
0000
0300
0000
,
0110
0110
1100
1100
0101
0101
1010
1010
,
1001
0000
0110
0000
1000
0100
0010
0000
2200
0000
0000
0000
0000
0000
3300
0000
,
0110
0000
1000
0100
1000
0000
0011
0000
1001
0000
0011
0000
1100
0000
0011
0000
,
0110
0000
0000
0000
1000
0010
0001
0000
1000
0100
0010
0001
1000
0100
0010
0001
,
0220
0000
0000
0330
0000
1100
0001
2000
,
0000
3200
0000
0320
0000
1030
0100
2200
,
0000
0000
0000
3300
0000
1100
0010
0002
,
0000
0203
0000
0302
0000
0013
0100
2002
,
0000
0000
3003
0000
0000
1000
0010
0001
,
0000
1100
0010
0001
1000
0100
0010
0001
,
1000
0100
0010
0001
0001
0010
0100
1000
,
0001
0010
0100
1000
0100
0010
0001
0010
,
2200
0000
0000
3300
0000
1001
1001
0110
,
0000
0101
0000
1100
0000
0011
0011
0220
,
0000
0000
0000
0330
0000
0011
0101
2200
,
3300
2200
3300
2200
3300
0100
0010
0202
,
0000
0000
0000
0303
0000
1100
0001
0110
,
0000
0110
0000
1001
0000
1100
0001
1000
,
0001
1000
0010
0001
0010
1000
0100
0001
,
0100
1000
0010
0001
0100
0010
1000
0100
,
0010
1000
0100
0001
1000
0100
0001
0100
,
0001
1000
0010
1000
0001
0100
0010
0100
,
2002
0000
0000
0000
0000
0000
0000
3003
,
0220
0000
0000
0000
0000
0000
0000
0330
,
2200
0000
0000
0000
0000
0000
0000
3300
,
0022
0000
0000
0033
2200
0000
0000
3300
,
2002
0000
0000
0000
0000
0000
0000
3003
,
0220
0000
0000
0000
0000
0000
0000
0330
,
0202
0000
0000
0000
0000
0000
0000
0303
,
2020
0000
0000
3030
0202
0000
0000
0303
,
1001
0000
0100
0010
0100
0000
0110
0000
1001
0000
1000
0001
1000
0000
0011
0000
,
0101
0000
0010
0100
1000
0000
0110
0000
1001
0000
0100
0010
0001
0000
0110
0000
,
1100
0000
0100
0001
0100
0000
1100
0000
0101
0000
0100
0001
0010
0000
1010
0000
,
1100
0000
1001
0110
1001
0000
0110
0000
0110
0000
1000
0100
0010
0001
0010
0100
,
1001
0000
0000
0100
0001
0000
0000
0000
0011
0000
0000
0100
1000
0000
0000
0000
,
1100
0000
0000
0110
1001
0000
0110
0000
1001
0000
0000
1001
0110
0000
0000
0000
,
0011
0000
0000
0100
1000
0000
0000
0000
0110
0000
0000
0100
1000
0000
0000
0000
,
0011
0000
0000
0000
0100
0000
1000
0000
0100
0000
0000
0000
0011
0000
0000
0000
2200
3300
0000
0000
0000
0000
0000
0000
0000
0000
0000
0000
0000
0000
0000
0000
;
