#TITLE:Flight of the Bumblebee;
#SUBTITLE:;
#ARTIST:Rimsky Koraskov;
#TITLETRANSLIT:;
#SUBTITLETRANSLIT:;
#ARTISTTRANSLIT:;
#CREDIT:;
#BANNER:fotbb.png;
#BACKGROUND:fotbb-bg.png;
#LYRICSPATH:;
#CDTITLE:!a0Title.png;
#MUSIC:fotbb.mp3;
#OFFSET:0.460;
#SAMPLESTART:14.615;
#SAMPLELENGTH:12.000;
#SELECTABLE:YES;
#BPMS:0.000=398.000;
#STOPS:;
#BGCHANGES:;
// cache tags:
#FIRSTBEAT:21.000;
#LASTBEAT:459.000;
#SONGFILENAME:Songs/Essential Sim Collection/(Arch0wl) flight of the bumblebee/fotbb.sm;
#HASMUSIC:1;
#HASBANNER:1;
#MUSICLENGTH:69.925;
// end cache tags

//---------------dance-single - ----------------
#NOTES:
     dance-single:
     :
     Hard:
     10:
     1.000,1.000,0.029,0.000,0.000,860.000,2.000,0.000,0.000,0.000:  // measure 1
0000
0000
0000
0000
,  // measure 2
0000
0000
0000
0000
,  // measure 3
0000
0000
0000
0000
,  // measure 4
0000
0000
0000
0000
,  // measure 5
0000
0000
0000
0000
,  // measure 6
0000
0000
1000
0001
1000
0001
1000
0001
,  // measure 7
1000
0001
0010
0001
0010
0001
0010
0001
,  // measure 8
0010
0001
0010
0100
0010
0100
0010
0100
,  // measure 9
0010
0100
1000
0100
1000
0100
1000
0100
,  // measure 10
1000
0100
1000
0001
1000
0001
1000
0001
,  // measure 11
1000
0001
1000
0100
1000
0100
1000
0100
,  // measure 12
1000
0100
1000
0010
1000
0010
0100
0001
,  // measure 13
0100
0001
1000
0010
1000
0010
0100
0001
,  // measure 14
0100
0001
1000
0010
1000
0010
0100
0001
,  // measure 15
0100
0001
1000
0010
1000
0010
0100
0001
,  // measure 16
0100
0001
0100
0010
0100
0010
0100
0010
,  // measure 17
0100
0010
1000
0010
1000
0010
1000
0010
,  // measure 18
1000
0001
0100
0001
0100
0001
0100
0001
,  // measure 19
0010
0001
0010
0001
0010
0001
0010
0001
,  // measure 20
0010
0001
0010
0100
0001
1000
0010
0100
,  // measure 21
0001
1000
0010
0100
0001
1000
0010
0100
,  // measure 22
0001
1000
0010
0100
0001
1000
0010
0100
,  // measure 23
0001
1000
0010
0100
0001
1000
0010
0100
,  // measure 24
0001
1000
0010
0100
0001
1000
0010
0100
,  // measure 25
1000
0001
0010
0100
1000
0001
0010
0100
,  // measure 26
1000
0100
1000
0100
1000
0100
0010
0001
,  // measure 27
1000
0100
0010
0001
1000
0100
0010
0001
,  // measure 28
1000
0100
1000
0100
1000
0100
1000
0100
,  // measure 29
0010
0001
0010
0001
1000
0100
1000
0100
,  // measure 30
0010
0001
0010
0001
1000
0100
1000
0100
,  // measure 31
0001
0010
0100
1000
0001
0010
0100
1000
,  // measure 32
0001
0010
0100
1000
0001
0010
0100
1000
,  // measure 33
0010
0100
0010
0100
0010
0100
0010
0100
,  // measure 34
0010
0001
1000
0001
1000
0001
1000
0001
,  // measure 35
1000
0001
0010
0100
0010
0100
0010
0100
,  // measure 36
0010
0100
1000
0001
1000
0001
1000
0001
,  // measure 37
1000
0001
1000
0100
0010
0001
1000
0100
,  // measure 38
0010
0001
1000
0100
0010
0001
1000
0100
,  // measure 39
0010
0001
1000
0100
0010
0001
0010
0001
,  // measure 40
0100
0001
0100
0001
0010
0001
0010
0001
,  // measure 41
0100
0001
0100
0001
1000
0100
1000
0100
,  // measure 42
1000
0100
1000
0100
0010
0001
0010
0001
,  // measure 43
0010
0001
0010
0001
0010
0100
1000
0100
,  // measure 44
1000
0001
1000
0001
1000
0010
1000
0010
,  // measure 45
1000
0100
1000
0100
1000
0100
0010
0001
,  // measure 46
0010
0100
1000
0100
0010
0001
0010
0100
,  // measure 47
1000
0100
0010
0001
0010
0100
1000
0100
,  // measure 48
0010
0001
1000
0001
1000
0001
1000
0001
,  // measure 49
1000
0001
1000
0001
1000
0001
1000
0001
,  // measure 50
1000
0001
1000
0001
1000
0001
0000
0000
,  // measure 51
0000
0000
0000
0000
0000
0000
0001
0010
,  // measure 52
0100
1000
0001
0010
0100
1000
0100
0010
,  // measure 53
0001
1000
0100
0010
0001
0010
0100
1000
,  // measure 54
0100
1000
0100
1000
0100
1000
0100
1000
,  // measure 55
0100
1000
0100
1000
0100
1000
0100
1000
,  // measure 56
0100
1000
0100
1000
0100
1000
0100
1000
,  // measure 57
0100
1000
0100
1000
0100
1000
0100
1000
,  // measure 58
0100
1000
0100
1000
0100
1000
0100
1000
,  // measure 59
0100
0010
0001
1000
0100
0010
0001
1000
,  // measure 60
0100
0010
0001
1000
0100
0010
0001
1000
,  // measure 61
0100
0010
0001
1000
0100
0010
0001
0010
,  // measure 62
0001
0010
0001
0010
0001
0100
0001
0100
,  // measure 63
0001
0100
0001
0100
0001
0100
0001
1000
,  // measure 64
0001
1000
0001
1000
0001
1000
0001
1000
,  // measure 65
0010
1000
0010
1000
0010
1000
0010
1000
,  // measure 66
0001
1000
0001
1000
0001
1000
0001
0010
,  // measure 67
0100
1000
0100
0010
0001
0010
0100
1000
,  // measure 68
0100
0010
0001
0010
0100
1000
0100
0010
,  // measure 69
0001
0010
0100
1000
0100
0010
0001
0010
,  // measure 70
0100
1000
0100
0010
0001
0010
0100
1000
,  // measure 71
0100
1000
0100
1000
0010
0100
0010
0100
,  // measure 72
0010
0100
0010
0100
0010
1000
0010
1000
,  // measure 73
0010
1000
0010
1000
0001
0100
0001
0100
,  // measure 74
0001
0100
0001
0100
0001
0100
0001
0100
,  // measure 75
0001
0100
0001
0010
0100
1000
0001
0010
,  // measure 76
0100
1000
0001
0010
0100
1000
0001
0010
,  // measure 77
0100
1000
0001
0010
0100
1000
0001
0010
,  // measure 78
0100
1000
0001
0010
0100
1000
0001
0010
,  // measure 79
0100
0001
1000
0010
0100
0001
1000
0010
,  // measure 80
0100
0001
0010
0100
1000
0001
0010
0100
,  // measure 81
1000
0001
0010
0100
1000
0100
0010
0001
,  // measure 82
1000
0100
0010
0001
1000
0100
0010
0001
,  // measure 83
0010
0100
1000
0000
1000
0001
0100
0010
,  // measure 84
1000
0001
0100
0010
1000
0001
0100
0010
,  // measure 85
1000
0001
0100
0010
1000
0001
0100
0010
,  // measure 86
1000
0001
0100
0010
1000
0001
0100
0010
,  // measure 87
1000
0001
0100
0000
0001
0010
0100
1000
,  // measure 88
0001
0010
0100
1000
0001
0010
0100
1000
,  // measure 89
0001
0010
0100
1000
0001
0010
0100
1000
,  // measure 90
0001
0010
0100
1000
0001
0010
0100
1000
,  // measure 91
0100
1000
0100
0010
0001
1000
0100
0010
,  // measure 92
0001
0010
0100
1000
0001
0010
0100
1000
,  // measure 93
0100
0010
0001
1000
0100
0010
0001
0010
,  // measure 94
0100
1000
0001
0010
0100
1000
0001
0010
,  // measure 95
0100
1000
0000
1000
0100
0010
0001
1000
,  // measure 96
0100
0010
0001
1000
0100
0010
0001
0010
,  // measure 97
0100
1000
0001
0010
0100
1000
0001
0010
,  // measure 98
0100
1000
0100
0010
0001
1000
0100
0010
,  // measure 99
0001
0010
0001
0000
0001
1000
0001
0100
,  // measure 100
0001
0010
0001
1000
0001
0100
0001
0010
,  // measure 101
0001
1000
0001
0100
0001
0010
0001
1000
,  // measure 102
0001
0100
0001
0010
0001
1000
0001
0100
,  // measure 103
0001
0010
0001
0010
0100
1000
0001
0010
,  // measure 104
0100
1000
0001
0010
0100
1000
0001
0010
,  // measure 105
0100
1000
0100
0010
0001
1000
0100
0010
,  // measure 106
0001
1000
0100
0010
0001
1000
0100
0010
,  // measure 107
0001
0010
0100
0001
1000
0010
0100
0001
,  // measure 108
1000
0010
0100
1000
0100
0010
0001
0100
,  // measure 109
0010
1000
0100
0010
0001
0100
0010
1000
,  // measure 110
0100
0010
0001
0100
0010
1000
0100
0010
,  // measure 111
0001
0100
0010
1000
0000
0000
1000
0100
,  // measure 112
0010
0001
0100
0010
1000
0100
0010
0001
,  // measure 113
0100
0010
1000
0100
0010
0001
0100
0010
,  // measure 114
1000
0100
0010
0001
0100
0010
1000
0100
,  // measure 115
0010
0001
0110
0000
0000
0000
0110
0000
;
