#TITLE:Power of The Dragonflame;
#SUBTITLE:;
#ARTIST:Rhapsody;
#TITLETRANSLIT:;
#SUBTITLETRANSLIT:;
#ARTISTTRANSLIT:;
#CREDIT:;
#BANNER:Power of the Dragonflame-banner.png;
#BACKGROUND:Power of the Dragonflame-bg.png;
#LYRICSPATH:;
#CDTITLE:!SulferDragon.png;
#MUSIC:Power of The Dragonflame.mp3;
#OFFSET:-0.275;
#SAMPLESTART:68.600;
#SAMPLELENGTH:11.540;
#SELECTABLE:YES;
#BPMS:0.000=190.000;
#STOPS:;
#BGCHANGES:;
// cache tags:
#FIRSTBEAT:1.000;
#LASTBEAT:824.000;
#SONGFILENAME:Songs/toune 3/Power of the Dragonflame (SulferDragon)/Power of the Dragonflame.sm;
#HASMUSIC:1;
#HASBANNER:1;
#MUSICLENGTH:267.003;
// end cache tags

//---------------dance-single - ----------------
#NOTES:
     dance-single:
     :
     Hard:
     13:
     1.000,1.000,1.000,0.367,1.000,2283.000,330.000,98.000,0.000,37.000:
0000
0000
0000
0000
1001
0010
0100
1000
0100
0000
1001
0010
0001
0100
0001
0000
,
1010
0100
0001
1000
0001
0000
1100
0010
1000
0001
1000
0100
1010
0100
1000
0010
,
1001
0010
0001
0100
1001
0100
0010
1000
0010
0000
1100
0001
0100
0010
0100
0000
,
0011
0100
0001
1000
0001
0000
0110
1000
0010
0000
0100
0000
1010
0001
0010
0100
,
1010
0100
0010
0001
1010
0001
0100
0010
0100
0000
0011
1000
0010
0100
0010
0000
,
1001
0100
1000
0010
1000
0000
0101
0010
0100
1000
0100
0000
1001
0010
0001
0010
,
1100
0010
0001
0100
0022
0000
0000
0000
0000
0000
1133
0000
0000
0000
1000
0000
,
0100
0010
2002
0000
0000
3113
0000
0100
,
0001
1000
0010
0100
1001
0100
0010
0001
0010
0000
1001
0100
1000
0010
1000
0000
,
0101
0010
1000
0001
1000
0000
0011
0100
0001
1000
0001
0010
0101
0010
0001
0100
,
1001
0100
1000
0010
1001
0010
0100
0001
0100
0000
0011
1000
0010
0100
0010
0000
,
1100
0010
1000
0001
1000
0000
0110
0001
0100
0000
0010
0000
0101
0010
0100
1000
,
0101
0010
0100
1000
0101
1000
0010
0100
0010
0000
1100
0001
0100
0010
0100
0000
,
1001
0010
0001
0100
0001
0000
1010
0100
0010
0001
0010
0000
1001
0100
1000
0100
,
0011
0100
1000
0010
2200
0000
0000
0000
0000
0000
3311
0000
0000
0000
0001
0000
,
0010
0100
2020
0000
0000
3131
0000
0001
,
0010
0100
2001
0000
0000
0000
0000
0000
,
0000
0000
0000
0000
3110
0001
0010
0001
0110
1000
0100
1000
0110
0001
0010
0100
,
1000
0100
0010
0001
0110
0000
1000
0000
0101
0000
0010
0000
1100
0000
0010
0000
,
1001
0100
1010
0001
0110
1000
0101
1000
,
0011
0100
1010
0001
1100
0010
1001
0100
,
0011
0100
1010
0001
0110
1000
0120
0000
,
0231
0000
1310
0001
0110
1000
0110
0001
,
1100
0010
0101
0010
1100
0001
1100
0010
,
0101
1000
0001
1000
0220
0000
0000
0000
0000
0000
1331
0000
0000
0000
0001
0000
,
1000
0000
0100
0000
0022
0000
0000
0000
0000
0000
1133
0000
0000
0000
0001
0100
,
1000
0100
0001
0010
1001
0000
0100
0000
1010
0000
0001
0000
0110
0000
0001
0000
,
1100
0010
1001
0100
0011
1000
0110
1000
,
0101
0010
1001
0100
0011
0100
1001
0010
,
1100
0001
0110
1000
0101
0010
1001
0000
,
1100
0000
0011
0100
1010
0001
1010
0100
,
1001
0010
0101
1000
0110
0001
0110
1000
,
0101
0010
0100
0001
0220
0000
0000
0000
0000
0000
1331
0000
0000
0000
1000
0000
,
0100
0000
0010
0000
0202
0000
0000
0000
0000
0000
1313
0000
0000
0000
0001
0100
,
1000
0100
0001
0010
2002
0000
0000
0000
0000
0000
0000
0000
0000
0000
0000
0000
,
0000
0000
3213
0000
0010
0020
0000
0000
,
0000
0000
0000
0000
0000
0000
0000
0000
0000
0000
0000
0000
0331
1000
0100
1000
,
0001
1000
0100
1000
0110
0001
0100
0010
1000
0100
1000
0001
0100
1000
0100
0010
,
1000
0001
1000
0100
0010
0001
0010
0100
1000
0010
1000
0100
0010
0001
0010
0100
,
1000
0001
1000
0010
0100
1000
0100
0010
1000
0001
1000
0100
0010
0001
0010
0100
,
1000
0010
1000
0010
0100
0001
0010
0100
1000
0001
1000
0001
0010
0100
0010
0100
,
1000
0010
1000
0010
1001
0010
0001
0100
0010
1000
0010
0100
0001
0010
0001
1000
,
0100
0001
0100
1000
0010
0100
0010
1000
0001
0100
0001
1000
0010
0001
0010
1000
,
0100
0010
0100
0010
0202
0000
0000
0000
0003
0000
0310
0000
0110
0000
0000
0000
,
1100
0000
0000
0000
0101
0000
0000
0000
1000
0100
0010
0001
0100
0010
1000
0100
,
0010
0001
0100
0010
1001
0000
0000
0000
0110
0000
0000
0000
1001
0010
1000
0100
,
0010
0001
0010
0100
1000
0001
1000
0010
0100
1000
0100
0010
1000
0001
1000
0100
,
0010
1000
0010
0100
1000
0001
1000
0100
0010
0001
0010
0100
1000
0010
1000
0001
,
0100
0010
0100
0001
1000
0010
1000
0100
0010
0001
0010
0001
0100
0010
1000
0001
,
0100
0010
0100
0010
1000
0001
1000
0001
0100
0010
0100
0010
1100
0010
0100
0001
,
0010
1000
0010
0100
1000
0001
1000
0010
0100
0001
0100
0010
1000
0100
1000
0001
,
0010
0100
0010
0001
0100
0010
0100
0001
1000
0010
1000
0010
2002
0000
0000
0000
,
0003
3001
0101
0000
0110
0000
1001
0000
,
0001
0100
0010
1000
0100
0010
0001
0100
0010
1000
0100
0010
1001
0000
0000
0000
,
1001
0110
1100
0001
1100
0110
0011
1000
,
0101
1100
0101
0010
1100
0101
0011
0100
,
1010
0001
0110
1000
0100
0011
0100
0010
,
1100
0000
0010
0000
0101
0000
1000
0000
0010
0000
0100
0000
1001
0010
0100
1000
,
0100
0010
0001
0010
1001
0000
0100
0000
0011
0000
1000
0000
0110
0000
1000
0000
,
0011
1010
1100
0010
0101
1100
1010
0100
,
0001
0010
0101
0000
1001
0000
0100
0000
1010
0000
0001
0000
1100
0000
0010
0000
,
0101
0000
1100
0000
2001
0010
0001
0000
0100
0010
0100
0000
0001
0000
0010
0000
,
3100
0001
0100
0000
0010
0000
1000
0000
0010
0100
0010
0000
1000
0100
0010
0001
,
0010
0100
1000
0010
1001
0100
0010
1000
0100
0010
0100
1000
0001
0100
0010
1000
,
0100
0010
0100
1000
0010
0100
0010
0100
0001
1000
0100
0001
0100
1000
0010
0100
,
0001
0010
0100
0010
0001
0100
0010
1000
0001
0010
0001
0100
1000
0100
0001
1000
,
0010
0100
0010
0100
0001
0010
0100
1000
0100
0010
0001
0100
0010
1000
0001
0010
,
0001
0100
0010
0100
1010
0001
0100
0010
1000
0010
1000
0100
0001
0100
1000
0010
,
0100
0001
0100
0001
0010
0100
0010
0001
0100
0010
1000
0001
1000
0100
0010
0001
,
0100
0010
0100
0010
0202
0000
0000
0000
0300
0000
1003
0000
1001
0000
0000
0000
,
1100
0000
0000
0000
0101
0000
0000
0000
0001
0010
0100
1000
0001
0100
0010
1000
,
0100
0010
0001
0100
1001
0000
0000
0000
1010
0000
0000
0000
0110
0001
0100
0010
,
1000
0001
1000
0100
0010
0001
1000
0100
0010
0001
0010
0100
1000
0010
1000
0010
,
0100
0001
1000
0010
1000
0001
0010
0100
1000
0010
0001
0010
1000
0001
0010
0100
,
1000
0010
1000
0100
0001
0100
1000
0001
0010
0100
0010
0100
1000
0001
0100
0010
,
0100
0001
1000
0100
0010
0001
0100
0010
0100
0001
0010
0100
0011
1000
0001
0100
,
0001
0010
1000
0010
0100
1000
0010
0100
0001
1000
0001
1000
0100
0010
0100
1000
,
0001
0100
0010
1000
0010
0100
0001
0010
0100
1000
0100
1000
0202
0000
0000
0000
,
0003
0310
1010
0000
0011
0000
1001
0000
,
1000
0010
0100
0001
1000
0100
0010
0001
1000
0010
0100
0001
0110
0000
0000
0000
,
1001
0110
0011
1000
0011
0110
1100
0001
,
1010
0011
1010
0100
0011
1010
1100
0010
,
0101
1000
0110
0001
0010
1100
0010
0100
,
0011
0100
1010
0001
0100
0010
1002
0000
,
0113
1000
1001
0010
1100
0001
0110
0001
,
1100
0101
0011
0100
1010
0011
0101
0010
,
1000
0100
1010
0000
1001
0000
0010
0000
0101
0000
1000
0000
0011
0000
0100
0000
,
1010
0000
0011
0000
1002
0100
1000
0000
0010
0100
0010
0000
1000
0000
0100
0000
,
0013
1000
0010
0000
0100
0000
0001
0000
0100
0010
0100
0000
0001
0000
0010
0100
,
1000
0010
1000
0100
1001
0010
0100
0001
0010
0001
0100
0010
1000
0100
1000
0010
,
0100
0001
0010
0001
1000
0100
0010
0001
0010
0001
0100
0010
1000
0100
0001
0100
,
1000
0010
0100
0001
0110
0001
1000
0010
0100
0001
0010
0001
1000
0100
0010
0001
,
0010
0001
0100
0010
1000
0100
1000
0100
0010
0001
0100
0010
1000
0001
1000
0100
,
0010
0001
0010
0100
1010
0100
0001
1000
0010
0001
0010
1000
0100
0010
0001
0100
,
0001
0010
0100
1000
0010
1000
0010
0100
0001
1000
0001
0100
0010
1000
0100
0001
,
0100
1000
0010
0100
0011
1000
0001
1000
0010
0100
0010
1000
0100
1000
0010
0100
,
0001
0010
0001
0100
0010
0100
0001
1000
0001
0010
0100
1000
0110
0000
0000
0000
,
0011
0000
0000
0000
1100
0010
0100
0001
0010
0100
0010
0001
1000
0010
0100
0001
,
0100
0001
0010
0100
1000
0010
0001
0010
1000
0100
0010
0001
1000
0100
1000
0010
,
0100
0001
1000
0010
0101
0010
0100
0001
0010
0001
0100
0010
1000
0001
1000
0001
,
0100
0010
1000
0001
1000
0010
0100
0001
0010
1000
0010
0001
0100
0010
1000
0100
,
0010
0001
0100
0001
2020
0000
0000
0000
0000
0000
0000
0000
0000
0000
0000
0000
,
0000
3030
0022
0000
0000
0000
0000
0000
,
0000
0033
0202
0000
0000
0000
0000
0000
,
0000
0000
0303
0000
2002
0000
0000
0000
0000
0000
0000
0000
3013
0100
0001
0010
,
0001
0100
0010
0000
1001
0100
0001
0010
0100
1000
0010
0100
0010
1000
0100
0010
,
0001
1000
0100
0010
0100
1000
0001
0100
0010
1000
0100
0001
0100
1000
0010
0100
,
0001
0010
0100
1000
0100
0010
0001
0100
0010
1000
0001
0100
0001
1000
0100
0010
,
0001
0100
0010
1000
0010
0100
0001
0010
0100
1000
0001
0010
1200
0000
0000
0000
,
0321
0000
0000
0000
1031
0100
0001
0010
0001
0100
0010
1000
0100
0010
0001
0100
,
0001
0010
0100
1000
0001
0100
0010
1000
0010
0100
0001
0010
0100
1000
0010
0001
,
0010
1000
0001
1000
0220
0000
0000
0000
0031
0000
1301
0000
0000
0000
0110
0000
,
0001
1010
0022
0000
0130
1103
0000
0110
,
1000
0000
0101
0000
0110
0001
0010
0100
1000
0010
1000
0100
0010
0001
0100
1000
,
0100
0010
1000
0100
0010
0001
0010
0100
1000
0010
0100
0001
0100
0010
1000
0001
,
0100
0010
0100
0001
0010
0100
1000
0001
1000
0010
0100
0001
0010
1000
0010
0001
,
0100
0010
1000
0001
1000
0100
0010
0001
0010
0100
1000
0010
0101
0000
0000
0000
,
1010
0000
0000
0000
1001
0100
0010
1000
0100
0001
0100
1000
0010
0100
0001
1000
,
0001
0010
0100
1000
0001
0010
0001
1000
0100
0010
0001
1000
0001
0010
0100
1000
,
0001
0010
0100
1000
0202
0000
0000
0000
0013
0000
1310
0000
0000
0000
1100
0000
,
0010
0000
0101
0000
2200
0000
0000
0000
0310
0000
3011
0000
0000
0000
0001
0100
,
1000
0100
0001
0010
2002
0000
0000
0000
0000
0000
0000
0000
0000
0000
0000
0000
,
0000
0000
0000
0000
,
3103
1002
0000
0100
,
0013
0000
2100
0010
0001
0100
0001
0000
,
3010
1020
0000
0100
,
0031
2002
0000
0000
,
3013
0000
0201
0000
0010
0001
1000
0000
,
0310
0000
1002
0000
1000
0010
0100
0000
,
1003
2100
0010
0001
,
3100
0000
0001
0000
0210
0000
0000
0000
0000
0000
0000
0000
0301
0010
1000
0010
,
0001
0100
1000
0100
1001
0010
0100
0001
0010
0100
0010
0001
0100
1000
0100
0010
,
1000
0100
0010
0001
0100
0001
0100
0010
1000
0100
0010
0001
0010
0100
1000
0010
,
0100
0010
1000
0100
0010
0001
0100
0010
1000
0001
1000
0100
0010
0001
0010
0100
,
1000
0010
0100
0001
0010
0001
0010
0100
1000
0001
0100
1000
0100
0001
0010
0100
,
1000
0010
0100
0001
0010
1000
0010
0001
0100
0010
0100
0010
1000
0001
0010
0100
,
1000
0100
0010
0001
0100
0010
1000
0100
0001
0100
1000
0010
0100
0001
1000
0100
,
0010
0100
0010
0001
0100
1000
0100
0001
1000
0010
1000
0010
0100
0001
1000
0010
,
1000
0100
0010
0001
0100
0010
1000
0001
1000
0100
0010
0001
0100
0010
0100
0010
,
1000
0100
0001
0100
1000
0010
0100
0001
1000
0100
0010
0001
0100
1000
0100
0001
,
0010
1000
0010
0001
0110
0000
0000
0000
0001
0010
0100
1000
0100
0000
0000
0000
,
1000
0010
0100
0001
1100
0000
0000
0000
1000
0100
0010
0001
0010
0000
0000
0000
,
0001
0100
0010
1000
0011
0000
0000
0000
0010
0100
1000
0001
1000
0000
0000
0000
,
0110
0001
0010
0100
1000
0010
0100
0010
1001
0010
0100
0001
1000
0100
0010
0001
,
1100
0001
1000
0010
0100
0001
0010
0100
0011
0100
0001
1000
0100
0010
0001
0000
,
0000
0000
0000
0000
1000
0100
0010
0001
1010
0000
0100
0000
0010
0100
1000
0010
,
1000
0000
0100
0000
0010
0001
0100
0010
0100
0000
0001
0000
0100
0010
1000
0001
,
1000
0000
0100
0000
0010
0001
1000
0100
1000
0000
0010
0000
0100
0001
1000
0010
,
1000
0000
0001
0000
1000
0100
0010
0001
0100
0010
1000
0100
0010
0001
0010
0001
,
1000
0000
0000
0010
0000
0000
1000
0000
0100
0000
0010
0000
0001
0000
0000
0100
0000
0000
0010
0000
0000
1000
0000
0000
0100
0000
0000
0010
0000
0000
0100
0000
0000
0010
0000
0000
0001
0000
0000
1000
0000
0000
0001
0000
0000
1000
0000
0000
,
0100
0010
0100
1000
0001
0010
0100
1000
0010
0000
0100
0001
1000
0100
0001
0100
,
1000
0010
0001
0010
1001
0100
0001
0010
1000
0010
0100
1000
0100
0010
0001
1000
,
0001
0010
0100
1000
0010
0001
0010
0100
0001
1000
0100
0010
0100
0010
0001
0100
,
0010
1000
0001
0010
2002
0000
0000
0000
0000
0000
0000
0000
3123
0000
0000
0000
,
2130
3102
0000
0213
,
0000
0000
0000
0000
1310
0001
0010
0100
1000
0010
1000
0100
0010
0001
0100
1000
,
0100
0001
0010
0100
1000
0010
1000
0001
0010
0100
1000
0010
1000
0010
0100
0001
,
0010
0100
1000
0010
2002
0000
0000
0000
0000
0000
0000
0000
3213
0000
0000
0000
,
0312
0000
0000
0000
2013
0000
0000
0000
0000
0000
0000
0000
3001
0010
0100
1000
,
0100
0010
0001
0000
1001
0100
0010
1000
0100
0010
0001
0010
0100
1000
0010
0100
,
0001
0010
0100
1000
0101
1000
0010
0100
1010
0100
0001
0010
1001
0000
0100
0000
,
1001
1010
0101
0010
1100
0101
0011
1000
,
0101
1100
0110
0001
1100
0010
0101
1000
,
0010
1001
0100
0001
1010
0100
0011
0100
,
0010
1000
0210
0000
0301
1000
1001
0010
,
0101
0010
1100
0010
0101
1100
1001
0010
,
0101
0000
0011
0000
1001
0000
0010
0000
0100
1000
0110
0000
0101
0000
0010
0000
,
1100
0000
0001
0000
0110
0000
1000
0000
0011
0000
1010
0000
2001
0100
0001
0000
,
0010
0100
0010
0000
0001
0000
0100
0000
3010
0001
0010
0000
1001
0000
0100
0000
,
0001
1000
0001
0000
0100
0010
1000
0100
0010
0001
0100
0010
1100
0010
1000
0001
,
0100
0001
0010
0100
0010
0001
1000
0100
0010
0100
1000
0010
0100
0001
1000
0010
,
1000
0010
0100
0001
0010
1000
0010
0001
0100
0010
1000
0100
1001
0010
0100
0001
,
1000
0010
1000
0100
0010
0001
0100
1000
0100
0010
1000
0100
1000
0001
0010
0001
,
0010
0100
1000
0010
1000
0001
0010
0100
1000
0010
0100
0010
0101
1000
0010
0100
,
0001
1000
0001
0010
0100
1000
0001
0100
1000
0100
0001
0010
0100
1000
0100
1000
,
0010
0100
0001
1000
0001
0010
0100
1000
0100
0010
0001
0100
1001
0010
1000
0100
,
0010
0001
0010
0100
1000
0001
1000
0001
0100
0010
1000
0001
0010
0001
0100
0010
,
1000
0100
0010
0001
1010
0000
0000
0000
0101
0000
0000
0000
0110
1000
0001
0010
,
0100
1000
0100
0010
0001
1000
0100
0010
0100
1000
0010
0001
0010
1000
0100
0010
,
0001
0100
0010
0100
0001
1000
0100
0010
0100
0010
0001
0100
1010
0100
0001
1000
,
0010
1000
0100
0010
1000
0010
0100
1000
0001
0010
0001
0100
0010
0100
0010
1000
,
0100
0010
0001
0010
0100
1000
0010
0100
0001
1000
0010
0100
2020
0000
0000
0000
,
0000
0000
0000
0000
0000
3030
2200
0000
,
0000
0000
0000
0000
0000
3300
0202
0000
,
0000
0000
0000
0000
0000
0303
2002
0000
,
0000
0000
0000
0000
3103
0010
1000
0100
0010
0001
0010
0100
1001
0010
0001
0100
,
0001
0010
0100
1000
0010
0001
0010
1000
0100
0010
0001
0010
0001
0100
0010
1000
,
0100
0010
0100
1000
0001
0100
0010
1000
0100
0010
0001
0010
0101
1000
0010
0001
,
0010
1000
0100
0010
0001
0100
0010
0100
0010
1000
0001
0010
0100
0010
0001
0100
,
0010
1000
0001
0100
0001
0010
0100
0010
0100
1000
0010
0100
1010
0100
0001
1000
,
0010
0100
0010
1000
0100
0010
0001
0100
0001
1000
0010
0100
0001
1000
0001
1000
,
0010
0100
0001
1000
0001
0010
0100
1000
0010
0100
0010
0100
0022
0000
0000
0000
,
0000
0000
0000
0000
0000
0000
0000
0000
1133
0000
0000
0000
1001
0100
0010
0100
,
0001
0010
0100
1000
0100
0010
0001
0010
0100
1000
0010
0100
0011
0100
0010
1000
,
0100
0010
0100
1000
0001
0100
1000
0100
0010
1000
0001
1000
0100
0010
0100
0010
,
0001
0100
0010
0100
0001
0010
0100
1000
0010
0100
0010
0100
1010
0001
0100
0010
,
1000
0100
0010
0001
0010
0100
1000
0010
0100
0001
0010
1000
0010
0001
0100
0010
,
1000
0001
0100
1000
0100
0001
0010
0100
1000
0001
0100
0001
0220
0000
0000
0000
,
0000
0000
0000
0000
0000
0330
2002
0000
,
0000
0000
0000
0000
0000
3003
0202
0000
,
0000
0000
0000
0000
0000
0303
2200
0000
,
0000
0000
0000
0000
0000
3300
2001
0000
,
0010
0100
0010
0100
,
0010
0100
0010
3002
,
0100
0010
0100
0010
,
0100
0000
0000
0000
1003
0100
0010
0001
1000
0010
0100
0001
0220
0000
0000
0000
,
0330
0000
0000
0000
;
