#TITLE:Kyle's mom is a bitch;
#SUBTITLE:;
#ARTIST:South Park;
#TITLETRANSLIT:;
#SUBTITLETRANSLIT:;
#ARTISTTRANSLIT:;
#CREDIT:;
#BANNER:Kyle-B.jpg;
#BACKGROUND:cartman-bg.jpg;
#LYRICSPATH:;
#CDTITLE:!IzzyTitle.jpg;
#MUSIC:Kyle.mp3;
#OFFSET:-0.428;
#SAMPLESTART:20.363;
#SAMPLELENGTH:12.000;
#SELECTABLE:YES;
#BPMS:0.000=158.020;
#STOPS:;
#BGCHANGES:;
// cache tags:
#FIRSTBEAT:0.000;
#LASTBEAT:188.750;
#SONGFILENAME:Songs/Izzy/Kyle's M()M/Kyle.sm;
#HASMUSIC:1;
#HASBANNER:1;
#MUSICLENGTH:74.994;
// end cache tags

//---------------dance-single - ----------------
#NOTES:
     dance-single:
     :
     Hard:
     11:
     1.000,1.000,1.000,0.440,1.000,450.000,89.000,33.000,0.000,0.000:
2002
0000
0000
0000
3003
0000
1000
0100
1000
0100
1000
0000
1000
0100
0010
0001
,
1000
0000
0100
0010
0000
1000
0100
0010
0001
1000
0100
0010
0000
1001
0000
1001
,
0000
1001
0000
1001
0000
0100
1000
0100
0010
0001
1000
0100
0000
0100
1000
0100
,
0010
0001
1000
0100
0010
0001
1000
0100
0010
0001
1000
0100
1000
0001
0000
1001
,
0000
1001
0000
1001
0000
0000
0000
0000
1000
0000
0001
0010
0001
0000
1000
0000
,
1000
0100
0010
0001
0000
0001
0000
1000
0100
1000
0000
0001
0010
0001
0010
0100
,
0000
1100
0000
1100
0000
0000
1000
0000
0001
0010
0100
1000
0110
0000
0100
0000
,
0001
0010
0100
0010
0101
0000
1000
0000
0001
0010
0100
1000
0100
0010
0001
0010
,
0100
0000
0100
0000
1001
0000
1001
0000
2000
3200
0320
0030
0002
0003
0002
0003
,
0100
1000
0100
0010
0001
0010
0100
1000
0100
0010
0001
0010
0100
0010
0001
0010
,
2000
0000
0000
3000
0000
0000
0002
0000
0000
0003
0000
0000
2000
0000
0000
3000
0000
0000
0002
0000
0000
0003
0000
0000
0000
0110
0000
0000
0000
0000
2002
0000
0000
3003
0000
0000
1000
0000
0000
0100
0000
0000
0010
0000
0000
0100
0000
0000
,
1000
0000
1000
0000
1000
0100
0010
0001
0001
0000
0011
0000
1000
0001
0010
0001
,
1000
0100
0001
0100
1000
0000
0000
1000
0100
0010
0000
0010
0100
1000
0000
1000
,
0000
1000
0100
0000
1001
0000
1000
0100
0010
0100
1000
0000
0001
0010
0100
0010
,
0001
0000
0010
0000
0011
0000
1000
0100
0010
0100
1000
0000
1001
0000
1000
0100
,
0010
0001
0010
0100
1000
0000
1000
0100
0010
0100
2000
3000
0110
0000
0110
0000
,
0110
1001
1100
0110
1001
1100
1000
0110
,
1000
0011
1000
0011
1001
1000
0100
0010
,
2002
3003
0001
0000
2000
3000
1001
1001
,
0110
0000
0000
0000
0110
0000
1100
0000
0110
0000
0011
0000
0110
0100
1000
0000
,
0110
0000
1001
0000
1000
0100
0010
0001
,
0010
0000
0100
0000
1000
0000
0100
0000
0010
0001
0001
0010
0010
0000
0100
0000
,
1000
0100
0010
1001
0000
0000
0000
0000
1000
0100
0010
0001
0010
0100
1000
0100
,
0010
0100
1000
0001
0010
0100
0010
0001
1000
0100
0010
0001
0010
0100
1000
0100
,
0010
0100
0010
0100
0010
0000
1000
0000
0010
0001
0010
0100
1000
0100
0010
0100
,
1000
0100
0010
0001
0010
0100
0010
0100
0010
0100
1000
0100
0010
0001
0010
0100
,
1000
0100
0010
0001
0001
0000
0000
0000
0000
0001
0010
0100
0010
0001
0010
0100
,
1000
0100
0010
0001
0010
0100
0010
0100
0010
0100
1000
0100
0010
0001
0010
0100
,
0010
0100
1000
0100
0010
0001
0000
0000
0000
0100
0010
0100
0010
0001
0010
0100
,
1000
0100
0010
0001
0010
0100
0010
0100
0010
0100
1000
0100
0010
0001
0010
0100
,
0010
0001
1000
0100
0010
0100
1000
0000
1000
0100
0010
0001
0000
0010
0000
0010
,
0000
1001
0000
1001
0000
0110
0000
1000
0100
0010
0001
0010
0100
1000
0100
0010
,
0001
0000
0001
0000
0011
0000
1000
0100
1000
0100
0010
0100
1000
0000
0001
0010
,
0001
0010
0010
0000
0101
0000
1001
0000
1001
0000
0110
0000
1100
0000
0110
0000
,
0011
0110
2002
3003
1001
0110
1100
0110
,
0011
0110
1001
0110
1100
0100
0110
0010
,
0022
0000
0033
0000
0000
0000
0000
0000
2002
0000
3003
1001
0000
1001
0000
0110
,
0000
0000
0000
1001
0000
0110
0000
1100
0000
0110
0000
0001
0010
0100
0000
0110
,
0000
0000
1000
0100
0000
0010
0001
0000
,
2000
0000
0200
0000
0000
3300
0000
0000
1001
0000
0000
0000
0000
0000
1001
0000
,
1001
0000
0110
1001
0000
0110
1001
0000
,
0000
1001
0000
0000
0110
0000
0000
0110
,
0000
0002
0000
0000
0000
0000
0003
0000
0000
2002
0000
0000
0000
0000
0000
0000
,
0000
0000
0000
3003
0000
0000
0000
0000
,
1000
0000
0100
0000
0010
0000
0001
0010
0001
0100
0000
0000
0000
0200
0000
0300
,
2000
0000
0000
0000
0000
3000
0000
0000
0000
0000
0000
0000
0000
2002
0000
0000
,
0000
0000
0000
3003
0000
0000
0000
0000
0000
0000
0000
1000
0002
0000
0000
0000
,
0000
0000
0000
0003
0000
0000
0000
0000
0000
0000
0000
0000
0000
0000
0000
0000
;
