#TITLE:Cold Pizza;
#SUBTITLE:;
#ARTIST:m1dy;
#TITLETRANSLIT:;
#SUBTITLETRANSLIT:;
#ARTISTTRANSLIT:;
#CREDIT:;
#BANNER:../fthescorept1bn.png;
#BACKGROUND:../fthescorept1bg.png;
#LYRICSPATH:;
#CDTITLE:;
#MUSIC:Cold Pizza.ogg;
#OFFSET:-0.047;
#SAMPLESTART:0.400;
#SAMPLELENGTH:7.910;
#SELECTABLE:YES;
#BPMS:0.000=360.000;
#STOPS:;
#BGCHANGES:;
// cache tags:
#FIRSTBEAT:0.000;
#LASTBEAT:78.000;
#SONGFILENAME:Songs/Fuck The Score Part I/Cold Pizza [Dossar]/Cold Pizza.sm;
#HASMUSIC:1;
#HASBANNER:1;
#MUSICLENGTH:13.740;
// end cache tags

//---------------dance-single - ----------------
#NOTES:
     dance-single:
     :
     Challenge:
     26:
     1.000,1.000,0.073,0.073,1.000,201.000,1.000,1.000,0.000,0.000:
0001
1000
0001
1000
0001
1000
0001
1000
0001
0000
0100
0000
0010
0000
1000
0000
,
0001
1000
0010
0100
0001
1000
0010
1000
,
0001
0100
0001
1000
0100
0010
0001
0010
,
0100
1000
0001
1000
0100
0010
0001
1000
,
0100
0010
0100
1000
0001
0100
0010
1000
,
0001
1000
0010
0100
0001
1000
0010
1000
,
0001
0100
0001
1000
0100
0010
0001
0010
,
0100
1000
0001
1000
0100
0010
0001
1000
,
0100
0010
0100
1000
0001
0100
0010
1000
,
0001
1000
0010
0100
0001
1000
0010
1000
,
0001
0100
0001
1000
0100
0010
0001
0010
,
0100
1000
0001
1000
0100
0010
0001
1000
,
0100
0000
0010
0000
0001
0000
0000
0000
1000
0001
1000
0001
1000
0001
1000
0001
,
0100
0010
0100
0001
1000
0001
0100
0010
0100
0010
1000
0001
1000
0001
0100
0001
,
0100
0010
1000
0010
0100
0001
1000
0001
1000
0010
0100
0010
0100
0001
1000
0001
,
1000
0010
1000
0010
0100
0001
0100
0001
1000
0001
1000
0001
1000
0010
0100
0010
,
1000
0001
1000
0001
1000
0001
1000
0001
1000
0100
0010
0001
1000
0100
0010
0001
,
1000
0100
0010
0001
1000
0100
0010
0001
1000
0100
0010
0001
1000
0100
0010
0001
,
1000
0100
0010
0001
1000
0100
0010
0001
2000
0000
0000
0000
0000
0000
0000
0000
,
3000
0000
1001
0000
;

//---------------dance-single - ----------------
#NOTES:
     dance-single:
     :
     Easy:
     15:
     1.000,1.000,0.073,0.146,0.873,159.000,1.000,2.000,0.000,0.000:
2000
0000
0000
0000
3001
0100
0010
1000
,
0001
1000
0010
0100
0001
1000
0010
1000
,
0001
0100
0001
1000
0100
0010
0001
0010
,
0100
1000
0001
1000
0100
0010
0001
1000
,
0100
0010
0100
1000
0001
0100
0010
1000
,
0001
1000
0010
0100
0001
1000
0010
1000
,
0001
0100
0001
1000
0100
0010
0001
0010
,
0100
1000
0001
1000
0100
0010
0001
1000
,
0100
0010
0100
1000
0001
0100
0010
1000
,
0001
1000
0010
0100
0001
1000
0010
1000
,
0001
0100
0001
1000
0100
0010
0001
0010
,
0100
1000
0001
1000
0100
0010
0001
1000
,
0010
0000
0100
0000
0001
0000
1000
0000
0001
0100
0010
1000
0001
0000
0000
0000
,
1000
0010
0100
0001
1000
0000
0000
0000
0001
0100
0010
1000
0001
0000
0000
0000
,
1000
0010
0100
0001
1000
0000
0000
0000
0001
0010
0100
1000
0001
0000
0000
0000
,
1000
0100
0010
0001
1000
0000
0000
0000
0001
0010
0100
1000
0001
0000
0000
0000
,
1000
0100
0010
0001
1000
0000
0000
0000
0001
0100
0010
1000
0001
0000
0000
0000
,
1000
0010
0100
0001
1000
0000
0000
0000
0001
0100
0010
1000
0001
0000
0000
0000
,
1000
0010
0100
0001
1000
0000
0000
0000
0002
0000
0000
0000
0000
0000
0000
0000
,
0003
0000
1001
0000
;

//---------------dance-single - ----------------
#NOTES:
     dance-single:
     :
     Medium:
     18:
     1.000,1.000,0.073,0.146,1.000,171.000,1.000,2.000,0.000,0.000:
2000
0000
0000
0000
3001
0100
0010
1000
,
0001
1000
0010
0100
0001
1000
0010
1000
,
0001
0100
0001
1000
0100
0010
0001
0010
,
0100
1000
0001
1000
0100
0010
0001
1000
,
0100
0010
0100
1000
0001
0100
0010
1000
,
0001
1000
0010
0100
0001
1000
0010
1000
,
0001
0100
0001
1000
0100
0010
0001
0010
,
0100
1000
0001
1000
0100
0010
0001
1000
,
0100
0010
0100
1000
0001
0100
0010
1000
,
0001
1000
0010
0100
0001
1000
0010
1000
,
0001
0100
0001
1000
0100
0010
0001
0010
,
0100
1000
0001
1000
0100
0010
0001
1000
,
0010
0000
0100
0000
0001
0000
1000
0000
0001
0100
0010
1000
0001
1000
0010
0100
,
0001
0000
0000
0000
1000
0010
0100
0001
1000
0001
0100
0010
1000
0000
0000
0000
,
0001
1000
0100
1000
0001
0010
0100
1000
0001
0000
0000
0000
1000
0001
0010
0001
,
1000
0100
0010
0001
1000
0000
0000
0000
0001
0100
0010
1000
0001
1000
0010
0100
,
0001
0000
0000
0000
1000
0010
0100
0001
1000
0001
0100
0010
1000
0000
0000
0000
,
0001
0010
0100
1000
0001
0010
0100
1000
0001
0000
0000
0000
1000
0100
0010
0001
,
1000
0100
0010
0001
1000
0000
0000
0000
0200
0000
0000
0000
0000
0000
0000
0000
,
0300
0000
1001
0000
;

//---------------dance-single - ----------------
#NOTES:
     dance-single:
     :
     Hard:
     22:
     1.000,1.000,0.073,0.146,1.000,177.000,1.000,2.000,0.000,0.000:
2000
0000
0000
0000
3001
0100
0010
1000
,
0001
1000
0010
0100
0001
1000
0010
1000
,
0001
0100
0001
1000
0100
0010
0001
0010
,
0100
1000
0001
1000
0100
0010
0001
1000
,
0100
0010
0100
1000
0001
0100
0010
1000
,
0001
1000
0010
0100
0001
1000
0010
1000
,
0001
0100
0001
1000
0100
0010
0001
0010
,
0100
1000
0001
1000
0100
0010
0001
1000
,
0100
0010
0100
1000
0001
0100
0010
1000
,
0001
1000
0010
0100
0001
1000
0010
1000
,
0001
0100
0001
1000
0100
0010
0001
0010
,
0100
1000
0001
1000
0100
0010
0001
1000
,
0010
0000
0100
0000
0001
0000
1000
0000
0001
0100
0010
1000
0001
0100
0001
1000
,
0010
0100
0001
1000
0001
0000
0000
0000
1000
0010
0100
0001
1000
0010
1000
0001
,
0100
0010
1000
0001
1000
0000
0000
0000
0001
1000
0100
1000
0001
0010
0100
1000
,
0001
0010
0100
1000
0001
0000
0000
0000
1000
0001
0010
0001
1000
0100
0010
0001
,
1000
0100
0010
0001
1000
0000
0000
0000
0001
0100
0001
1000
0010
0100
0001
1000
,
0010
1000
0001
0100
0001
0000
0000
0000
1000
0010
1000
0001
0100
0010
1000
0001
,
0100
0001
1000
0010
1000
0000
0000
0000
0002
0000
0000
0000
0000
0000
0000
0000
,
0003
0000
1001
0000
;
