#TITLE:Take Me Back;
#SUBTITLE:;
#ARTIST:KaW;
#TITLETRANSLIT:;
#SUBTITLETRANSLIT:;
#ARTISTTRANSLIT:;
#CREDIT:;
#BANNER:Take Me Back.png;
#BACKGROUND:Take Me Back-bg.JPG;
#LYRICSPATH:;
#CDTITLE:;
#MUSIC:Take Me Back.mp3;
#OFFSET:-0.060;
#SAMPLESTART:68.531;
#SAMPLELENGTH:12.000;
#SELECTABLE:YES;
#BPMS:0.000=87.500,16.000=175.000,304.000=87.500;
#STOPS:;
#BGCHANGES:;
// cache tags:
#FIRSTBEAT:0.000;
#LASTBEAT:322.250;
#SONGFILENAME:Songs/other/Take Me Back/Take Me Back.sm;
#HASMUSIC:1;
#HASBANNER:1;
#MUSICLENGTH:123.486;
// end cache tags

//---------------dance-single - HEAVY-9----------------
#NOTES:
     dance-single:
     HEAVY-9:
     Hard:
     9:
     0.641,0.748,0.332,0.470,0.194,451.000,41.000,58.000,0.000,3.000:
0001
0010
0100
1000
0000
1000
0100
0010
0001
0010
0100
2000
0000
0000
0000
0000
,
3001
0100
0010
1000
0000
1000
0010
0100
0002
0000
0000
0000
0000
0000
0003
0000
,
0001
0010
0100
1000
0000
0001
0010
0001
0010
1000
0100
0020
0000
0000
0000
0000
,
0031
0100
1000
0010
0000
0001
0010
0100
2000
0000
0000
0000
0000
0000
0000
0000
,
3001
0010
0100
1000
0000
1000
0010
0100
,
0002
0010
1003
0000
,
1000
0100
1000
0001
0000
0001
0100
0010
,
2000
0100
3010
0000
,
0001
0010
0001
1000
0000
0100
0000
1000
,
0020
0100
1030
0000
,
1000
0100
1000
0010
0000
0001
0000
0100
,
2000
0000
0000
0000
0010
0000
0000
0000
3001
0000
0001
0000
0100
0010
0100
0010
,
0000
0001
0010
0100
1000
0000
1000
0000
,
0100
0010
0100
0000
0000
1000
0010
0000
,
0100
0001
0010
0001
0200
0000
0010
0000
,
0001
0000
0301
0000
0010
0100
1000
0000
,
1000
0001
0100
0010
0100
0001
0010
0100
,
2000
0000
3001
0000
0100
0010
0100
0000
,
0001
0010
0100
1000
0001
0100
0010
0100
,
0001
0010
0100
1000
0001
0001
0001
0000
,
1000
0100
0001
1000
0100
0001
1000
0100
,
0012
0000
0000
0000
1000
1000
1000
0000
,
0013
1000
0001
0010
1000
0001
0010
1000
,
2100
0000
0000
0000
0100
0100
0100
0000
,
3001
0100
0010
0001
0100
0010
0001
0100
,
1020
0000
0000
0000
0001
0001
0001
0000
,
1030
0000
0001
0000
0100
0000
1000
0000
0001
0000
0100
0000
0000
0000
1000
0001
,
2000
0000
3000
0000
,
0001
0100
0010
1000
0100
0010
0001
0100
,
0000
0100
0000
0010
0100
0000
0100
0000
,
1000
0010
0100
0001
0010
0001
0100
0001
,
0000
0001
0000
0100
1000
0000
1100
0000
,
0001
0000
1100
0000
0001
0100
1000
0000
,
0100
0000
1100
0000
1000
0100
0001
0100
,
1000
0000
1010
0000
0001
0010
0000
0010
,
0001
0000
0000
0000
1100
0000
0000
0000
0001
0010
0000
0000
0001
0010
0000
0000
,
2000
0000
3200
0000
0320
0000
0032
0200
,
0003
0320
0000
2030
0200
3000
0320
0000
,
0032
0000
2003
0000
3020
0000
0230
0002
,
0300
0023
0000
0230
2000
0300
3010
1000
,
0002
0000
0023
0000
0230
0000
2300
0020
,
3000
0230
0000
0302
0020
0003
0230
0000
,
2300
0000
3020
0000
2030
0000
3002
0020
,
0003
0032
0000
0103
0010
1000
0100
0100
,
1001
0000
0000
1001
0000
1001
0000
0000
,
0110
0000
0000
1100
0000
1100
0000
0000
,
0101
0000
0000
0011
0000
0011
0000
0000
,
1001
0000
0000
0000
0000
0000
0100
0000
0000
0000
0010
0000
0000
0000
0100
0010
,
0100
0011
1000
0101
,
1000
0000
0100
0001
0010
0001
1000
0000
,
0100
1100
0001
0011
,
0100
0000
1001
0000
0100
0010
0001
1000
,
2020
0000
0000
0000
0000
0000
0000
3030
,
0202
0000
0000
0000
0000
0000
0000
0303
,
2200
0000
0000
0000
0000
0000
0000
3300
,
0022
0000
0000
0000
0000
0000
0000
0033
,
1000
0010
0001
0100
1000
0100
0001
0010
,
0100
1000
0001
0100
0010
0001
0010
1000
,
0100
0001
0100
0010
0001
0100
0010
0001
,
0010
1000
0100
0001
1000
0010
0001
0100
,
1010
0000
1100
0000
,
1110
0000
0000
0000
,
0101
0000
0011
0000
,
0111
0000
0000
0000
,
1001
0000
0110
0000
,
1111
0000
0000
0000
,
1100
0000
0000
0000
0101
0000
0000
0010
,
0011
0000
1000
0100
1000
0100
1000
0000
,
0001
0100
0010
1000
0100
1000
0001
0100
,
0010
0100
0001
1000
0100
1000
0100
1000
,
0010
0100
0001
0100
0010
0001
0010
1000
,
0100
0001
0010
0001
0100
1000
0010
0001
,
0100
1000
0100
0001
0010
1000
0100
1000
,
0010
0001
0100
0010
0001
0010
1000
0100
,
0001
0100
0010
0001
0100
0010
0001
0010
,
1000
0100
0001
1000
0011
0000
0101
0000
,
0001
0010
1000
0100
0000
0100
0010
0001
0100
0010
0001
0020
0000
0000
0000
0000
,
1030
0100
1000
0001
0000
0100
0010
0100
2000
0000
0000
0000
0000
0000
0000
0000
,
3001
0100
0001
1000
0000
0100
0010
0100
0001
1000
0100
2000
0000
0000
0000
0000
,
3010
0010
1000
0100
0000
0100
1000
0010
0001
0100
1000
0020
0000
0000
0000
0000
,
0000
0000
0000
0000
0000
0030
0000
0000
0000
0000
0000
0000
0000
0000
0000
0000
;

//---------------dance-single - STANDARD-6----------------
#NOTES:
     dance-single:
     STANDARD-6:
     Medium:
     6:
     0.420,0.555,0.081,0.049,0.020,347.000,10.000,6.000,0.000,0.000:
1000
0001
0100
0000
1000
0001
0100
0000
,
0010
0000
0100
0000
1000
0000
0000
0000
0010
0000
0100
0010
0100
0000
0000
0000
,
0010
0001
0100
0000
0001
0100
0010
0000
,
1000
0000
0100
1000
0000
0100
0010
0001
0100
0000
0010
0002
0000
0000
0000
0000
,
0013
0000
1000
0100
0000
0010
0000
0001
,
2000
0000
0000
0000
,
3010
0000
0100
0001
0000
0010
0000
0100
,
2000
0000
0000
0000
,
3010
0000
0001
0100
0000
1000
0000
0100
,
0002
0000
0000
0000
,
0103
0000
1000
0010
0000
1000
0000
0001
,
0010
0000
0001
0000
0100
0000
1000
1000
,
0011
1000
1010
0001
,
0101
0000
0001
1000
0100
0010
0001
1000
,
0100
1001
0100
1010
,
0101
0000
0001
1000
0100
1000
0001
0100
,
0010
1001
0100
1100
,
0001
0000
0010
0100
1000
0000
1000
0000
,
0100
0000
0001
0100
0010
0000
1000
0000
,
0200
0000
0000
0300
,
0010
0001
1000
0001
0000
0100
0000
0100
,
0010
0000
0000
0000
,
1000
0100
1000
0001
0000
0100
0000
0010
,
1000
0000
0000
0000
,
0001
0010
0100
1000
0000
0001
0000
0001
,
0100
0000
0000
0000
,
1000
0000
1000
0010
0000
0001
0000
0001
,
0100
0000
0000
0000
,
1000
0100
0010
0100
1000
0001
0000
0100
,
0000
0001
0000
0010
0000
0000
0000
0000
,
0001
0100
0001
0000
,
1000
0010
0000
0100
0001
0000
0010
0000
,
0100
1000
0100
0000
0001
0000
0000
1000
,
0100
0000
0001
0000
0100
0010
0000
0001
,
1000
0000
0001
0000
0100
0000
0000
0100
,
0001
0000
0010
0001
0000
1000
0100
0000
,
0001
0000
1000
0000
0100
0000
0010
0100
,
0000
0001
0000
0010
0001
0000
1000
0000
,
0010
0000
0010
0000
0100
0000
0001
1000
,
0000
0100
0000
0100
1000
0000
0001
0000
,
0010
0000
0100
0000
1000
0000
0010
0100
,
0000
0001
0000
0001
1000
0000
0100
0000
,
0010
0100
0001
0010
,
0100
1000
0100
0000
0001
0000
0001
0000
,
1000
0000
0010
0000
,
0001
0000
0000
0000
0100
1000
0100
0000
,
0001
0000
0010
0000
,
1000
0000
0000
0000
0100
1000
0100
0000
,
0010
0100
0010
0100
,
0010
1000
0010
1000
,
0010
0000
0001
0010
1000
0000
0010
1000
,
0100
0000
1000
0001
0010
0000
0010
0000
,
0100
0000
0001
1000
0000
0001
0000
0100
,
0001
0000
0000
0000
,
1000
0000
0100
1000
0000
0001
0000
0010
,
0001
0000
0000
0000
,
0100
0010
1000
0000
0100
0010
0001
0000
,
0100
0010
1000
0000
0100
1000
0010
0000
,
0001
0001
0001
0001
,
1000
0100
0001
0000
,
1000
0010
0100
0001
0000
0010
0001
0000
,
1000
0001
0000
0100
0001
0000
0010
0000
,
0100
1000
0100
0000
0001
0000
0001
1000
,
0001
0100
0100
0100
,
0010
1000
0100
0000
0010
0000
0100
0001
,
0000
0010
0000
0001
0000
0000
1000
0000
,
0001
0100
0001
0000
1000
0000
0000
0000
,
0100
0000
0001
0010
,
0001
0100
0001
0000
1000
0000
1000
0000
,
0100
0010
0100
0000
1000
0001
0100
0000
,
0100
0001
1000
0010
,
1000
0100
0001
0000
,
1000
0001
0010
0000
0000
0000
0100
0000
,
0000
0001
1000
0000
0001
0010
0000
0001
,
1000
0001
0100
0000
0001
0000
1000
0100
,
0001
1000
0100
0010
,
0100
0000
0100
0000
0100
0000
0010
1010
,
1000
0000
1000
0000
1000
0000
0100
1100
,
0001
0010
0100
0001
,
1000
0001
0100
0001
0020
0000
0000
0000
,
0000
0000
0000
0000
0000
0000
0000
0000
0000
0030
0000
0000
0000
0000
0000
0000
;

//---------------dance-single - ----------------
#NOTES:
     dance-single:
     :
     Easy:
     4:
     0.287,0.326,0.040,0.057,0.000,236.000,5.000,7.000,0.000,0.000:
0001
0010
2000
0000
,
3010
0100
0002
0000
,
1003
0010
2000
0000
,
3100
0000
0010
0000
0001
0100
0001
0000
,
1000
1000
1000
0000
,
0001
0001
0001
0000
,
0010
0010
0010
0000
,
0100
1000
0100
0000
0001
0000
0000
0000
,
0100
0100
0100
0000
,
0010
0010
0010
0000
,
1000
0000
1000
0000
0100
1000
0000
0001
,
0100
0000
0000
0000
,
0001
0001
0001
0001
,
1000
0000
1000
0000
1000
0100
0010
0000
,
0100
0100
0100
0100
,
0010
0000
0010
0000
0010
0001
0100
0000
,
0001
0001
0001
0001
,
1000
0000
1000
0000
1000
0010
0100
0000
,
0001
0001
0001
0001
,
1000
0000
0000
0000
,
0100
1000
0100
0000
0000
0000
0000
0000
,
0001
0000
0000
0000
,
0010
0100
0010
0000
0000
0000
0000
0000
,
0001
0000
0000
0000
,
1000
0100
0010
0000
0000
0000
0000
0000
,
0001
0000
0000
0000
,
0100
0010
1000
0000
0000
0000
0000
0000
,
0001
0001
0001
0000
,
1000
0100
0000
0001
0000
0100
0010
0000
,
1000
0000
0001
0000
,
0010
0100
1000
0000
0000
0000
0000
0000
,
0001
0000
0000
0000
1000
0100
0010
0000
,
0001
0000
0001
0000
,
1000
0000
1000
0000
,
0010
0000
0010
0000
,
0100
0000
0001
0001
,
1000
0100
0001
0010
,
0001
0100
1000
0000
,
1000
0010
0001
0100
,
1000
0100
0001
0000
,
0001
0010
1000
0100
,
0010
0000
0001
0000
0100
0001
1000
0000
,
0100
0001
0010
0000
,
1000
0100
0000
0001
0100
0000
0000
0000
,
1000
0000
1000
0000
,
1000
0000
0000
0000
,
0001
0000
0001
0000
,
0001
0000
0000
0000
,
0010
0000
0010
0000
,
0010
0000
0000
0000
,
0100
0000
0100
0000
,
0100
1000
0001
0000
0100
0000
0000
0000
,
0100
0001
0010
0001
,
2000
0000
0000
0000
,
3001
0010
0001
0100
,
0020
0000
0000
0000
,
1030
0100
0010
0100
,
1000
0100
0010
0100
,
1000
0001
0100
0001
,
2000
0000
0000
0000
,
3001
0010
0001
0010
,
0001
1000
0001
1000
,
0001
0100
0001
0100
,
0001
0010
0001
0010
,
0101
1000
0001
1000
,
0001
0100
0010
1000
,
0100
0010
0001
0100
,
0010
0000
0010
0000
0010
0010
0010
0000
,
1000
0000
0000
0000
,
0001
0000
0000
0000
,
0100
0000
0000
0000
,
1000
0000
0000
0000
,
0101
0000
0000
0000
,
0011
0000
0000
0000
,
1001
0000
0000
0000
,
0110
0000
0001
0010
,
0001
0000
0001
0000
,
0100
0000
0100
0000
,
1000
0010
0001
0100
,
1000
0100
0001
0010
0200
0000
0000
0000
,
0000
0000
0000
0000
0000
0000
0000
0000
0000
0300
0000
0000
0000
0000
0000
0000
;
