#TITLE:Marunouchi Surviver;
#SUBTITLE:;
#ARTIST:DJ Sharpnel;
#TITLETRANSLIT:;
#SUBTITLETRANSLIT:;
#ARTISTTRANSLIT:;
#CREDIT:;
#BANNER:marunouchi bn.png;
#BACKGROUND:marunouchi bg.png;
#LYRICSPATH:;
#CDTITLE:;
#MUSIC:Marunouchi Surviver.ogg;
#OFFSET:0.009;
#SAMPLESTART:65.868;
#SAMPLELENGTH:19.161;
#SELECTABLE:YES;
#DISPLAYBPM:200.000;
#BPMS:0.000=200.400,660.000=100.200,662.000=133.600,664.000=200.400;
#STOPS:;
#BGCHANGES:;
// cache tags:
#FIRSTBEAT:32.000;
#LASTBEAT:935.000;
#SONGFILENAME:Songs/SHARPNELSTREAMZ v2/Marunouchi Surviver/Marunouchi Surviver.sm;
#HASMUSIC:1;
#HASBANNER:1;
#MUSICLENGTH:282.816;
// end cache tags

//---------------dance-single - 18 (TYLrvin)----------------
#NOTES:
     dance-single:
     18 (TYLrvin):
     Challenge:
     18:
     1.000,1.000,0.071,0.569,1.000,3360.000,20.000,161.000,50.000,0.000:
0000
0000
0000
0000
,
0000
0000
0000
0000
,
0000
0000
0000
0000
,
0000
0000
0000
0000
,
0000
0000
0000
0000
,
0000
0000
0000
0000
,
0000
0000
0000
0000
,
0000
0000
0000
0000
,
1001
0000
0001
0000
0100
0000
0010
1000
0001
1000
0001
0000
0010
0100
1000
0001
,
0010
0000
0100
0000
1000
0000
0001
0010
0001
0010
0100
0000
1000
0001
0100
0001
,
1000
0000
0100
0000
0010
0000
0100
1000
0100
1000
0001
0000
0010
0100
1000
0001
,
0010
0000
0100
0000
0010
0000
0001
1000
0001
1000
0100
0000
0010
0001
0010
0100
,
1000
0000
0001
0000
0010
0000
0100
1000
0001
1000
0001
0000
0100
0010
1000
0001
,
0100
0000
0010
0000
1000
0000
0001
0100
0001
0100
0010
0000
1000
0001
0010
0001
,
1000
0000
0010
0000
0100
0000
0010
1000
0010
1000
0001
0000
0100
0010
1000
0001
,
0100
0000
0000
0000
0000
0000
0010
0000
1000
0000
0010
0000
1000
0000
0000
0000
0000
0000
0001
0000
0010
0000
0001
0000
0010
0000
0000
0000
0000
0000
0100
0000
1000
0000
0100
0000
4000
0000
0000
0000
0000
0000
3004
0000
0000
0003
0000
0000
,
0010
0001
1000
0100
0010
0001
1000
0010
1000
0001
0100
0010
0100
0001
1000
0001
,
0100
0001
1000
0010
1000
0001
0010
0100
1000
0001
0010
0100
1000
0001
0100
0010
,
1000
0001
1000
0010
0100
0001
1000
0100
1000
0001
0010
0100
0010
0001
1000
0001
,
0010
0001
1000
0100
1000
0001
0100
0010
1000
0001
0100
0010
1000
0001
1000
0001
,
1000
0001
0010
0100
0010
0001
1000
0010
1000
0001
0100
0010
0100
0001
1000
0001
,
0100
0001
1000
0010
1000
0001
0010
0100
1000
0001
0010
0100
1000
0001
0100
0010
,
1000
0001
1000
0010
0100
0001
1000
0100
1000
0001
0010
0100
0010
0001
1000
0001
,
2000
0000
0000
0000
0000
0000
3001
0000
0100
0000
0001
0000
0100
0000
0000
0000
0000
0000
0010
0000
0000
1000
0000
0000
0001
0000
0000
1000
0000
0000
0000
0000
0000
0001
0000
0000
0010
0000
0000
0001
0000
0000
0000
0000
0000
1000
0000
0000
,
0001
0100
0010
0100
0001
0100
0010
1000
0001
0100
0001
0010
0100
1000
0001
0010
,
0001
1000
0100
0010
0100
1000
0100
0010
0100
0010
0001
1000
0010
0100
0010
1000
,
0001
0010
0001
1000
0001
0100
0001
1000
0001
0010
0100
0010
0001
1000
0100
0010
,
0001
1000
0010
1000
0001
0100
0010
0100
0010
1000
0010
0100
0001
1000
0001
1000
,
0001
0010
0100
1000
0001
1000
0100
0010
0100
1000
0100
0010
0001
1000
0010
1000
,
0001
0100
0010
1000
0001
0100
0010
0100
0001
1000
0010
1000
0001
0010
0100
1000
,
0001
0100
0001
1000
0100
1000
0010
1000
0001
0100
0001
1000
0100
1000
0010
1000
,
0001
0100
0001
1000
0100
0010
0100
0010
0001
0010
0001
1000
0100
1000
0010
1000
,
0001
0100
0001
1000
0100
1000
0010
1000
0001
0100
0001
1000
0100
1000
0010
1000
,
0001
0100
0001
1000
0100
1000
0010
1000
0001
0100
0001
1000
0100
1000
0010
1000
,
0001
0100
0001
1000
0100
1000
0010
1000
0001
0100
0001
1000
0100
1000
0010
1000
,
0001
0100
0001
1000
0100
1000
0010
1000
0001
0100
0001
1000
0100
1000
0100
1000
,
0001
0010
0001
1000
0100
1000
0010
1000
0001
0010
0001
1000
0100
1000
0010
1000
,
0001
0010
0001
1000
0100
1000
0010
1000
0001
0010
0001
1000
0100
1000
0010
1000
,
0001
0010
0001
1000
0100
1000
0010
1000
0001
0010
0001
1000
0100
1000
0010
1000
,
0001
0000
0000
0000
0000
0000
0010
0000
0001
0000
0010
0000
0001
0000
0000
0000
0000
0000
1000
0000
0100
0000
1000
0000
0100
0000
0000
0000
0000
0000
1000
0000
0001
0000
1000
0000
0001
0000
0000
1000
0000
0000
0001
0000
0000
1000
0000
0000
,
0001
0100
0001
1000
0010
1000
0100
1000
0001
0100
0001
1000
0010
1000
0100
1000
,
0001
0100
0001
1000
0010
1000
0100
1000
0001
0100
0001
1000
0010
1000
0100
1000
,
0001
0100
0001
1000
0010
1000
0100
1000
0001
0100
0001
1000
0010
1000
0100
1000
,
0001
0100
0001
1000
0010
1000
0100
1000
0001
0100
0001
1000
0010
1000
0100
0010
,
0001
0010
0001
1000
0010
1000
0100
1000
0001
0010
0001
1000
0010
1000
0100
1000
,
0001
0010
0001
1000
0010
1000
0100
1000
0001
0010
0001
1000
0010
1000
0100
1000
,
0001
0100
0010
1000
0001
1000
0010
0100
0001
0010
0100
1000
0010
1000
0100
0010
,
0001
0000
0000
0000
0000
0000
0000
0000
0000
0000
1000
0000
0000
0000
0000
0000
0000
0000
0000
0001
0000
0000
0000
0000
0000
0000
0000
0000
0000
0100
0000
0000
0000
0000
0000
0000
0000
0000
0010
0000
0000
0000
0000
0000
0000
0000
0000
0000
1000
0000
0000
0000
0000
0000
0000
0000
0000
0000
0010
0000
0000
0000
0000
0000
0000
0000
0000
0100
0000
0000
0000
0000
0000
0000
0000
0000
0000
0001
0000
0000
0000
0000
0000
0000
0000
0000
1000
0000
0000
0000
0000
0000
0000
0000
0000
0000
0001
0000
0000
0000
0000
0000
0000
0000
0000
0000
1000
0000
0000
0000
0000
0000
0000
0000
0000
0100
0000
0000
0000
0000
0000
0000
0000
0000
0000
0010
0000
0000
0000
0000
0000
0000
0000
0000
0001
0000
0000
0000
0000
0000
0000
0000
0000
0000
1000
0000
0000
0000
0000
0000
0000
0000
0000
0000
0001
0000
0000
0000
0000
0000
0000
0000
0000
0010
0000
0000
0000
0000
0000
0000
0000
0000
0000
0100
0000
0000
0000
0000
0000
0000
0000
0000
1000
0000
0000
0000
0000
0000
0000
0000
0000
0000
,
0002
0M00
00M0
0M00
,
M003
0000
0000
0M00
0000
0000
000M
0000
0000
00M0
0000
0000
000M
0000
0000
0M00
0000
0000
00M0
0000
M000
0000
0M00
0000
,
000M
0000
0000
0000
00M0
0000
0000
0000
000M
0000
0000
0000
0M00
0000
0000
0000
00M0
0000
0000
0000
M000
0000
0000
0000
000M
0000
0000
00M0
0000
0000
000M
0000
0000
0M00
0000
0000
00M0
0000
0000
M000
0000
0000
0M00
0000
0000
000M
0000
0000
,
2020
3030
2002
3003
0101
2002
3003
2200
,
3300
0100
0010
0001
0001
1000
0010
0100
,
0001
0010
0100
2000
0000
3001
0100
0020
,
0000
1030
0001
0010
2200
3300
2002
3003
,
0001
0100
0010
0100
0001
1000
0001
0010
0001
1000
0100
0010
0100
1000
0001
0010
,
0100
1000
0001
0100
0001
1000
0010
0100
0001
0100
0010
1000
0001
0100
0001
1000
,
0001
0010
0001
0100
0010
1000
0001
0010
0001
1000
0010
0100
0010
1000
0001
0100
,
0010
1000
0001
0010
0001
1000
0100
0010
0001
0010
0100
1000
0001
0010
0001
1000
,
0001
0100
0010
1000
0001
0010
0100
1000
0001
0100
0010
0100
0001
0100
0010
1000
,
0001
0010
0100
0010
0001
1000
0010
0100
0010
1000
0001
0100
0001
1000
0010
1000
,
0010
0100
0001
0100
0010
1000
0001
0010
0100
1000
0001
1000
0100
0010
0001
1000
,
0010
0000
0000
0100
0000
0000
0001
0000
0000
0100
0000
0000
0010
0000
0000
1000
0000
0000
0010
0000
0000
0100
0000
0000
0010
0000
0000
1000
0000
0000
0001
0000
0000
0010
0000
0000
0100
0000
1000
0000
0100
0000
1000
0000
0100
0000
1000
0000
,
0001
0010
0001
0010
0100
1000
0001
0100
0001
1000
0100
0010
0100
1000
0001
0010
,
0100
1000
0001
0100
0001
1000
0010
0100
0001
0100
0010
1000
0001
0100
0001
1000
,
0001
0010
0001
0100
0010
1000
0001
0010
0001
1000
0010
0100
0010
1000
0001
0100
,
0010
1000
0001
0010
0001
1000
0100
0010
0001
0010
0100
1000
0001
0010
0001
1000
,
0001
0100
0010
1000
0001
0010
0100
1000
0001
0100
0010
0100
0001
0100
0010
1000
,
0001
0010
0100
0010
0001
1000
0010
0100
0010
1000
0001
0100
0001
1000
0010
1000
,
0010
0100
0001
0100
0010
1000
0001
0010
0100
1000
0001
1000
0100
0010
0001
1000
,
0010
0000
0000
0100
0000
0000
0001
0000
0000
0100
0000
0000
0010
0000
0000
1000
0000
0000
0001
0000
0000
1000
0000
0000
0010
0000
0000
0100
0000
0000
0001
0000
0000
1000
0000
0000
0001
0000
1000
0000
0001
0000
1000
0000
0001
0000
1000
0000
,
0001
0010
0100
1000
0001
0100
0001
1000
0010
0100
0010
1000
0001
0100
0010
1000
,
0001
0010
0001
1000
0100
0010
0001
0010
0100
1000
0001
0100
0010
1000
0010
0100
,
0001
1000
0010
0100
0010
1000
0001
0100
0010
1000
0001
0010
0100
1000
0001
1000
,
0010
1000
0010
1000
0001
1000
0001
1000
0100
0010
0001
1000
0001
0010
0100
1000
,
0001
0100
0010
0100
0001
1000
0010
0100
0010
1000
0001
0100
0010
1000
0001
0100
,
0001
0010
0100
0010
0001
1000
0100
0010
0100
0010
0001
1000
0010
0100
0010
1000
,
0001
0010
0100
1000
0001
0100
0001
1000
0010
1000
0001
0100
0001
0100
0010
1000
,
0001
0000
0000
0100
0000
0000
0001
0000
0000
0010
0000
0000
0100
0000
0000
1000
0000
0000
0001
0000
0000
1000
0000
0000
0010
0000
0000
0100
0000
0000
0010
0000
0000
1000
0000
0000
0001
0000
1000
0000
0001
0000
1000
0000
0001
0000
1000
0000
,
0001
1000
0100
1000
0001
0100
0010
1000
0001
0010
0001
1000
0100
0010
0100
1000
,
0001
0010
0100
1000
0001
0100
0001
1000
0010
0100
0001
0100
0010
1000
0001
0010
,
0100
1000
0100
0010
0001
1000
0100
0010
0100
1000
0001
0010
0100
1000
0001
0100
,
0010
1000
0001
1000
0100
1000
0100
1000
0001
1000
0001
1000
0010
0100
0001
1000
,
0001
0100
0010
1000
0001
0010
0100
0010
0001
1000
0100
0010
0100
1000
0001
0010
,
0100
1000
0001
0010
0001
0100
0010
0100
0001
1000
0010
0100
0010
0100
0001
1000
,
0100
0010
0100
1000
0001
0100
0010
1000
0001
0010
0001
1000
0100
1000
0001
0010
,
0001
0000
0000
1000
0000
0000
0001
0000
0000
0010
0000
0000
0001
0000
0000
1000
0000
0000
0001
0000
0000
0010
0000
0000
0001
0000
0000
0010
0000
0000
0100
0000
0000
1000
0000
0000
0001
0000
1000
0000
0001
0000
1000
0000
0001
0000
1000
0000
,
0001
0010
0100
0010
0001
0010
0100
0010
0001
0010
0100
1000
0001
0100
0010
1000
,
0001
0100
0010
0100
0001
0100
0020
0130
0001
0100
0010
1000
0001
1000
0100
0010
,
0001
1000
0100
1000
0001
1000
0100
1000
0001
1000
0100
0010
0001
1000
0001
1000
,
0010
0100
0001
0100
0010
1000
0001
1000
0010
1000
0001
1000
0001
0010
0100
1000
,
0001
0100
0010
0100
0001
0100
0010
0100
0001
0100
0010
1000
0001
1000
0100
0010
,
0001
0010
0100
0010
0001
0010
0100
0010
0001
0010
0100
1000
0001
1000
0100
1000
,
0001
0100
0010
1000
0001
0100
0001
1000
0010
0100
0010
1000
0001
0100
0010
1000
,
0001
0000
0000
0000
0000
0000
0000
0000
0000
0000
1000
0000
0000
0000
0000
0000
0000
0000
0000
0001
0000
0000
0000
0000
0000
0000
0000
0000
0000
0100
0000
0000
0000
0000
0000
0000
0000
0000
0010
0000
0000
0000
0000
0000
0000
0000
0000
0000
1000
0000
0000
0000
0000
0000
0000
0000
0000
0000
0010
0000
0000
0000
0000
0000
0000
0000
0000
0100
0000
0000
0000
0000
0000
0000
0000
0000
0000
0001
0000
0000
0000
0000
0000
0000
0000
0000
1000
0000
0000
0000
0000
0000
0000
0000
0000
0000
0001
0000
0000
0000
0000
0000
0000
0000
0000
0000
1000
0000
0000
0000
0000
0000
0000
0000
0000
0100
0000
0000
0000
0000
0000
0000
0000
0000
0000
0010
0000
0000
0000
0000
0000
0000
0000
0000
0001
0000
0000
0000
0000
0000
0000
0000
0000
0000
1000
0000
0000
0000
0000
0000
0000
0000
0000
0000
0001
0000
0000
0000
0000
0000
0000
0000
0000
0010
0000
0000
0000
0000
0000
0000
0000
0000
0000
0100
0000
0000
0000
0000
0000
0000
0000
0000
1000
0000
0000
0000
0000
0000
0000
0000
0000
0000
,
0002
0003
0202
0303
1010
2002
3003
4200
,
3300
0100
0010
0001
0000
0010
0100
1000
,
1001
0001
0000
0100
0000
0010
0000
1000
,
2002
0000
3003
0000
,
0000
0000
0000
0000
,
0000
0000
0000
0000
0000
0000
0000
0000
0000
0000
0000
0000
0000
0000
0000
0000
0000
0000
0000
0000
0000
0000
0000
0000
0000
0000
0000
0000
0000
0000
0000
0000
0000
0000
0000
0000
0000
0000
0000
0000
0000
0000
0000
0000
0000
0000
0000
0000
M0MM
0000
0000
0000
0000
0000
0000
0000
0000
0000
0000
0000
0000
0000
0000
0000
0M00
0000
0000
0000
0000
0000
0000
0000
0000
0000
0000
0000
0000
0000
0000
0000
M000
0000
0000
0000
0000
0000
0000
0000
0000
0000
0000
0000
0000
0000
0000
0000
000M
0000
0000
0000
0000
0000
0000
0000
0000
0000
0M00
0000
0000
0000
0000
0000
0000
0000
0000
0000
0000
00M0
0000
0000
0000
0000
0000
0000
0000
0000
0000
0000
M000
0000
0000
0000
0000
0000
0000
0000
0000
0000
000M
0000
0000
0000
0000
0000
0000
0000
0000
0000
0000
0M00
0000
0000
0000
0000
0000
0000
0000
0000
0000
0000
00M0
0000
0000
0000
0000
0000
0000
0000
0000
0000
000M
0000
0000
0000
0000
0000
0000
0000
0000
0000
0000
0000
0000
0000
0000
0000
0000
0000
0000
0000
0000
0000
,
1000
0100
0010
0001
1000
0001
0010
0100
1000
0001
0100
0010
1000
0001
0100
0001
,
1000
0010
0100
0010
1000
0001
0010
0100
1000
0001
0100
0001
0100
0010
1000
0001
,
1000
0010
1000
0010
0100
0001
0100
0001
1000
0100
1000
0001
0100
0001
1000
0010
,
1000
0001
0010
0100
1000
0001
0010
0001
1000
0100
0010
0100
1000
0001
0010
0001
,
1000
0010
0100
0001
1000
0001
0100
0010
1000
0001
0010
0100
1000
0001
0010
0001
,
1000
0100
0010
0100
1000
0001
0100
0010
1000
0001
0010
0001
0010
0100
1000
0001
,
1000
0100
1000
0100
0010
0001
0010
0001
1000
0010
1000
0001
0010
0001
1000
0100
,
1000
0000
0000
0001
0000
0000
0100
0000
0000
0010
0000
0000
1000
0000
0000
0001
0000
0000
0100
0000
0000
0001
0000
0000
1000
0000
0000
0010
0000
0000
0100
0000
0000
0010
0000
0000
1000
0000
0001
0000
1000
0000
0001
0000
1000
0000
0001
0000
,
0010
0100
0010
0001
1000
0001
0010
0100
1000
0001
0100
0010
1000
0001
0100
0001
,
1000
0010
0100
0010
1000
0001
0010
0100
1000
0001
0100
0001
0100
0010
1000
0001
,
1000
0010
1000
0010
0100
0001
0100
0001
1000
0100
1000
0001
0100
0001
1000
0010
,
1000
0001
0010
0100
1000
0001
0010
0001
1000
0100
0010
0100
1000
0001
0010
0001
,
1000
0100
0010
0100
1000
0001
0100
0001
0100
0010
1000
0010
1000
0100
0010
0100
,
1000
0001
0100
0001
0100
0010
1000
0010
1000
0001
0010
0100
1000
0001
0100
0001
,
1000
0010
0100
0001
1000
0010
0100
0010
1000
0001
0100
0010
1000
0001
0100
0001
,
1000
0000
0000
0000
0000
0000
0000
0000
0000
0000
0001
0000
0000
0000
0000
0000
0000
0000
0000
1000
0000
0000
0000
0000
0000
0000
0000
0000
0000
0010
0000
0000
0000
0000
0000
0000
0000
0000
0100
0000
0000
0000
0000
0000
0000
0000
0000
0000
0001
0000
0000
0000
0000
0000
0000
0000
0000
0000
0100
0000
0000
0000
0000
0000
0000
0000
0000
0010
0000
0000
0000
0000
0000
0000
0000
0000
0000
1000
0000
0000
0000
0000
0000
0000
0000
0000
0001
0000
0000
0000
0000
0000
0000
0000
0000
0000
1000
0000
0000
0000
0000
0000
0000
0000
0000
0000
0001
0000
0000
0000
0000
0000
0000
0000
0000
0010
0000
0000
0000
0000
0000
0000
0000
0000
0000
0100
0000
0000
0000
0000
0000
0000
0000
0000
1000
0000
0000
0000
0000
0000
0000
0000
0000
0000
0001
0000
0000
0000
0000
0000
0000
0000
0000
0000
1000
0000
0000
0000
0000
0000
0000
0000
0000
0100
0000
0000
0000
0000
0000
0000
0000
0000
0000
0010
0000
0000
0000
0000
0000
0000
0000
0000
0001
0000
0000
0000
0000
0000
0000
0000
0000
0000
,
0100
0010
1000
0001
0010
0001
0100
0001
1000
0010
1000
0001
0010
0001
0100
0001
,
1000
0010
1000
0001
0010
0001
0100
0001
1000
0010
1000
0001
0010
0001
0100
0001
,
1000
0010
1000
0001
0010
0001
0100
0001
1000
0010
1000
0001
0010
0001
0100
0001
,
1000
0010
1000
0001
0010
0001
0100
0001
1000
0010
1000
0001
0010
0001
0010
0001
,
1000
0100
1000
0001
0010
0001
0100
0001
1000
0100
1000
0001
0010
0001
0100
0001
,
1000
0100
1000
0001
0010
0001
0100
0001
1000
0100
1000
0001
0010
0001
0100
0001
,
1000
0100
1000
0001
0010
0001
0100
0001
1000
0100
1000
0001
0010
0001
0100
0001
,
1000
0000
0000
0000
0000
0000
0100
0000
1000
0000
0100
0000
1000
0000
0000
0000
0000
0000
0001
0000
0010
0000
0001
0000
0010
0000
0000
0000
0000
0000
0001
0000
1000
0000
0001
0000
1000
0000
0000
0001
0000
0000
1000
0000
0000
0001
0000
0000
,
1000
0010
1000
0001
0100
0001
0010
0001
1000
0010
1000
0001
0100
0001
0010
0001
,
1000
0010
1000
0001
0100
0001
0010
0001
1000
0010
1000
0001
0100
0001
0010
0001
,
1000
0010
1000
0001
0100
0001
0010
0001
1000
0010
1000
0001
0100
0001
0010
0001
,
1000
0010
1000
0001
0100
0001
0010
0001
1000
0010
1000
0001
0100
0001
0010
0100
,
1000
0100
1000
0001
0100
0001
0010
0100
1000
0100
1000
0001
0100
0001
0010
0100
,
1000
0100
1000
0001
0100
0001
0010
0100
1000
0100
1000
0001
0100
0001
0010
0100
,
1000
0001
0100
0001
1000
0010
0100
0001
1000
0100
0010
0001
1000
0001
0010
0100
,
1000
0001
1000
0001
1000
0001
1000
0001
0400
0000
0304
0000
0000
0000
0000
0000
,
1003
0010
1000
0001
0010
0001
0100
0001
1000
0010
1000
0001
0010
0001
0100
0001
,
1000
0010
1000
0001
0010
0001
0100
0001
1000
0010
1000
0001
0010
0001
0100
0001
,
1000
0010
1000
0001
0010
0001
0100
0001
1000
0010
1000
0001
0010
0001
0100
0001
,
1000
0010
1000
0001
0010
0001
0100
0001
1000
0010
1000
0001
0010
0001
0010
0001
,
1000
0100
1000
0001
0010
0001
0100
0001
1000
0100
1000
0001
0010
0001
0100
0001
,
1000
0100
1000
0001
0010
0001
0100
0001
1000
0100
1000
0001
0010
0001
0100
0001
,
1000
0100
1000
0001
0010
0001
0100
0001
1000
0100
1000
0001
0010
0001
0100
0001
,
1000
0000
0000
0000
0000
0000
0100
0000
1000
0000
0100
0000
1000
0000
0000
0000
0000
0000
0001
0000
0010
0000
0001
0000
0010
0000
0000
0000
0000
0000
0001
0000
1000
0000
0001
0000
1000
0000
0000
0001
0000
0000
1000
0000
0000
0001
0000
0000
,
1000
0010
1000
0001
0100
0001
0010
0001
1000
0010
1000
0001
0100
0001
0010
0001
,
1000
0010
1000
0001
0100
0001
0010
0001
1000
0010
1000
0001
0100
0001
0010
0001
,
1000
0010
1000
0001
0100
0001
0010
0001
1000
0010
1000
0001
0100
0001
0010
0001
,
1000
0010
1000
0001
0100
0001
0010
0001
1000
0010
1000
0001
0100
0001
0100
0001
,
1000
0100
1000
0001
0100
0001
0010
0001
1000
0100
1000
0001
0100
0001
0010
0001
,
1000
0100
1000
0001
0100
0001
0010
0001
1000
0100
1000
0001
0100
0001
0010
0001
,
1000
0010
0100
0001
1000
0001
0100
0010
1000
0100
0010
0001
0100
0001
0010
0100
,
1000
0000
0000
0000
0000
0000
0000
0000
0000
0000
0001
0000
0000
0000
0000
0000
0000
0000
0000
1000
0000
0000
0000
0000
0000
0000
0000
0000
0000
0010
0000
0000
0000
0000
0000
0000
0000
0000
0100
0000
0000
0000
0000
0000
0000
0000
0000
0000
0001
0000
0000
0000
0000
0000
0000
0000
0000
0000
0100
0000
0000
0000
0000
0000
0000
0000
0000
0010
0000
0000
0000
0000
0000
0000
0000
0000
0000
1000
0000
0000
0000
0000
0000
0000
0000
0000
0001
0000
0000
0000
0000
0000
0000
0000
0000
0000
1000
0000
0000
0000
0000
0000
0000
0000
0000
0000
0001
0000
0000
0000
0000
0000
0000
0000
0000
0010
0000
0000
0000
0000
0000
0000
0000
0000
0000
0100
0000
0000
0000
0000
0000
0000
0000
0000
1000
0000
0000
0000
0000
0000
0000
0000
0000
0000
0001
0000
0000
0000
0000
0000
0000
0000
0000
0000
0000
0000
1000
0000
0000
0000
0000
0000
0000
0000
0000
0000
0000
0000
0001
0000
0000
0000
0000
0000
0000
0000
0000
0000
0000
0000
1000
0000
0000
0000
0000
0000
0000
0000
0000
0000
0000
0000
,
0001
0100
0001
1000
0100
1000
0010
1000
0001
0100
0001
1000
0100
1000
0010
1000
,
0001
0100
0001
1000
0100
1000
0010
1000
0001
0100
0001
1000
0100
1000
0010
1000
,
0001
0100
0001
1000
0100
1000
0010
1000
0001
0100
0001
1000
0100
1000
0010
1000
,
0001
0100
0001
1000
0100
1000
0010
1000
0001
0100
0001
1000
0100
1000
0100
1000
,
0001
0010
0001
1000
0100
1000
0010
1000
0001
0010
0001
1000
0100
1000
0010
1000
,
0001
0010
0001
1000
0100
1000
0010
1000
0001
0010
0001
1000
0100
1000
0010
1000
,
0001
0010
0001
1000
0100
1000
0010
1000
0001
0010
0001
1000
0100
1000
0010
1000
,
0001
0000
0000
0000
0000
0000
0010
0000
0001
0000
0010
0000
0001
0000
0000
0000
0000
0000
1000
0000
0100
0000
1000
0000
0100
0000
0000
0000
0000
0000
1000
0000
0001
0000
1000
0000
0001
0000
0000
1000
0000
0000
0001
0000
0000
1000
0000
0000
,
0001
0100
0001
1000
0010
1000
0100
1000
0001
0100
0001
1000
0010
1000
0100
1000
,
0002
0003
0000
0000
0200
0300
0000
0000
0002
0003
0000
0000
2000
3000
0000
0000
0200
0300
0000
0000
2000
3000
0000
0000
0200
0300
0000
0000
0020
0030
0000
0000
0002
0003
0000
0000
2000
3000
0000
0000
0002
0003
0000
0000
0200
0300
0000
0000
0020
0030
0000
0000
2000
3000
0000
0000
0020
0030
0000
0000
2000
3000
0000
0000
,
0200
0300
1000
0000
0001
0000
1000
0000
0010
0000
1000
0000
0100
0000
1000
0000
0001
0000
0100
0000
0001
0000
1000
0000
0010
0000
1000
0000
0100
0000
1000
0000
,
0001
0100
0001
1000
0010
1000
0100
1000
0001
0100
0001
1000
0010
1000
0100
0010
,
0001
0010
0100
1000
0001
1000
0100
1000
0001
0010
0001
1000
0010
1000
0100
1000
,
0001
0000
0000
0000
0010
0000
0000
0000
0001
0000
0000
0000
1000
0000
0000
0000
0010
0000
0000
0000
1000
0000
0000
0000
0100
0000
0000
0000
1000
0000
0000
0000
0001
0000
0000
0000
0010
0000
0000
0000
0001
0000
0000
0000
1000
0000
0000
0000
0020
0030
0000
0000
2000
3000
0000
0000
0200
0300
0000
0000
2000
3000
0000
0000
,
0002
0003
0000
0000
0200
0300
0000
0000
0002
0003
0000
0000
2000
3000
0000
0000
0200
0300
0000
0000
2000
3000
0000
0000
0200
0300
0000
0000
0020
0030
0000
0000
0002
0003
0000
0000
0020
0030
0000
0000
0002
0003
0000
0000
2000
3000
0000
0000
0010
0000
0000
0000
1000
0000
0000
0000
0010
0000
0000
0000
0100
0000
0000
0000
,
0001
0000
0000
0000
0000
0000
0000
0000
0000
0000
1000
0000
0000
0000
0000
0000
0000
0000
0000
0001
0000
0000
0000
0000
0000
0000
0000
0000
0000
0100
0000
0000
0000
0000
0000
0000
0000
0000
0010
0000
0000
0000
0000
0000
0000
0000
0000
0000
1000
0000
0000
0000
0000
0000
0000
0000
0000
0000
0010
0000
0000
0000
0000
0000
0000
0000
0000
0100
0000
0000
0000
0000
0000
0000
0000
0000
0000
0001
0000
0000
0000
0000
0000
0000
0000
0000
1000
0000
0000
0000
0000
0000
0000
0000
0000
0000
0004
0000
0000
0000
0000
0000
0000
0000
0000
0000
0000
0000
0000
0000
0000
0000
0000
0000
0000
0000
0000
0000
0000
0000
0000
0000
0000
0000
0000
0000
0000
0000
0000
0000
0000
0000
0000
0000
0000
0000
0000
0000
0000
0000
0000
0000
0000
0000
0000
0000
0000
0000
0000
0000
0000
0000
0000
0000
0000
0000
0000
0000
0000
0000
0000
0000
0000
0000
0000
0000
0000
0000
0000
0000
0000
0000
0000
0000
0000
0000
0000
0000
0000
0000
0000
0000
0000
0000
0000
0000
0000
0000
0000
0000
0000
0000
,
1003
0000
0000
0010
0000
0000
0100
0000
0000
0010
0000
0000
2000
0M00
00M0
000M
0M00
00M0
000M
0M00
00M0
000M
0M00
00M0
,
3001
1000
0001
1000
0001
0100
0001
1000
0100
1000
0010
0100
0001
0100
0001
1000
,
0100
1000
0010
0100
0001
0100
0001
1000
0100
1000
0010
0100
0001
0100
0001
1000
,
0100
1000
0010
0100
0001
0100
0001
1000
0100
1000
0010
0100
0001
0100
0001
1000
,
0100
1000
0010
0100
0001
0100
0001
1000
0100
1000
0010
0100
0001
0100
0001
1000
,
0100
1000
0100
1000
0001
0010
0001
1000
0100
1000
0010
1000
0001
0010
0001
1000
,
0100
1000
0010
1000
0001
0010
0001
1000
0100
1000
0010
1000
0001
0010
0001
1000
,
0100
1000
0010
1000
0001
0010
0001
1000
0100
1000
0010
1000
0001
0010
0001
1000
,
0100
0000
0000
1000
0000
0000
0010
0000
0000
1000
0000
0000
0001
0000
0000
0000
0000
0000
0010
0000
0001
0000
0010
0000
0001
0000
0000
0000
0000
0000
1000
0000
0000
0100
0000
0000
0010
0000
0000
0001
0000
0000
0000
0000
0000
1000
0000
0000
,
0010
0000
0000
1000
0000
0000
0000
0000
0001
0000
1000
0000
0001
0000
0000
0100
0000
0000
0001
0000
0000
1000
0000
0000
0100
0000
0000
1000
0000
0000
0010
0000
0000
0100
0000
0000
0001
0000
0000
0100
0000
0000
0001
0000
0000
1000
0000
0000
,
0100
1000
0010
0100
0001
0100
0001
1000
0100
1000
0010
0100
0001
0100
0001
1000
,
0100
1000
0010
0100
0001
0100
0001
1000
0100
1000
0010
0100
0001
0100
0001
1000
,
0100
1000
0010
0100
0001
0100
0001
1000
0100
1000
0010
0100
0001
0100
0001
1000
,
0100
1000
0100
1000
0001
0010
0001
1000
0100
1000
0010
1000
0001
0010
0001
1000
,
0100
1000
0010
1000
0001
0010
0001
1000
0100
1000
0010
1000
0001
0010
0001
1000
,
0100
1000
0010
1000
0001
0010
0001
1000
0100
1000
0010
1000
0001
0010
0001
1000
,
0100
0000
0000
0000
0000
0000
0000
0000
0000
0000
0000
0000
1000
0000
0000
0000
0000
0000
0000
0000
0000
0000
0000
0000
0010
0000
0000
0000
0000
0000
0000
0000
0000
0000
0000
0000
1000
0000
0000
0000
0000
0000
0000
0000
0000
0000
0000
0000
0001
0000
0000
0000
0000
0000
0000
0000
0000
0000
1000
0000
0000
0000
0000
0000
0000
0000
0000
0001
0000
0000
0000
0000
0000
0000
0000
0000
0000
0100
0000
0000
0000
0000
0000
0000
0000
0000
0010
0000
0000
0000
0000
0000
0000
0000
0000
0000
1000
0000
0000
0000
0000
0000
0000
0000
0000
0000
0010
0000
0000
0000
0000
0000
0000
0000
0000
0100
0000
0000
0000
0000
0000
0000
0000
0000
0000
0001
0000
0000
0000
0000
0000
0000
0000
0000
1000
0000
0000
0000
0000
0000
0000
0000
0000
0000
0001
0000
0000
0000
0000
0000
0000
0000
0000
0000
1000
0000
0000
0000
0000
0000
0000
0000
0000
0100
0000
0000
0000
0000
0000
0000
0000
0000
0000
0010
0000
0000
0000
0000
0000
0000
0000
0000
0001
0000
0000
0000
0000
0000
0000
0000
0000
0000
,
1000
0000
0000
0000
0000
0000
0000
0000
0000
0000
0001
0000
0000
0000
0000
0000
0000
0000
0000
0010
0000
0000
0000
0000
0000
0000
0000
0000
0000
0100
0000
0000
0000
0000
0000
0000
0000
0000
1000
0000
0000
0000
0000
0000
0000
0000
0000
0000
0001
0000
0000
0000
0000
0000
0000
0000
0000
0000
0000
0000
0010
0000
0000
0000
0000
0000
0000
0000
0000
0000
0000
0000
0001
0000
0000
0000
0000
0000
0000
0000
0000
0000
0000
0000
1000
0000
0000
0000
0000
0000
0000
0000
0000
0000
0000
0000
0001
0000
0000
0000
0000
0000
0000
0000
0000
0000
0000
0000
0010
0000
0000
0000
0000
0000
0000
0000
0000
0000
0000
0000
0001
0000
0000
0000
0000
0000
0000
0000
0000
0000
0000
0000
1000
0000
0000
0000
0000
0000
0000
0000
0000
0000
0000
0000
0001
0000
0000
0000
0000
0000
0000
0000
0000
0000
0000
0000
0010
0000
0000
0000
0000
0000
0000
0000
0000
0000
0000
0000
0100
0000
0000
0000
0000
0000
0000
0000
0000
0000
0000
0000
1000
0000
0000
0000
0000
0000
0000
0000
0000
0000
0000
0000
,
0001
0100
0001
0100
0010
1000
0010
0100
0010
1000
0010
0100
0010
1000
0001
0010
,
0100
1000
0001
1000
0001
0100
0010
0100
0001
0100
0010
0100
0001
1000
0010
0100
,
0010
1000
0001
0100
0010
1000
0010
0100
0010
1000
0010
0100
0010
1000
0001
0010
,
0100
1000
0001
1000
0100
0010
0001
0010
0100
0010
0001
0010
0100
1000
0001
0100
,
0001
1000
0010
1000
0001
0100
0001
1000
0001
0010
0001
1000
0001
0010
0100
0010
,
0001
1000
0100
1000
0001
0100
0010
0100
0001
0100
0010
0100
0001
1000
0001
0010
,
0100
0000
0000
1000
0000
0000
0001
0000
0000
1000
0000
0000
0010
0000
0000
0000
0000
0000
0100
0000
0001
0000
0100
0000
0001
0000
0000
0000
0000
0000
1000
0000
0000
0001
0000
0000
0010
0000
0000
0100
0000
0000
0000
0000
0000
1000
0000
0000
,
0001
0000
0000
1000
0000
0000
0000
0000
0001
0000
1000
0000
0001
0000
0000
0010
0000
0000
0100
0000
0000
1000
0000
0000
0001
0000
0000
1000
0000
0000
0100
0000
0000
0010
0000
0000
0001
0000
0000
0100
0000
0000
0001
0000
0000
1000
0000
0000
,
0100
0010
0100
1000
0001
0100
0010
0100
0001
0010
0100
1000
0001
0100
0010
0100
,
0001
0010
0100
0010
0001
1000
0100
1000
0001
0010
0100
1000
0001
0100
0010
0100
,
0001
1000
0100
1000
0001
0100
0010
0100
0001
1000
0010
0100
0001
0010
0001
1000
,
0010
0100
0010
0100
0001
1000
0100
1000
0001
0100
0010
1000
0001
0010
0100
0010
,
0001
0100
0010
0100
0001
1000
0010
1000
0001
0100
0010
1000
0001
0010
0100
0010
,
0001
1000
0010
1000
0001
0100
0010
0100
0001
1000
0100
0010
0100
0010
0100
1000
,
0001
0000
0000
0000
0000
0000
0000
0000
0000
0000
0000
0000
0100
0000
0000
0000
0000
0000
0000
0000
0000
0000
0000
0000
0010
0000
0000
0000
0000
0000
0000
0000
0000
0000
0000
0000
1000
0000
0000
0000
0000
0000
0000
0000
0000
0000
0000
0000
0001
0000
0000
0000
0000
0000
0000
0000
0000
0000
1000
0000
0000
0000
0000
0000
0000
0000
0000
0001
0000
0000
0000
0000
0000
0000
0000
0000
0000
0100
0000
0000
0000
0000
0000
0000
0000
0000
0010
0000
0000
0000
0000
0000
0000
0000
0000
0000
1000
0000
0000
0000
0000
0000
0000
0000
0000
0000
0010
0000
0000
0000
0000
0000
0000
0000
0000
0100
0000
0000
0000
0000
0000
0000
0000
0000
0000
0001
0000
0000
0000
0000
0000
0000
0000
0000
1000
0000
0000
0000
0000
0000
0000
0000
0000
0000
0001
0000
0000
0000
0000
0000
0000
0000
0000
0000
1000
0000
0000
0000
0000
0000
0000
0000
0000
0100
0000
0000
0000
0000
0000
0000
0000
0000
0000
0010
0000
0000
0000
0000
0000
0000
0000
0000
0001
0000
0000
0000
0000
0000
0000
0000
0000
0000
,
1000
0000
0000
0000
0000
0000
0000
0000
0000
0000
0001
0000
0000
0000
0000
0000
0000
0000
0000
0010
0000
0000
0000
0000
0000
0000
0000
0000
0000
0100
0000
0000
0000
0000
0000
0000
0000
0000
1000
0000
0000
0000
0000
0000
0000
0000
0000
0000
0001
0000
0000
0000
0000
0000
0000
0000
0000
0000
0000
0000
1000
0000
0000
0000
0000
0000
0000
0000
0000
0000
0000
0000
0001
0000
0000
0000
0000
0000
0000
0000
0000
0000
0000
0000
0010
0000
0000
0000
0000
0000
0000
0000
0000
0000
0000
0000
0100
0000
0000
0000
0000
0000
0000
0000
0000
0000
0000
0000
1000
0000
0000
0000
0000
0000
0000
0000
0000
0000
0000
0000
0001
0000
0000
0000
0000
0000
0000
0000
0000
0000
0000
0000
0100
0000
0000
0000
0000
0000
0000
0000
0000
0000
0000
0000
0001
0000
0000
0000
0000
0000
0000
0000
0000
0000
0000
0000
1000
0000
0000
0000
0000
0000
0000
0000
0000
0000
0000
0000
0100
0000
0000
0000
0000
0000
0000
0000
0000
0000
0000
0000
0010
0000
0000
0000
0000
0000
0000
0000
0000
0000
0000
0000
,
0100
1000
0001
0010
0100
1000
0001
0100
0001
1000
0010
0100
0001
0100
0010
1000
,
0001
0100
0001
1000
0001
0010
0001
0100
0010
1000
0001
0010
0001
1000
0010
0100
,
0010
1000
0001
0100
0010
1000
0001
0010
0001
1000
0100
0010
0001
0010
0100
1000
,
0001
0010
0001
1000
0001
0100
0010
1000
0001
0010
0100
1000
0001
0100
0010
0100
,
0001
0100
0010
1000
0001
0010
0100
0010
0001
1000
0010
0100
0010
1000
0001
0100
,
0001
1000
0010
1000
0010
0100
0001
0100
0010
1000
0001
0010
0100
1000
0001
1000
,
0100
0000
0000
0010
0000
0000
0001
0000
0000
1000
0000
0000
0010
0000
0000
0000
0000
0000
0100
0000
0001
0000
0100
0000
0001
0000
0000
0000
0000
0000
1000
0000
0001
0000
1000
0000
0001
0000
0000
0000
0000
0000
1000
0000
0100
0000
1000
0000
,
0100
0000
0000
0000
0000
0000
0010
0000
0001
0000
0010
0000
0001
0000
0000
1000
0000
0000
0001
0000
0000
0010
0000
0000
0100
0000
0000
1000
0000
0000
0001
0000
0000
0100
0000
0000
0001
0000
0000
1000
0000
0000
0100
0000
0000
0010
0000
0000
,
0100
1000
0001
0010
0100
1000
0001
0100
0001
1000
0010
0100
0001
0100
0010
1000
,
0001
0000
0000
0000
0000
0000
0000
0000
0000
0000
0000
0000
0100
0000
0000
0000
0000
0000
0000
0000
0000
0000
0000
0000
0001
0000
0000
0000
0000
0000
0000
0000
0000
0000
0000
0000
1000
0000
0000
0000
0000
0000
0000
0000
0000
0000
0000
0000
0002
0003
0000
0000
0000
0000
0000
0000
0000
0000
0000
0000
0020
0030
0000
0000
0000
0000
0000
0000
0000
0000
0000
0000
0002
0003
0000
0000
0000
0000
0000
0000
0000
0000
0000
0000
0200
0300
0000
0000
0000
0000
0000
0000
0000
0000
0000
0000
0020
0030
0000
0000
0000
0000
0000
0000
0000
0000
0000
0000
2000
3000
0000
0000
0000
0000
0000
0000
0000
0000
0000
0000
0002
0003
0000
0000
0000
0000
0000
0000
0000
0000
0000
0000
0020
0030
0000
0000
0000
0000
0000
0000
0000
0000
0000
0000
0002
0000
0003
0000
0000
0000
0000
0000
0000
0000
0000
0000
2000
0000
3000
0000
0000
0000
0000
0000
0000
0000
0000
0000
0020
0000
0030
0000
0000
0000
0000
0000
0000
0000
0000
0000
0200
0000
0300
0000
0000
0000
0000
0000
0000
0000
0000
0000
,
0020
0000
0030
0000
0000
0000
0000
0000
0000
0000
0000
0000
2000
0000
3000
0000
0000
0000
0000
0000
0000
0000
0000
0000
0002
0000
0003
0000
0000
0000
0000
0000
0000
0000
0000
0000
0200
0000
0300
0000
0000
0000
0000
0000
0000
0000
0000
0000
0020
0000
0000
0030
0000
0000
0000
0000
0000
0000
0000
0000
2000
0000
0000
3000
0000
0000
0000
0000
0000
0000
0000
0000
0002
0000
0000
0003
0000
0000
0000
0000
0000
0000
0000
0000
0020
0000
0000
0030
0000
0000
0000
0000
0000
0000
0000
0000
0002
0000
0000
0003
0000
0000
0000
0000
0000
0000
0000
0000
2000
0000
0000
3000
0000
0000
0000
0000
0000
0000
0000
0000
0200
0000
0000
0300
0000
0000
0000
0000
0000
0000
0000
0000
0020
0000
0000
0030
0000
0000
0000
0000
0000
0000
0000
0000
0002
0000
0000
0003
0000
0000
0000
0000
0000
0000
0000
0000
0020
0000
0000
0030
0000
0000
0000
0000
0000
0000
0000
0000
0200
0000
0000
0300
0000
0000
0000
0000
0000
0000
0000
0000
2000
0000
0000
3000
0000
0000
0000
0000
0000
0000
0000
0000
,
0002
0000
0000
0000
0003
0000
0000
0000
0000
0000
0000
0000
0020
0000
0000
0000
0030
0000
0000
0000
0000
0000
0000
0000
0002
0000
0000
0000
0003
0000
0000
0000
0000
0000
0000
0000
2000
0000
0000
0000
3000
0000
0000
0000
0000
0000
0000
0000
0002
0000
0000
0000
0003
0000
0000
0000
0000
0000
0000
0000
0200
0000
0000
0000
0300
0000
0000
0000
0000
0000
0000
0000
0020
0000
0000
0000
0030
0000
0000
0000
0000
0000
0000
0000
2000
0000
0000
0000
3000
0000
0000
0000
0000
0000
0000
0000
0002
0000
0000
0000
0003
0000
0000
0000
0000
0000
0000
0000
0020
0000
0000
0000
0030
0000
0000
0000
0000
0000
0000
0000
0200
0000
0000
0000
0000
0000
0300
0000
0000
0000
0000
0000
2000
0000
0000
0000
0000
0000
3000
0000
0000
0000
0000
0000
0002
0000
0000
0000
0000
0000
0003
0000
0000
0000
0000
0000
0200
0000
0000
0000
0000
0000
0300
0000
0000
0000
0000
0000
0020
0000
0000
0000
0000
0000
0030
0000
0000
0000
0000
0000
0200
0000
0000
0000
0000
0000
0300
0000
0000
0000
0000
0000
,
0002
0003
0200
0000
0320
0000
2030
0000
3002
0000
0023
0000
0230
0000
0320
0000
0032
0000
2003
0000
3020
0000
0230
0000
0320
0000
1030
0000
0001
0000
0100
0000
,
0001
1000
0010
1000
0010
0100
0001
0100
0010
1000
0001
0010
0100
1000
0001
1000
,
0100
0000
0000
0010
0000
0000
0001
0000
0000
1000
0000
0000
0010
0000
0000
0000
0000
0000
0100
0000
0001
0000
0100
0000
0001
0000
0000
0000
0000
0000
1000
0000
0100
0000
1000
0000
0100
0000
0000
0000
0000
0000
0010
0000
0001
0000
0010
0000
,
0001
0000
0000
0000
0000
0000
1000
0000
0001
0000
1000
0000
0001
0000
0000
0010
0000
0000
0100
0000
0000
1000
0000
0000
0001
0000
0000
0100
0000
0000
0001
0000
0000
1000
0000
0000
0010
0000
0000
0100
0000
0000
0010
0000
0000
1000
0000
0000
,
0001
0100
0010
1000
0001
0010
0001
1000
0100
0010
0001
0010
0100
1000
0001
0100
,
0010
1000
0010
0100
0001
1000
0010
0100
0010
1000
0001
0100
0010
1000
0001
0010
,
0100
1000
0001
1000
0010
1000
0010
1000
0001
1000
0001
1000
0100
0010
0001
1000
,
0001
0010
0100
1000
0001
0100
0010
0100
0001
1000
0010
0100
0010
1000
0001
0100
,
0010
1000
0001
0100
0001
0010
0100
0010
0001
1000
0100
0010
0100
0010
0001
1000
,
0010
0100
0010
1000
0001
0010
0100
1000
0001
0100
0001
1000
0010
1000
0001
0100
,
0001
0000
0000
0100
0000
0000
0010
0000
0000
1000
0000
0000
0001
0000
0000
0000
0000
0000
1000
0000
0100
0000
1000
0000
0100
0000
0000
0000
0000
0000
0010
0000
0001
0000
0010
0000
0001
0000
0000
0000
0000
0000
1000
0000
0001
0000
1000
0000
,
0001
0000
0000
0000
0000
0000
1000
0000
0001
0000
1000
0000
0001
0000
0000
0010
0000
0000
0100
0000
0000
1000
0000
0000
0001
0000
0000
0100
0000
0000
0010
0000
0000
1000
0000
0000
0001
0000
0000
0010
0000
0000
0001
0000
0000
1000
0000
0000
,
0100
0010
0100
1000
0001
0010
0100
1000
0001
0100
0001
1000
0010
0100
0001
0100
,
0010
1000
0001
0010
0100
1000
0100
0010
0001
1000
0100
0010
0100
1000
0001
0010
,
0100
1000
0001
0100
0010
1000
0001
1000
0100
1000
0100
1000
0001
1000
0001
1000
,
0010
0100
0001
1000
0001
0100
0010
1000
0001
0010
0100
0010
0001
1000
0100
0010
,
0100
0000
0000
0000
0000
0000
0000
0000
0000
0000
0000
0000
1000
0000
0000
0000
0000
0000
0000
0000
0000
0000
0000
0000
0001
0000
0000
0000
0000
0000
0000
0000
0000
0000
0000
0000
0010
0000
0000
0000
0000
0000
0000
0000
0000
0000
0000
0000
0200
0300
0000
0000
0000
0000
0000
0000
0000
0000
0000
0000
2000
3000
0000
0000
0000
0000
0000
0000
0000
0000
0000
0000
0002
0003
0000
0000
0000
0000
0000
0000
0000
0000
0000
0000
0020
0030
0000
0000
0000
0000
0000
0000
0000
0000
0000
0000
0002
0003
0000
0000
0000
0000
0000
0000
0000
0000
0000
0000
0200
0300
0000
0000
0000
0000
0000
0000
0000
0000
0000
0000
0020
0030
0000
0000
0000
0000
0000
0000
0000
0000
0000
0000
0200
0300
0000
0000
0000
0000
0000
0000
0000
0000
0000
0000
0002
0003
0000
0000
0000
0000
0000
0000
0000
0000
0000
0000
2000
0000
0000
3000
0000
0000
0000
0000
0000
0000
0000
0000
0020
0000
0000
0030
0000
0000
0000
0000
0000
0000
0000
0000
0200
0000
0000
0300
0000
0000
0000
0000
0000
0000
0000
0000
,
0020
0000
0000
0030
0000
0000
0000
0000
0000
0000
0000
0000
0200
0000
0000
0300
0000
0000
0000
0000
0000
0000
0000
0000
0002
0000
0000
0003
0000
0000
0000
0000
0000
0000
0000
0000
2000
0000
0000
3000
0000
0000
0000
0000
0000
0000
0000
0000
0200
0000
0000
0000
0300
0000
0000
0000
0000
0000
0000
0000
0020
0000
0000
0000
0030
0000
0000
0000
0000
0000
0000
0000
0200
0000
0000
0000
0300
0000
0000
0000
0000
0000
0000
0000
2000
0000
0000
0000
3000
0000
0000
0000
0000
0000
0000
0000
0002
0000
0000
0000
0003
0000
0000
0000
0000
0000
0000
0000
0200
0000
0000
0000
0300
0000
0000
0000
0000
0000
0000
0000
0020
0000
0000
0000
0030
0000
0000
0000
0000
0000
0000
0000
2000
0000
0000
0000
0000
0000
3000
0000
0000
0000
0000
0000
0002
0000
0000
0000
0000
0000
0003
0000
0000
0000
0000
0000
0020
0000
0000
0000
0000
0000
0030
0000
0000
0000
0000
0000
0002
0000
0000
0000
0000
0000
0003
0000
0000
0000
0000
0000
2000
0000
0000
0000
0000
0000
3000
0000
0000
0000
0000
0000
,
0200
0000
0300
0000
2000
0000
3000
0000
0002
0003
0000
0000
0020
0030
0000
0000
0400
0000
0000
0000
0000
0000
0000
0000
0000
0000
0000
0000
0000
0000
0000
0000
0000
0000
0000
0000
0000
0000
0000
0000
0000
0000
0000
0000
0000
0000
0000
0000
4300
0000
0000
0000
0000
0000
0000
0000
0000
0000
0000
0000
0000
0000
0000
0000
,
0000
3000
2002
3003
0022
0033
0110
2200
,
3300
4002
3003
0001
0100
0020
0030
1000
,
0100
0010
0001
2000
3000
0020
0030
0200
,
0300
0001
0022
0000
0000
0033
0000
0000
;

//---------------dance-single - 17+ (Arvin)----------------
#NOTES:
     dance-single:
     17+ (Arvin):
     Hard:
     17:
     1.000,1.000,0.081,0.400,1.000,3091.000,23.000,113.000,38.000,0.000:
0000
0000
0000
0000
,
0000
0000
0000
0000
,
0000
0000
0000
0000
,
0000
0000
0000
0000
,
0000
0000
0000
0000
,
0000
0000
0000
0000
,
0000
0000
0000
0000
,
0000
0000
0000
0000
,
1001
0000
1000
0000
0010
0000
0100
0001
1000
0001
1000
0000
0100
0010
0001
1000
,
0100
0000
0010
0000
0001
0000
1000
0100
1000
0100
0010
0000
0001
1000
0010
1000
,
0001
0000
0010
0000
0100
0000
0010
0001
0010
0001
1000
0000
0100
0010
0001
1000
,
0100
0000
0010
0000
0100
0000
1000
0001
1000
0001
0010
0000
0100
1000
0100
0010
,
0001
0000
1000
0000
0100
0000
0010
0001
1000
0001
1000
0000
0010
0100
0001
1000
,
0010
0000
0100
0000
0001
0000
1000
0010
1000
0010
0100
0000
0001
1000
0100
1000
,
0001
0000
0100
0000
0010
0000
0100
0001
0100
0001
1000
0000
0010
0100
0001
1000
,
0010
0000
0000
0000
0000
0000
0000
0000
0000
0000
0000
0000
0000
0000
0000
0000
0000
0000
0000
0000
0000
0000
0000
0000
0400
0000
0300
0000
0000
0000
0000
0000
0004
0000
0003
0000
0000
0000
0000
0000
0400
0000
0300
0000
0000
0000
0000
0000
0004
0000
0003
0000
0000
0000
0000
0000
0000
0000
0000
0000
0000
0000
0000
0000
0000
0000
0000
0000
0000
0000
0000
0000
4000
0000
3000
0000
0000
0000
0000
0000
0040
0000
0030
0000
0000
0000
0000
0000
4000
0000
3000
0000
0000
0000
0000
0000
0040
0000
0030
0000
0000
0000
0000
0000
0000
0000
0000
0000
0000
0000
0000
0000
0000
0000
0000
0000
0000
0000
0000
0000
4000
0000
3000
0000
0000
0000
0000
0000
0004
0000
0003
0000
0000
0000
0000
0000
4000
0000
3000
0000
0000
0000
0000
0000
0004
0000
0000
0000
0000
0000
0000
0000
0000
0000
0000
0000
0000
0000
0000
0000
0000
0000
0000
0000
0000
0000
0000
0000
0013
0000
0000
0000
0000
0000
0000
0000
0000
0000
0000
0000
0000
0000
0000
0000
0000
0000
0000
0000
0000
0000
0000
0000
,
0100
1000
0001
0010
0100
1000
0001
0100
0001
1000
0010
0100
0010
1000
0001
1000
,
0010
1000
0001
0100
0001
1000
0100
0010
0001
1000
0100
0010
0001
1000
0010
0100
,
0001
1000
0001
0100
0010
1000
0001
0010
0001
1000
0100
0010
0100
1000
0001
1000
,
0100
1000
0001
0010
0001
1000
0010
0100
0001
1000
0010
0100
0001
1000
0100
0010
,
0001
1000
0001
0010
0100
1000
0001
0100
0001
1000
0010
0100
0010
1000
0001
1000
,
0010
1000
0001
0100
0001
1000
0100
0010
0001
1000
0100
0010
0001
1000
0010
0100
,
0001
1000
0001
0100
0010
1000
0001
0010
0001
1000
0100
0010
0100
1000
0001
1000
,
0002
0000
0000
0000
0000
0000
1003
0000
0010
0000
1000
0000
0010
0000
0000
0000
0000
0000
0100
0000
0000
0001
0000
0000
1000
0000
0000
0001
0000
0000
0000
0000
0000
1000
0000
0000
0100
0000
0000
1000
0000
0000
0000
0000
0000
0001
0000
0000
,
1000
0010
0100
0010
1000
0010
0100
0001
1000
0010
1000
0100
0010
0001
1000
0100
,
1000
0001
0010
0100
0010
0001
0010
0100
0010
0100
1000
0001
0100
0010
0100
0001
,
1000
0100
1000
0001
1000
0010
1000
0001
1000
0100
0010
0100
1000
0001
0010
0100
,
1000
0001
0100
0001
1000
0010
0100
0010
0100
0001
0100
0010
1000
0010
0100
0001
,
1000
0100
1000
0100
0010
0001
0010
0100
0010
0001
0010
0100
1000
0001
0100
0001
,
1000
0010
0100
0001
1000
0010
0100
0010
1000
0001
0100
0001
1000
0100
0010
0001
,
1000
0010
1000
0100
0010
0001
0010
0001
1000
0010
1000
0100
0010
0001
0010
0001
,
1000
0010
1000
0001
0100
0010
0100
0010
1000
0001
0100
0001
0100
0010
1000
0010
,
1000
0001
0100
0010
0100
0001
1000
0010
1000
0001
0010
0100
1000
0001
0100
0010
,
1000
0001
0100
0010
0100
0001
1000
0100
1000
0001
0010
0100
1000
0001
0100
0010
,
1000
0100
1000
0001
0100
0010
0100
0001
1000
0100
0010
0001
1000
0010
0100
0001
,
1000
0010
0100
0010
1000
0010
1000
0001
1000
0010
0100
0001
1000
0100
0010
0001
,
1000
0010
1000
0100
0010
0100
0010
0001
1000
0010
0100
0001
1000
0100
0010
0001
,
1000
0100
1000
0001
0100
0001
1000
0010
1000
0001
0010
0100
1000
0001
0100
0010
,
1000
0100
1000
0001
1000
0010
1000
0001
1000
0100
0010
0001
1000
0010
0100
0001
,
1000
0000
0000
0000
0000
0000
0000
0000
0000
0000
0000
0000
0000
0000
0000
0000
0000
0000
0000
0000
0000
0000
0000
0000
0040
0000
0030
0000
0000
0000
0000
0000
4000
0000
3000
0000
0000
0000
0000
0000
0040
0000
0030
0000
0000
0000
0000
0000
4000
0000
3000
0000
0000
0000
0000
0000
0000
0000
0000
0000
0000
0000
0000
0000
0000
0000
0000
0000
0000
0000
0000
0000
0004
0000
0003
0000
0000
0000
0000
0000
0400
0000
0300
0000
0000
0000
0000
0000
0004
0000
0003
0000
0000
0000
0000
0000
0400
0000
0300
0000
0000
0000
0000
0000
0000
0000
0000
0000
0000
0000
0000
0000
0000
0000
0000
0000
0000
0000
0000
0000
0004
0000
0003
0000
0000
0000
0000
0000
4000
0000
3000
0000
0000
0000
0000
0000
0004
0000
0003
0000
0000
0000
0000
0000
1000
0000
0000
0000
0000
0000
0000
0000
0000
0000
0000
0000
0010
0000
0000
0000
0000
0000
0000
0000
0000
0000
0000
0000
1000
0000
0000
0000
0000
0000
0000
0000
0000
0000
0000
0000
0010
0000
0000
0000
0000
0000
0000
0000
0000
0000
0000
0000
,
1000
0001
0010
0100
0010
0001
1000
0100
1000
0001
0100
0010
1000
0001
0010
0100
,
1000
0001
0010
0100
0010
0001
1000
0010
1000
0001
0100
0010
1000
0001
0010
0100
,
1000
0010
1000
0001
0010
0100
0010
0001
1000
0010
0100
0001
1000
0100
0010
0001
,
1000
0100
0010
0100
1000
0100
1000
0001
1000
0100
0010
0001
1000
0010
0100
0001
,
1000
0100
1000
0010
0100
0010
0100
0001
1000
0100
0010
0001
1000
0010
0100
0001
,
1000
0010
1000
0001
0010
0001
1000
0100
1000
0001
0100
0010
1000
0001
0010
0100
,
1000
0001
0100
0010
1000
0001
0100
0001
1000
0010
0100
0001
1000
0010
1000
0001
,
0400
0004
0000
0000
0000
0000
0000
0000
0000
0000
0000
0000
0000
0000
0000
0000
0000
0000
0000
0000
0000
0000
0000
0000
,
M303
0000
0000
00M0
0000
0000
M000
0000
,
0000
000M
0000
0000
00M0
0000
0000
M000
,
0000
0000
00M0
0000
0000
000M
0000
M000
,
0101
0000
1001
0000
1010
1001
0000
0011
,
0000
0010
0100
1000
1000
0001
0100
0010
,
1000
0100
0010
0002
0000
1003
0010
0200
,
0000
0301
1000
0100
0020
0000
0032
0000
,
1003
0010
1000
0100
0010
0001
1000
0010
1000
0001
0010
0100
0010
0001
1000
0100
,
0010
0001
1000
0010
1000
0001
0100
0010
1000
0010
0100
0001
1000
0010
1000
0001
,
1000
0100
1000
0010
0100
0001
1000
0100
1000
0001
0100
0010
0100
0001
1000
0010
,
0100
0001
1000
0100
1000
0001
0010
0100
1000
0100
0010
0001
1000
0100
1000
0001
,
1000
0010
0100
0001
1000
0100
0010
0001
1000
0010
0100
0010
1000
0010
0100
0001
,
1000
0100
0010
0100
1000
0001
0100
0010
0100
0001
1000
0010
1000
0001
0100
0001
,
0100
0010
1000
0010
0100
0001
1000
0100
0010
0001
1000
0001
0010
0100
1000
0001
,
0100
0010
1000
0010
0100
0001
0100
0010
0100
0000
0000
0000
0001
0000
0000
0000
,
1000
0010
1000
0100
0010
0001
1000
0010
1000
0001
0010
0100
0010
0001
1000
0100
,
0010
0001
1000
0010
1000
0001
0100
0010
1000
0010
0100
0001
1000
0010
1000
0001
,
1000
0100
1000
0010
0100
0001
1000
0100
1000
0001
0100
0010
0100
0001
1000
0010
,
0100
0001
1000
0100
1000
0001
0010
0100
1000
0100
0010
0001
1000
0100
1000
0001
,
1000
0010
0100
0001
1000
0100
0010
0001
1000
0010
0100
0010
1000
0010
0100
0001
,
1000
0100
0010
0100
1000
0001
0100
0010
0100
0001
1000
0010
1000
0001
0100
0001
,
0100
0010
1000
0010
0100
0001
1000
0100
0010
0001
1000
0001
0010
0100
1000
0001
,
0100
0010
1000
0010
0100
0001
0100
0010
0100
0001
1000
0010
0100
0010
0100
0001
,
1000
0100
0010
0001
1000
0010
1000
0001
0100
0010
0100
0001
1000
0010
0100
0001
,
1000
0100
1000
0001
0010
0100
1000
0100
0010
0001
1000
0010
0100
0001
0100
0010
,
1000
0001
0100
0010
0100
0001
1000
0010
0100
0001
1000
0100
0010
0001
1000
0001
,
0100
0001
0100
0001
1000
0001
1000
0001
0010
0100
1000
0001
1000
0100
0010
0001
,
1000
0010
0100
0010
1000
0001
0100
0010
0100
0001
1000
0010
0100
0001
1000
0010
,
1000
0100
0010
0100
1000
0001
0010
0100
0010
0100
1000
0001
0100
0010
0100
0001
,
1000
0100
0010
0001
1000
0010
1000
0001
0100
0001
1000
0010
1000
0010
0100
0001
,
1000
0010
1000
0100
0010
0001
1000
0001
0100
0010
0100
0001
1000
0100
1000
0100
,
0010
0100
0010
0001
1000
0010
0100
0001
1000
0100
1000
0001
0010
0100
0010
0001
,
1000
0100
0010
0001
1000
0010
1000
0001
0100
0010
1000
0010
0100
0001
1000
0100
,
0010
0001
0010
0100
1000
0001
0010
0100
0010
0001
1000
0100
0010
0001
1000
0010
,
0100
0001
1000
0001
0010
0001
0010
0001
1000
0001
1000
0001
0100
0010
1000
0001
,
1000
0010
0100
0001
1000
0100
0010
0100
1000
0001
0010
0100
0010
0001
1000
0100
,
0010
0001
1000
0100
1000
0010
0100
0010
1000
0001
0100
0010
0100
0010
1000
0001
,
0010
0100
0010
0001
1000
0010
0100
0001
1000
0100
1000
0001
0010
0001
1000
0100
,
1000
0001
1000
0100
1000
0001
1000
0100
1000
0100
0010
0000
0001
0000
1000
0000
,
0010
0100
0000
0100
0000
0100
0001
1000
,
0100
0010
0000
0010
0000
0010
0001
1000
,
0010
1000
0000
1000
0000
1000
0010
0100
,
0001
0000
1000
0100
1000
0100
0000
0010
,
0001
1000
0000
1000
0000
1000
0010
0100
,
0001
0010
0000
0010
0000
0010
0100
1000
,
0001
0010
0100
1000
0001
0010
0001
1000
0100
0010
0100
1000
0001
0010
0100
1000
,
0004
0400
0000
0000
0000
0000
0000
0000
0000
0000
0000
0000
0000
0000
0000
0000
0000
0000
0000
0000
0000
0000
0003
0300
,
1010
0000
1001
0000
0011
1001
0000
0101
,
0000
0100
0010
1000
0000
0001
0010
0100
,
1000
0010
0000
0100
0000
0001
0000
1000
,
1100
0000
0000
0000
,
0000
0000
0000
0000
,
0000
0000
0000
0000
0000
0000
00M0
M000
000M
0M00
00M0
M000
0M0M
00M0
0000
M00M
00M0
0M00
000M
M000
00M0
0M00
M000
0000
,
0001
0010
0100
1000
0001
1000
0100
0010
0001
1000
0010
0100
0001
1000
0010
1000
,
0001
0100
0010
0100
0001
1000
0100
0010
0001
1000
0010
1000
0010
0100
0001
1000
,
0001
0100
0001
0100
0010
1000
0010
1000
0001
0010
0001
1000
0010
1000
0001
0100
,
0001
1000
0100
0010
0001
1000
0100
1000
0001
0010
0100
0010
0001
1000
0100
1000
,
0001
0100
0010
1000
0001
1000
0010
0100
0001
1000
0100
0010
0001
1000
0100
1000
,
0001
0010
0100
0010
0001
1000
0010
0100
0001
1000
0100
1000
0100
0010
0001
1000
,
0001
0010
0001
0010
0100
1000
0100
1000
0001
0100
0001
1000
0100
1000
0001
0010
,
0001
1000
0010
0100
0001
1000
0010
1000
0001
0100
0010
0100
0001
1000
0010
1000
,
0001
0010
0100
1000
0001
1000
0100
0010
0001
1000
0010
0100
0001
1000
0010
1000
,
0001
0100
0010
0100
0001
1000
0100
0010
0001
1000
0010
1000
0010
0100
0001
1000
,
0001
0100
0001
0100
0010
1000
0010
1000
0001
0010
0001
1000
0010
1000
0001
0100
,
0001
1000
0100
0010
0001
1000
0100
1000
0001
0010
0100
0010
0001
1000
0100
1000
,
0001
0010
0100
0010
0001
1000
0010
1000
0010
0100
0001
0100
0001
0010
0100
0010
,
0001
1000
0010
1000
0010
0100
0001
0100
0001
1000
0100
0010
0001
1000
0010
1000
,
0001
0100
0010
1000
0001
0100
0010
0100
0001
1000
0010
0100
0001
1000
0010
1000
,
0004
0400
0000
0000
0000
0000
0000
0000
0000
0000
0000
0000
0000
0000
0000
0000
0000
0000
0000
0000
0000
0000
0000
0003
,
0310
1000
0010
0100
0001
1000
0001
0100
0001
1000
0100
0010
0001
1000
0010
0100
,
0001
1000
0010
0100
0010
1000
0001
0010
0001
1000
0100
0010
0001
1000
0010
0100
,
0001
0010
0001
1000
0010
0100
0010
1000
0001
0010
0100
1000
0001
0100
0010
1000
,
0001
0100
0010
0100
0001
0100
0001
1000
0001
0100
0010
1000
0001
0010
0100
1000
,
0001
0100
0001
0010
0100
0010
0100
1000
0001
0100
0010
1000
0001
0010
0100
1000
,
0001
0010
0001
1000
0010
1000
0001
0100
0001
1000
0100
0010
0001
1000
0010
0100
,
0001
0010
0001
1000
0001
0100
0001
1000
0001
0010
0100
1000
0001
0100
0010
1000
,
0001
0000
0000
0000
0000
0000
0000
0000
0000
0000
0000
0000
0000
0000
0000
0000
0000
0000
0000
0000
0000
0000
0000
0000
0400
0000
0300
0000
0000
0000
0000
0000
0004
0000
0003
0000
0000
0000
0000
0000
0400
0000
0300
0000
0000
0000
0000
0000
0004
0000
0003
0000
0000
0000
0000
0000
0000
0000
0000
0000
0000
0000
0000
0000
0000
0000
0000
0000
0000
0000
0000
0000
4000
0000
3000
0000
0000
0000
0000
0000
0040
0000
0030
0000
0000
0000
0000
0000
4000
0000
3000
0000
0000
0000
0000
0000
0040
0000
0030
0000
0000
0000
0000
0000
0000
0000
0000
0000
0000
0000
0000
0000
0000
0000
0000
0000
0000
0000
0000
0000
4000
0000
3000
0000
0000
0000
0000
0000
0004
0000
0003
0000
0000
0000
0000
0000
4000
0000
3000
0000
0000
0000
0000
0000
0001
0000
0000
0000
0000
0000
0000
0000
0000
0000
0000
0000
0100
0000
0000
0000
0000
0000
0000
0000
0000
0000
0000
0000
0001
0000
0000
0000
0000
0000
0000
0000
0000
0000
0000
0000
0100
0000
0000
0000
0000
0000
0000
0000
0000
0000
0000
0000
,
0001
1000
0100
0010
0100
1000
0001
0010
0001
1000
0010
0100
0001
1000
0100
0010
,
0001
1000
0100
0010
0100
1000
0001
0100
0001
1000
0010
0100
0001
1000
0100
0010
,
0001
0100
0001
1000
0100
0010
0100
1000
0001
0100
0010
1000
0001
0010
0100
1000
,
0001
0010
0100
0010
0001
0010
0001
1000
0001
0010
0100
1000
0001
0100
0010
1000
,
0001
0010
0001
0100
0010
0100
0010
1000
0001
0010
0100
1000
0001
0100
0010
1000
,
0001
0100
0001
1000
0100
1000
0001
0010
0001
1000
0010
0100
0001
1000
0100
0010
,
0001
1000
0010
0100
0001
1000
0010
1000
0001
0100
0010
1000
0001
0100
0001
1000
,
0001
0100
0001
0100
0001
0100
0001
0100
0040
0000
4030
0000
3001
0010
0001
0010
,
0001
1000
0010
0100
0010
1000
0001
0100
0001
1000
0100
0010
0001
1000
0010
0100
,
0001
1000
0010
0100
0010
1000
0001
0010
0001
1000
0100
0010
0001
1000
0010
0100
,
0001
0010
0001
1000
0010
0100
0010
1000
0001
0010
0100
1000
0001
0100
0010
1000
,
0001
0100
0010
0100
0001
0100
0001
1000
0001
0100
0010
1000
0001
0010
0100
1000
,
0001
0100
0001
0010
0100
0010
0100
1000
0001
0100
0010
1000
0001
0010
0100
1000
,
0001
0010
0001
1000
0010
1000
0001
0100
0001
1000
0100
0010
0001
1000
0010
0100
,
0001
0010
0001
1000
0001
0100
0001
1000
0001
0010
0100
1000
0001
0100
0010
1000
,
0001
0000
0000
0000
0000
0000
0000
0000
0000
0000
0000
0000
0000
0000
0000
0000
0000
0000
0000
0000
0000
0000
0000
0000
0400
0000
0300
0000
0000
0000
0000
0000
0004
0000
0003
0000
0000
0000
0000
0000
0400
0000
0300
0000
0000
0000
0000
0000
0004
0000
0003
0000
0000
0000
0000
0000
0000
0000
0000
0000
0000
0000
0000
0000
0000
0000
0000
0000
0000
0000
0000
0000
4000
0000
3000
0000
0000
0000
0000
0000
0040
0000
0030
0000
0000
0000
0000
0000
4000
0000
3000
0000
0000
0000
0000
0000
0040
0000
0030
0000
0000
0000
0000
0000
0000
0000
0000
0000
0000
0000
0000
0000
0000
0000
0000
0000
0000
0000
0000
0000
4000
0000
3000
0000
0000
0000
0000
0000
0004
0000
0003
0000
0000
0000
0000
0000
4000
0000
3000
0000
0000
0000
0000
0000
0001
0000
0000
0000
0000
0000
0000
0000
0000
0000
0000
0000
0100
0000
0000
0000
0000
0000
0000
0000
0000
0000
0000
0000
0001
0000
0000
0000
0000
0000
0000
0000
0000
0000
0000
0000
0100
0000
0000
0000
0000
0000
0000
0000
0000
0000
0000
0000
,
0001
1000
0100
0010
0100
1000
0001
0010
0001
1000
0010
0100
0001
1000
0100
0010
,
0001
1000
0100
0010
0100
1000
0001
0100
0001
1000
0010
0100
0001
1000
0100
0010
,
0001
0100
0001
1000
0100
0010
0100
1000
0001
0100
0010
1000
0001
0010
0100
1000
,
0001
0010
0100
0010
0001
0010
0001
1000
0001
0010
0100
1000
0001
0100
0010
1000
,
0001
0010
0001
0100
0010
0100
0010
1000
0001
0010
0100
1000
0001
0100
0010
1000
,
0001
0100
0001
1000
0100
1000
0001
0010
0001
1000
0010
0100
0001
1000
0100
0010
,
0001
1000
0010
0100
0001
1000
0010
1000
0001
0100
0010
1000
0001
0100
0001
1000
,
0004
0000
0400
0000
0000
0000
0000
0000
0000
0000
0000
0000
0000
0000
0000
0000
0000
0000
0000
0000
0000
0000
0000
0000
0000
0000
0000
0000
0000
0000
0003
0000
0300
0000
0000
0000
0010
0000
0000
1000
0000
0000
0010
0000
0000
1000
0000
0000
,
0001
1000
0100
0010
0100
1000
0001
0100
0001
1000
0100
0010
0001
1000
0010
0100
,
0001
1000
0010
0100
0010
1000
0001
0010
0001
1000
0100
0010
0001
1000
0010
0100
,
0001
0010
0001
1000
0010
0100
0010
1000
0001
0010
0100
1000
0001
0100
0010
1000
,
0001
0100
0010
0100
0001
0100
0001
1000
0001
0100
0010
1000
0001
0010
0100
1000
,
0001
0100
0001
0010
0100
0010
0100
1000
0001
0100
0010
1000
0001
0010
0100
1000
,
0001
0010
0001
1000
0010
1000
0001
0100
0001
1000
0100
0010
0001
1000
0010
0100
,
0001
0010
0001
1000
0001
0100
0001
1000
0001
0010
0100
1000
0001
0100
0010
1000
,
0001
0000
0000
0000
0000
0000
0000
0000
0000
0000
0000
0000
0000
0000
0000
0000
0000
0000
0000
0000
0000
0000
0000
0000
0400
0000
0300
0000
0000
0000
0000
0000
0004
0000
0003
0000
0000
0000
0000
0000
0400
0000
0300
0000
0000
0000
0000
0000
0004
0000
0003
0000
0000
0000
0000
0000
0000
0000
0000
0000
0000
0000
0000
0000
0000
0000
0000
0000
0000
0000
0000
0000
4000
0000
3000
0000
0000
0000
0000
0000
0040
0000
0030
0000
0000
0000
0000
0000
4000
0000
3000
0000
0000
0000
0000
0000
0040
0000
0030
0000
0000
0000
0000
0000
0000
0000
0000
0000
0000
0000
0000
0000
0000
0000
0000
0000
0000
0000
0000
0000
4000
0000
3000
0000
0000
0000
0000
0000
0004
0000
0003
0000
0000
0000
0000
0000
4000
0000
3000
0000
0000
0000
0000
0000
0001
0000
0000
0000
0000
0000
0000
0000
0000
0000
0000
0000
0100
0000
0000
0000
0000
0000
0000
0000
0000
0000
0000
0000
0001
0000
0000
0000
0000
0000
0000
0000
0000
0000
0000
0000
0100
0000
0000
0000
0000
0000
0000
0000
0000
0000
0000
0000
,
0001
1000
0100
0010
0100
1000
0001
0010
0001
1000
0010
0100
0001
1000
0100
0010
,
0002
0003
0000
0000
0200
0300
0000
0000
0020
0030
0000
0000
2000
3000
0000
0000
0020
0030
0000
0000
0200
0300
0000
0000
0002
0003
0000
0000
2000
3000
0000
0000
0200
0300
0000
0000
0020
0030
0000
0000
0002
0003
0000
0000
0020
0030
0000
0000
0200
0300
0000
0000
2000
3000
0000
0000
0002
0003
0000
0000
2000
3000
0000
0000
,
0001
0100
0001
1000
0100
0010
0100
1000
0001
0100
0010
1000
0001
0010
0100
1000
,
0001
0010
0100
0010
0001
0010
0001
1000
0001
0010
0100
1000
0001
0100
0010
1000
,
0001
0010
0001
0100
0010
0100
0010
1000
0001
0010
0100
1000
0001
0100
0010
1000
,
0001
0100
0001
1000
0100
1000
0001
0010
0001
1000
0010
0100
0001
1000
0100
0010
,
0001
1000
0010
0100
0001
1000
0010
1000
0001
0100
0010
1000
0001
0100
0001
1000
,
0004
0000
0400
0000
0000
0000
0000
0000
0000
0000
0000
0000
0000
0000
0000
0000
0000
0000
0000
0000
0000
0000
0300
0000
4003
0000
0000
0000
0000
0000
0000
0000
0000
0000
0000
0000
3001
0000
0000
0100
0000
0000
0001
0000
0000
0100
0000
0000
,
0001
0000
0000
0010
0000
0000
0100
0000
0000
1000
0000
0000
000M
00M0
0M00
M000
000M
00M0
0M00
M000
000M
00M0
0M00
0000
,
1000
0001
1000
0001
1000
0001
0100
0010
0100
0001
1000
0010
1000
0001
0010
0100
,
1000
0001
0100
0010
1000
0001
0100
0010
0100
0001
1000
0100
1000
0001
0010
0100
,
1000
0001
0100
0010
1000
0100
1000
0001
0100
0010
0100
0001
1000
0100
0010
0001
,
1000
0010
0100
0001
1000
0010
0100
0010
1000
0010
1000
0001
1000
0010
0100
0001
,
1000
0100
0010
0001
1000
0010
1000
0100
0010
0100
0010
0001
1000
0010
0100
0001
,
1000
0100
0010
0001
1000
0100
1000
0001
0100
0001
1000
0010
1000
0001
0010
0100
,
1000
0001
0100
0010
1000
0100
1000
0001
1000
0010
1000
0001
1000
0100
0010
0001
,
1000
0000
0000
0000
0000
0000
0000
0000
0000
0000
0000
0000
0010
0000
0000
0000
0000
0000
0000
0000
0000
0000
0000
0000
0100
0000
0000
0000
0000
0000
0000
0000
0000
0000
0000
0000
0001
0000
0000
0000
0000
0000
0000
0000
0000
0000
0000
0000
1000
0000
0000
0000
0000
0000
0000
0000
0000
0000
0000
0000
0000
0000
0000
0000
0000
0000
0000
0000
0000
0000
0000
0000
0040
0000
0030
0000
0000
0000
0000
0000
4000
0000
3000
0000
0000
0000
0000
0000
0040
0000
0030
0000
0000
0000
0000
0000
4000
0000
3000
0000
0000
0000
0000
0000
0000
0000
0000
0000
0000
0000
0000
0000
0000
0000
0000
0000
0000
0000
0000
0000
0004
0000
0003
0000
0000
0000
0000
0000
0400
0000
0300
0000
0000
0000
0000
0000
0004
0000
0003
0000
0000
0000
0000
0000
0400
0000
0300
0000
0000
0000
0000
0000
0000
0000
0000
0000
0000
0000
0000
0000
0000
0000
0000
0000
0000
0000
0000
0000
0004
0000
0003
0000
0000
0000
0000
0000
4000
0000
3000
0000
0000
0000
0000
0000
0004
0000
0003
0000
0000
0000
0000
0000
,
1000
0010
1000
0010
1000
0001
0010
0100
0010
0001
1000
0100
1000
0001
0100
0010
,
1000
0001
0010
0100
1000
0001
0010
0100
0010
0001
1000
0010
1000
0001
0100
0010
,
1000
0001
0010
0100
1000
0010
1000
0001
0010
0100
0010
0001
1000
0010
0100
0001
,
1000
0100
0010
0001
1000
0100
0010
0100
1000
0100
1000
0001
1000
0100
0010
0001
,
1000
0010
0100
0001
1000
0100
1000
0010
0100
0010
0100
0001
1000
0100
0010
0001
,
1000
0010
0100
0001
1000
0010
1000
0001
0010
0001
1000
0100
1000
0001
0100
0010
,
1000
0001
0010
0100
1000
0001
0100
0010
1000
0001
0100
0001
1000
0010
0100
0001
,
1000
0000
0000
0010
0000
0000
1000
0000
0000
0001
0000
0000
0400
0000
0004
0000
0000
0000
0000
0000
0000
0000
0000
0000
0000
0000
0000
0000
0000
0000
0000
0000
0000
0000
0000
0000
0000
0000
0000
0000
0000
0000
0000
0000
0000
0000
0000
0000
,
0000
0000
0000
0000
0000
0000
0000
0000
0000
0000
0300
0000
1003
0000
0000
0010
0000
0000
1000
0000
0000
0001
0000
0000
1000
0000
0000
0100
0000
0000
1000
0000
0000
0001
0000
0000
1000
0000
0000
0100
0000
0000
0010
0000
0000
0001
0000
0000
,
1000
0010
1000
0010
0100
0001
0100
0010
0100
0001
0100
0010
0100
0001
1000
0100
,
0010
0001
1000
0001
1000
0010
0100
0010
1000
0010
0100
0010
1000
0001
0100
0010
,
0100
0001
1000
0010
0100
0001
0100
0010
0100
0001
0100
0010
0100
0001
1000
0100
,
0010
0001
1000
0001
0010
0100
1000
0100
0010
0100
1000
0100
0010
0001
1000
0010
,
1000
0001
0100
0001
1000
0010
1000
0001
1000
0100
1000
0010
1000
0100
0010
0100
,
1000
0001
0010
0001
1000
0010
0100
0010
1000
0010
0100
0010
1000
0001
1000
0100
,
0010
0001
1000
0001
0100
0010
1000
0010
0100
0010
1000
0010
1000
0001
0100
0010
,
0100
0001
1000
0001
1000
0100
0010
0100
1000
0001
0010
0100
1000
0010
1000
0001
,
0010
0100
0010
0001
1000
0010
0100
0010
1000
0100
0010
0001
1000
0010
0100
0010
,
1000
0100
0010
0100
1000
0001
0010
0001
1000
0100
0010
0001
1000
0010
0100
0010
,
1000
0001
0010
0001
1000
0010
0100
0010
1000
0001
0100
0010
1000
0100
1000
0001
,
0100
0010
0100
0001
1000
0100
0010
0100
1000
0010
0100
0001
1000
0100
0010
0100
,
1000
0010
0100
0010
1000
0001
0100
0001
1000
0010
0100
0001
1000
0100
0010
0100
,
1000
0001
0100
0001
1000
0000
0100
0000
0010
0000
0002
0000
0000
0000
0103
0000
,
0010
2000
0000
3001
0010
0100
2000
0000
,
3020
0000
0000
0000
1030
0010
1000
0100
0010
0001
1000
0010
1000
0001
0010
0100
,
0010
0001
1000
0100
0010
0001
1000
0010
1000
0001
0100
0010
1000
0010
0100
0001
,
1000
0010
1000
0001
1000
0100
1000
0010
0100
0001
1000
0100
1000
0001
0100
0010
,
0100
0001
1000
0010
0100
0001
1000
0100
1000
0001
0010
0100
1000
0100
0010
0001
,
1000
0100
1000
0001
1000
0010
0100
0001
1000
0100
0010
0001
1000
0010
0100
0010
,
1000
0010
0100
0001
1000
0100
0010
0100
1000
0001
0100
0010
0100
0001
1000
0010
,
1000
0001
0100
0001
0100
0010
1000
0010
0100
0001
1000
0100
0010
0001
1000
0001
,
0010
0100
1000
0001
0100
0010
1000
0010
0100
0001
0100
0010
0100
0000
0000
0000
,
0001
0000
0000
0000
1000
0010
1000
0100
0010
0001
1000
0010
1000
0001
0010
0100
,
0010
0001
1000
0100
0010
0001
1000
0010
1000
0001
0100
0010
1000
0010
0100
0001
,
1000
0000
0000
0000
0000
0000
0000
0000
0000
0000
0000
0000
0010
0000
0000
0000
0000
0000
0000
0000
0000
0000
0000
0000
1000
0000
0000
0000
0000
0000
0000
0000
0000
0000
0000
0000
0001
0000
0000
0000
0000
0000
0000
0000
0000
0000
0000
0000
2000
3000
0000
0000
0000
0000
0000
0000
0000
0000
0000
0000
0200
0300
0000
0000
0000
0000
0000
0000
0000
0000
0000
0000
2000
3000
0000
0000
0000
0000
0000
0000
0000
0000
0000
0000
0020
0030
0000
0000
0000
0000
0000
0000
0000
0000
0000
0000
0200
0300
0000
0000
0000
0000
0000
0000
0000
0000
0000
0000
0002
0003
0000
0000
0000
0000
0000
0000
0000
0000
0000
0000
2000
3000
0000
0000
0000
0000
0000
0000
0000
0000
0000
0000
0200
0300
0000
0000
0000
0000
0000
0000
0000
0000
0000
0000
2000
0000
3000
0000
0000
0000
0000
0000
0000
0000
0000
0000
0002
0000
0003
0000
0000
0000
0000
0000
0000
0000
0000
0000
0200
0000
0300
0000
0000
0000
0000
0000
0000
0000
0000
0000
0020
0000
0030
0000
0000
0000
0000
0000
0000
0000
0000
0000
,
0200
0000
0300
0000
0000
0000
0000
0000
0000
0000
0000
0000
0002
0000
0003
0000
0000
0000
0000
0000
0000
0000
0000
0000
2000
0000
3000
0000
0000
0000
0000
0000
0000
0000
0000
0000
0020
0000
0030
0000
0000
0000
0000
0000
0000
0000
0000
0000
0200
0000
0000
0300
0000
0000
0000
0000
0000
0000
0000
0000
0002
0000
0000
0003
0000
0000
0000
0000
0000
0000
0000
0000
2000
0000
0000
3000
0000
0000
0000
0000
0000
0000
0000
0000
0200
0000
0000
0300
0000
0000
0000
0000
0000
0000
0000
0000
2000
0000
0000
3000
0000
0000
0000
0000
0000
0000
0000
0000
0002
0000
0000
0003
0000
0000
0000
0000
0000
0000
0000
0000
0020
0000
0000
0030
0000
0000
0000
0000
0000
0000
0000
0000
0200
0000
0000
0300
0000
0000
0000
0000
0000
0000
0000
0000
2000
0000
0000
3000
0000
0000
0000
0000
0000
0000
0000
0000
0200
0000
0000
0300
0000
0000
0000
0000
0000
0000
0000
0000
0020
0000
0000
0030
0000
0000
0000
0000
0000
0000
0000
0000
0002
0000
0000
0003
0000
0000
0000
0000
0000
0000
0000
0000
,
2000
0000
0000
0000
3000
0000
0000
0000
0000
0000
0000
0000
0200
0000
0000
0000
0300
0000
0000
0000
0000
0000
0000
0000
2000
0000
0000
0000
3000
0000
0000
0000
0000
0000
0000
0000
0002
0000
0000
0000
0003
0000
0000
0000
0000
0000
0000
0000
2000
0000
0000
0000
3000
0000
0000
0000
0000
0000
0000
0000
0020
0000
0000
0000
0030
0000
0000
0000
0000
0000
0000
0000
0200
0000
0000
0000
0300
0000
0000
0000
0000
0000
0000
0000
0002
0000
0000
0000
0003
0000
0000
0000
0000
0000
0000
0000
2000
0000
0000
0000
3000
0000
0000
0000
0000
0000
0000
0000
0200
0000
0000
0000
0300
0000
0000
0000
0000
0000
0000
0000
0020
0000
0000
0000
0000
0000
0030
0000
0000
0000
0000
0000
0002
0000
0000
0000
0000
0000
0003
0000
0000
0000
0000
0000
2000
0000
0000
0000
0000
0000
3000
0000
0000
0000
0000
0000
0020
0000
0000
0000
0000
0000
0030
0000
0000
0000
0000
0000
0200
0000
0000
0000
0000
0000
0300
0000
0000
0000
0000
0000
0020
0000
0000
0000
0000
0000
0030
0000
0000
0000
0000
0000
,
2000
3000
0020
0000
0230
0000
0302
0000
2003
0000
3200
0000
0320
0000
0230
0000
2300
0000
3002
0000
0203
0000
0320
0000
0230
0000
0301
0000
1000
0000
0010
0000
,
1000
0001
0100
0001
0100
0010
1000
0010
0100
0001
1000
0100
0010
0001
1000
0001
,
0010
0100
1000
0001
0100
0010
1000
0010
0100
0001
0100
0010
0100
0001
1000
0010
,
0100
0010
0100
0001
1000
0100
0010
0001
1000
0010
1000
0001
0100
0010
0100
0001
,
1000
0010
0100
0001
1000
0100
1000
0001
0010
0100
1000
0100
0010
0001
1000
0010
,
0100
0001
0100
0010
1000
0001
0100
0010
0100
0001
1000
0010
0100
0001
1000
0100
,
0010
0001
1000
0001
0100
0001
0100
0001
1000
0001
1000
0001
0010
0100
1000
0001
,
1000
0100
0010
0001
1000
0010
0100
0010
1000
0001
0100
0010
0100
0001
1000
0010
,
0100
0001
1000
0010
1000
0100
0010
0100
1000
0001
0010
0100
0010
0100
1000
0001
,
0100
0010
0100
0001
1000
0100
0010
0001
1000
0010
1000
0001
0100
0001
1000
0010
,
1000
0010
0100
0001
1000
0010
1000
0100
0010
0001
1000
0001
0100
0010
0100
0001
,
1000
0100
1000
0100
0010
0100
0010
0001
1000
0010
0100
0001
1000
0100
1000
0001
,
0010
0100
0010
0001
1000
0100
0010
0001
1000
0010
1000
0001
0100
0010
1000
0010
,
0100
0001
1000
0100
0010
0001
0010
0100
1000
0001
0010
0100
0010
0001
1000
0100
,
0010
0001
1000
0010
0100
0001
1000
0001
0010
0001
0010
0001
1000
0001
1000
0001
,
0100
0010
1000
0001
1000
0010
0100
0001
1000
0100
0010
0100
1000
0001
0010
0100
,
0010
0000
0000
0000
0000
0000
0000
0000
0000
0000
0000
0000
0001
0000
0000
0000
0000
0000
0000
0000
0000
0000
0000
0000
1000
0000
0000
0000
0000
0000
0000
0000
0000
0000
0000
0000
0100
0000
0000
0000
0000
0000
0000
0000
0000
0000
0000
0000
0020
0030
0000
0000
0000
0000
0000
0000
0000
0000
0000
0000
0002
0003
0000
0000
0000
0000
0000
0000
0000
0000
0000
0000
2000
3000
0000
0000
0000
0000
0000
0000
0000
0000
0000
0000
0200
0300
0000
0000
0000
0000
0000
0000
0000
0000
0000
0000
2000
3000
0000
0000
0000
0000
0000
0000
0000
0000
0000
0000
0020
0030
0000
0000
0000
0000
0000
0000
0000
0000
0000
0000
0200
0300
0000
0000
0000
0000
0000
0000
0000
0000
0000
0000
0020
0030
0000
0000
0000
0000
0000
0000
0000
0000
0000
0000
2000
3000
0000
0000
0000
0000
0000
0000
0000
0000
0000
0000
0002
0000
0000
0003
0000
0000
0000
0000
0000
0000
0000
0000
0200
0000
0000
0300
0000
0000
0000
0000
0000
0000
0000
0000
0020
0000
0000
0030
0000
0000
0000
0000
0000
0000
0000
0000
,
0200
0000
0000
0300
0000
0000
0000
0000
0000
0000
0000
0000
0020
0000
0000
0030
0000
0000
0000
0000
0000
0000
0000
0000
2000
0000
0000
3000
0000
0000
0000
0000
0000
0000
0000
0000
0002
0000
0000
0003
0000
0000
0000
0000
0000
0000
0000
0000
0020
0000
0000
0000
0030
0000
0000
0000
0000
0000
0000
0000
0200
0000
0000
0000
0300
0000
0000
0000
0000
0000
0000
0000
0020
0000
0000
0000
0030
0000
0000
0000
0000
0000
0000
0000
0002
0000
0000
0000
0003
0000
0000
0000
0000
0000
0000
0000
2000
0000
0000
0000
3000
0000
0000
0000
0000
0000
0000
0000
0020
0000
0000
0000
0030
0000
0000
0000
0000
0000
0000
0000
0200
0000
0000
0000
0300
0000
0000
0000
0000
0000
0000
0000
0002
0000
0000
0000
0000
0000
0003
0000
0000
0000
0000
0000
2000
0000
0000
0000
0000
0000
3000
0000
0000
0000
0000
0000
0200
0000
0000
0000
0000
0000
0300
0000
0000
0000
0000
0000
2000
0000
0000
0000
0000
0000
3000
0000
0000
0000
0000
0000
0002
0000
0000
0000
0000
0000
0003
0000
0000
0000
0000
0000
,
0020
0030
0002
0003
1000
0000
0100
0000
0040
0000
0000
0000
0000
0000
0000
0000
0000
0000
0000
0000
0000
0000
0000
0000
0034
0000
0000
0000
0000
0000
0000
0000
,
0000
0003
1001
0000
0011
0000
0110
1100
,
0000
1001
0000
0001
0100
0010
0000
1000
,
0100
0010
0001
1000
0000
0010
0000
0100
,
0000
0001
0020
0000
0000
0000
0030
0000
;

//---------------dance-single - 16 (Zaia)----------------
#NOTES:
     dance-single:
     16 (Zaia):
     Medium:
     16:
     1.000,1.000,0.085,0.149,1.000,2799.000,24.000,42.000,4.000,0.000:
0000
0000
0000
0000
,
0000
0000
0000
0000
,
0000
0000
0000
0000
,
0000
0000
0000
0000
,
0000
0000
0000
0000
,
0000
0000
0000
0000
,
0000
0000
0000
0000
,
0000
0000
0000
0000
,
1001
0000
1000
0000
0100
0000
0010
0000
0001
1000
0001
0000
0100
0000
0010
0000
,
1000
0000
0001
0000
0010
0000
0001
0000
1000
0001
1000
0000
0010
0000
0100
0000
,
0001
0000
0100
0000
0010
0000
1000
0000
0001
1000
0001
0000
0010
0000
0100
0000
,
1000
0000
0001
0000
0100
0000
0001
0000
1000
0100
0010
0000
0001
0000
0001
0000
,
1000
0000
0001
0000
0100
0000
0010
0000
1000
0001
0010
0000
0100
0000
1000
0000
,
0001
0000
1000
0000
0010
0000
0100
0000
0001
1000
0100
0000
0010
0000
0100
0000
,
1000
0000
0001
0000
0100
0000
0001
0000
0010
0100
1000
0000
0001
0000
1000
0000
,
0010
0000
0000
1000
0010
1000
0001
0000
0000
1000
0010
1000
0001
0000
0000
0100
0001
1000
0020
0000
0000
0230
0000
0000
,
0301
0000
1000
0000
0100
0000
1000
0001
0100
0010
0100
0000
0001
1000
0001
0000
,
0010
0000
0100
0000
1000
0000
0001
1000
0100
0010
0100
0000
1000
0001
1000
0001
,
1000
0000
0001
0000
0010
0000
0001
1000
0010
0100
0010
0000
1000
0001
1000
0000
,
0100
0000
0010
0000
0001
0000
1000
0001
0010
0100
0010
0000
0001
1000
0001
0000
,
1000
0000
0001
0000
0010
0000
0001
1000
0010
0100
0010
0000
1000
0001
1000
0000
,
0100
0000
0010
0000
0001
0000
1000
0001
0010
0100
0010
0000
0001
1000
0001
1000
,
0001
0000
1000
0000
0100
0000
1000
0001
0100
0010
0100
0000
0001
1000
0001
0000
,
0010
0000
0000
0000
0000
0000
0001
0000
0100
0000
0001
0000
1000
0000
0000
0000
0000
0000
0001
0000
0000
1000
0000
0000
0100
0000
0000
0010
0000
0000
0000
0000
0000
0001
0000
0000
1000
0000
0000
0010
0000
0000
0000
0000
0000
0100
0000
0000
,
0001
0000
1000
0000
0010
0000
1000
0001
0010
0100
0010
0000
0001
1000
0001
0000
,
0100
0000
0010
0000
1000
0000
0001
1000
0010
0100
0010
0000
1000
0001
1000
0001
,
1000
0000
0001
0000
0100
0000
0001
1000
0100
0010
0100
0000
1000
0001
1000
0000
,
0010
0000
0100
0000
0001
0000
1000
0001
0100
0010
0100
0000
0001
1000
0001
0000
,
1000
0000
0001
0000
0100
0000
0001
1000
0100
0010
0100
0000
1000
0001
1000
0000
,
0010
0000
0100
0000
0001
0000
1000
0001
0100
0010
0100
0000
0001
1000
0001
1000
,
0001
0100
0010
1000
0001
1000
0010
1000
0001
0100
0001
1000
0010
0100
0001
1000
,
0010
0100
0010
0100
0010
0100
0010
0100
0010
0000
1000
0000
0001
0000
1000
0000
,
0001
0100
0010
1000
0100
1000
0001
1000
0001
0100
0010
1000
0100
1000
0001
1000
,
0001
0100
0010
1000
0100
1000
0001
1000
0001
0100
0010
1000
0100
1000
0001
1000
,
0001
0100
0010
1000
0100
1000
0001
1000
0001
0100
0010
1000
0100
1000
0001
1000
,
0001
0100
0010
1000
0100
1000
0001
1000
0001
0100
0010
1000
0100
1000
0001
1000
,
0001
0010
0100
1000
0010
1000
0001
1000
0001
0010
0100
1000
0010
1000
0001
1000
,
0001
0010
0100
1000
0010
1000
0001
1000
0001
0010
0100
1000
0010
1000
0001
1000
,
0001
0010
0100
1000
0010
1000
0001
1000
0001
0010
0100
1000
0010
1000
0001
1000
,
0001
0000
0000
0000
0000
0000
1000
0000
0100
0000
1000
0000
0001
0000
0000
0000
0000
0000
1000
0000
0100
0000
1000
0000
0001
0000
0000
0000
0000
0000
1000
0000
0010
0000
1000
0000
0001
0000
0000
1000
0000
0000
0001
0000
0000
1000
0000
0000
,
0001
0100
0010
1000
0100
1000
0001
1000
0001
0100
0010
1000
0100
1000
0001
1000
,
0001
0100
0010
1000
0100
1000
0001
1000
0001
0100
0010
1000
0100
1000
0001
1000
,
0001
0100
0010
1000
0100
1000
0001
1000
0001
0100
0010
1000
0100
1000
0001
1000
,
0001
0100
0010
1000
0100
1000
0001
1000
0001
0100
0010
1000
0100
1000
0001
1000
,
0001
0100
0010
1000
0100
0010
0001
0100
,
0001
1000
0001
1000
0001
1000
0001
1000
,
0001
0010
0001
0100
0010
1000
0100
1000
0010
0100
0001
0010
0001
0100
0010
1000
,
0004
0400
0000
0000
0000
0000
0000
0000
0000
0000
0000
0000
0000
0000
0000
0000
0000
0000
0000
0000
0000
0000
0000
0003
,
0300
0000
0000
0000
,
0000
0000
0000
0000
,
0000
0000
0000
0000
,
2002
3003
0022
0033
0110
2200
3300
2002
,
3003
1000
0010
0200
0300
0001
1000
0100
,
0010
0100
1000
0010
0000
0100
0001
0010
,
0000
0100
1000
0010
1010
0000
0011
0000
,
1000
0100
1000
0010
0100
0001
1000
0001
0010
0001
1000
0010
0100
0001
1000
0100
,
0010
0001
1000
0001
0100
0001
1000
0100
0010
0100
1000
0001
0010
0001
1000
0001
,
0100
0010
1000
0100
0010
0001
1000
0001
0100
0001
1000
0100
0010
0001
1000
0010
,
0100
0001
1000
0001
0010
0001
1000
0010
0100
0010
1000
0001
0100
0001
1000
0001
,
0010
0100
1000
0100
0010
0001
0100
0001
1000
0010
0100
0001
0010
0100
1000
0001
,
1000
0010
0100
0010
1000
0001
0010
0001
1000
0010
0100
0010
1000
0001
0010
0001
,
1000
0010
0100
0001
1000
0010
1000
0001
0100
0010
1000
0001
1000
0100
1000
0001
,
0010
0100
1000
0001
0100
0001
1000
0100
0010
0001
0100
0001
1000
0001
1000
0001
,
1000
0010
1000
0100
0010
0001
1000
0001
0100
0001
1000
0100
0010
0001
1000
0010
,
0100
0001
1000
0001
0010
0001
1000
0010
0100
0010
1000
0001
0100
0001
1000
0001
,
0010
0100
1000
0010
0100
0001
1000
0001
0010
0001
1000
0010
0100
0001
1000
0100
,
0010
0001
1000
0001
0100
0001
1000
0100
0010
0100
1000
0001
0010
0001
1000
0001
,
0100
0010
1000
0010
0100
0001
0010
0001
1000
0100
0010
0001
0100
0010
1000
0001
,
1000
0100
0010
0100
1000
0001
0100
0001
1000
0100
0010
0100
1000
0001
0100
0001
,
1000
0100
0010
0001
1000
0100
1000
0001
0010
0100
1000
0001
1000
0010
1000
0001
,
0100
0010
1000
0001
0010
0001
1000
0010
0100
0001
0010
0001
1000
0001
1000
0001
,
1000
0010
1000
0010
0100
0010
0100
0010
0100
0001
0100
0001
1000
0001
1000
0001
,
0010
0001
0010
0001
1000
0100
1000
0100
1000
0001
1000
0001
0100
0010
0100
0010
,
1000
0010
1000
0010
0100
0001
0100
0001
1000
0100
1000
0100
0010
0100
0010
0100
,
1000
0001
1000
0001
0100
0001
0100
0001
1000
0010
1000
0010
1000
0001
1000
0001
,
0010
0100
0010
0100
1000
0100
1000
0100
1000
0001
1000
0001
0100
0001
0100
0001
,
1000
0010
1000
0010
0100
0001
0100
0001
1000
0100
1000
0100
0010
0001
0010
0001
,
1000
0001
1000
0001
0010
0100
0010
0100
1000
0001
1000
0001
0100
0010
0100
0010
,
1000
0010
1000
0010
0100
0001
0100
0001
1000
0001
0010
0100
1000
0001
1000
0001
,
1000
0100
1000
0100
0010
0100
0010
0100
0010
0001
0010
0001
1000
0001
1000
0001
,
0100
0001
0100
0001
1000
0010
1000
0010
1000
0001
1000
0001
0010
0100
0010
0100
,
1000
0100
1000
0100
0010
0001
0010
0001
1000
0010
1000
0010
0100
0010
0100
0010
,
1000
0001
1000
0001
0010
0001
0010
0001
1000
0100
1000
0100
1000
0001
1000
0001
,
0100
0010
0100
0010
1000
0010
1000
0010
1000
0001
1000
0001
0010
0001
0010
0001
,
1000
0100
1000
0100
0010
0001
0010
0001
1000
0010
1000
0010
0100
0001
0100
0001
,
1000
0001
1000
0001
0100
0010
0100
0010
1000
0001
1000
0001
0010
0100
0010
0100
,
1000
0100
1000
0100
0010
0001
0010
0001
1000
0001
0100
0010
1000
0001
1000
0001
,
1000
0001
0010
0100
0000
1100
1000
0001
,
0100
0010
0100
0001
0000
0101
0001
1000
,
0100
0010
0001
0011
0000
0001
1000
0010
,
0100
0000
0001
0000
0010
0000
0001
0000
0100
0000
0001
0000
1000
0001
0100
0001
,
0010
0000
0100
0000
1000
0000
1001
0000
0001
0000
1000
0000
0001
0100
0001
0000
,
1000
0000
0100
0000
0010
0000
0110
0000
0100
0000
1000
0000
0001
0010
0001
0000
,
1000
0010
1000
0100
0010
0001
0100
0001
0010
0100
1000
0010
0100
0001
1000
0001
,
0040
0400
0000
0000
0000
0000
0000
0000
0000
0000
0000
0000
0000
0000
0000
0000
0000
0030
0300
0000
0000
0000
0000
0000
,
2200
3300
2002
3003
1010
0202
0303
2002
,
3003
0001
0010
0200
0300
1000
0010
0100
,
0001
1000
0000
0100
0000
0010
0000
0001
,
1000
0000
0000
0000
,
0000
0000
0000
0000
,
0000
MMMM
0000
0000
,
1000
0010
0100
0001
1000
0100
1000
0001
1000
0010
0100
0010
1000
0001
0010
0001
,
1000
0010
0100
0001
1000
0010
1000
0001
1000
0100
0010
0100
1000
0001
0100
0001
,
1000
0010
1000
0010
0100
0010
0100
0010
0100
0001
0100
0001
1000
0100
1000
0001
,
0100
0010
1000
0001
1000
0010
0100
0001
1000
0100
1000
0001
0100
0010
1000
0001
,
1000
0100
0010
0001
1000
0010
1000
0001
1000
0100
0010
0100
1000
0001
0100
0001
,
1000
0100
0010
0001
1000
0100
1000
0001
1000
0010
0100
0010
1000
0001
0010
0001
,
1000
0100
1000
0100
0010
0100
0010
0100
0010
0001
0010
0001
1000
0010
1000
0001
,
0010
0100
1000
0001
1000
0100
0010
0001
1000
0010
1000
0001
0010
0100
1000
0001
,
1000
0010
0100
0001
0010
0100
1000
0001
1000
0010
0100
0010
1000
0001
0010
0001
,
1000
0010
0100
0001
0010
0100
1000
0001
1000
0100
0010
0100
1000
0001
0100
0001
,
1000
0010
1000
0010
0100
0010
0100
0010
0100
0001
0100
0001
1000
0100
1000
0001
,
0100
0010
1000
0001
1000
0010
0100
0001
1000
0100
1000
0001
0010
0100
0010
0001
,
1000
0010
1000
0001
1000
0001
0100
0001
1000
0100
1000
0001
0100
0010
0100
0001
,
1000
0001
1000
0001
1000
0001
1000
0001
,
1000
0100
1000
0010
0100
0001
0010
0001
0100
0010
1000
0100
1000
0001
0010
0001
,
4000
0040
0000
0000
0000
0000
0000
0000
0000
0000
0000
0000
0000
0000
0000
0000
0000
3000
0030
0000
0000
0000
0000
0000
,
1000
0010
0100
0001
0010
0001
1000
0001
1000
0010
0100
0001
0010
0001
1000
0001
,
1000
0010
0100
0001
0010
0001
1000
0001
1000
0010
0100
0001
0010
0001
1000
0001
,
1000
0010
0100
0001
0010
0001
1000
0001
1000
0010
0100
0001
0010
0001
1000
0001
,
1000
0010
0100
0001
0010
0001
1000
0001
1000
0010
0100
0001
0010
0001
1000
0001
,
1000
0100
0010
0001
0100
0001
1000
0001
1000
0100
0010
0001
0100
0001
1000
0001
,
1000
0100
0010
0001
0100
0001
1000
0001
1000
0100
0010
0001
0100
0001
1000
0001
,
1000
0100
0010
0001
0100
0001
1000
0001
1000
0100
0010
0001
0100
0001
1000
0001
,
1000
0000
0000
0000
0000
0000
0001
0000
0010
0000
0001
0000
1000
0000
0000
0000
0000
0000
0001
0000
0010
0000
0001
0000
1000
0000
0000
0000
0000
0000
0001
0000
0100
0000
0001
0000
1000
0000
0000
0001
0000
0000
1000
0000
0000
0001
0000
0000
,
1000
0010
0100
0001
0010
0001
1000
0001
1000
0010
0100
0001
0010
0001
1000
0001
,
1000
0010
0100
0001
0010
0001
1000
0001
1000
0010
0100
0001
0010
0001
1000
0001
,
1000
0010
0100
0001
0010
0001
1000
0001
1000
0010
0100
0001
0010
0001
1000
0001
,
1000
0010
0100
0001
0010
0001
1000
0001
1000
0010
0100
0001
0010
0001
1000
0001
,
4000
0000
0000
0000
,
0000
0000
0000
0000
,
0000
0000
0000
3000
,
0001
1000
0001
1000
0001
1000
0020
0000
0230
0000
0302
0000
1003
0100
1000
0001
,
1000
0100
0010
0001
1000
0010
0100
0010
,
1000
0100
0010
0001
1000
0010
0100
0010
,
1000
0100
0010
0001
1000
0010
0100
0010
,
1000
0100
0010
0001
1000
0010
1000
1000
,
0001
0010
0100
1000
0001
0100
0010
0100
,
0001
0010
0100
1000
0001
0100
0010
0100
,
0001
0010
0100
1000
0001
0100
0010
0100
,
0001
0000
0000
0000
0000
0000
1000
0000
0100
0000
1000
0000
0001
0000
0000
0000
0000
0000
1000
0000
0100
0000
1000
0000
0001
0000
0000
0000
0000
0000
0100
0000
0010
0000
0100
0000
0001
0000
0000
1000
0000
0000
0001
0000
0000
1000
0000
0000
,
0001
0100
0010
1000
0001
0010
0100
0010
,
0001
0100
0010
1000
0001
0010
0100
0010
,
0001
0100
0010
1000
0001
0010
0100
0010
,
0001
0100
0010
1000
0001
0010
0100
0010
,
0001
1000
0000
0001
0000
1000
0000
0001
,
0000
1000
0000
0001
0000
1000
0000
0001
,
1000
0010
1000
0100
0010
0001
0100
0001
0010
0100
1000
0010
1000
0001
0010
0001
,
4000
0000
0004
0000
0000
0000
0000
0000
0000
0000
0000
0000
0000
0000
0000
0000
0000
0000
0000
0000
0000
0000
3000
0000
0003
0000
0000
0000
0000
0000
0000
0000
0000
0000
0000
0000
1000
0000
0000
0010
0000
0000
0100
0000
0000
0010
0000
0000
,
0100
0000
0001
0100
0001
0000
0010
0000
0100
0000
1000
0010
1000
0000
0100
0000
,
0010
0000
0001
0100
0001
0000
0010
0000
0100
0000
1000
0010
1000
0000
0100
0000
,
0010
0000
0001
0100
0001
0000
0010
0000
0100
0000
1000
0010
1000
0000
0100
0000
,
0010
0000
0001
0100
0001
0000
0010
0000
0100
0000
1000
0010
1000
0000
0001
0000
,
0001
0000
1000
0100
1000
0000
0010
0000
0100
0000
0001
0010
0001
0000
0100
0000
,
0010
0000
1000
0100
1000
0000
0010
0000
0100
0000
0001
0010
0001
0000
0100
0000
,
0010
0000
1000
0100
1000
0000
0010
0000
0100
0000
0001
0010
0001
0000
0100
0000
,
0001
0000
0000
0000
0000
0000
1000
0000
0010
0000
1000
0000
0001
0000
0000
0000
0000
0000
1000
0000
0010
0000
1000
0000
0001
0000
0000
0000
0000
0000
1000
0000
0010
0000
0100
0000
0001
0000
0000
1000
0000
0000
0100
0000
0000
1000
0000
0000
,
0100
0000
1000
0010
1000
0000
0100
0000
0010
0000
0001
0100
0001
0000
0010
0000
,
0100
0000
1000
0010
1000
0000
0100
0000
0010
0000
0001
0100
0001
0000
0010
0000
,
0100
0000
1000
0010
1000
0000
0100
0000
0010
0000
0001
0100
0001
0000
0010
0000
,
0100
0000
1000
0010
1000
0000
0100
0000
0010
0000
0001
0100
0001
0000
0010
0000
,
0100
1000
0100
1000
0100
1000
0100
1000
,
0001
0100
0001
0100
0001
0100
0001
0100
,
0001
0010
0001
0100
0010
1000
0100
1000
0010
0100
0001
0010
0001
1000
0100
1000
,
0004
0000
0400
0000
0000
0000
0000
0000
0000
0000
0000
0000
0000
0000
0000
0000
0003
0000
0300
0000
0000
0000
0000
0000
0002
0000
0000
0000
0000
0000
0023
0000
0000
0000
0000
0000
0130
0000
0000
1000
0000
0000
0001
0000
0000
1000
0000
0000
,
0001
0000
0000
0000
,
1000
0001
1000
0001
1000
0100
0010
0001
0100
0001
1000
0001
1000
0100
0010
0001
,
0100
0001
1000
0001
1000
0100
0010
0001
0100
0001
1000
0001
1000
0100
0010
0001
,
0100
0001
1000
0001
1000
0100
0010
0001
0100
0001
1000
0001
1000
0100
0010
0001
,
0100
0001
1000
0001
1000
0100
0010
0001
0100
0001
1000
0001
1000
0100
0010
0001
,
0100
0001
1000
0001
1000
0010
0100
0001
0010
0001
1000
0001
1000
0010
0100
0001
,
0010
0001
1000
0001
1000
0010
0100
0001
0010
0001
1000
0001
1000
0010
0100
0001
,
0010
0001
1000
0001
1000
0010
0100
0001
0010
0001
1000
0001
1000
0010
0100
0001
,
0010
0000
0000
0001
0000
0000
1000
0000
0000
0001
0000
0000
1000
0000
0000
0000
0000
0000
0001
0000
0100
0000
0001
0000
1000
0000
0000
0000
0000
0000
0001
0000
0100
0000
0001
0000
1000
0000
0000
0000
0000
0000
0001
0000
0010
0000
0001
0000
,
1000
0001
1000
0001
1000
0100
0010
0001
0100
0001
1000
0001
1000
0100
0010
0001
,
0100
0001
1000
0001
1000
0100
0010
0001
0100
0001
1000
0001
1000
0100
0010
0001
,
0100
0001
1000
0001
1000
0100
0010
0001
0100
0001
1000
0001
1000
0100
0010
0001
,
0100
0001
1000
0001
1000
0100
0010
0001
0100
0001
1000
0001
1000
0100
0010
0001
,
0100
0001
1000
0001
1000
0100
0010
0001
0100
0001
1000
0001
1000
0100
0010
0001
,
0100
0001
1000
0001
1000
0100
0010
0001
0100
0001
1000
0001
1000
0100
0010
0001
,
0100
0001
1000
0001
1000
0000
0100
0000
0010
0000
0100
0000
1000
0000
0001
0000
,
0100
0000
0000
0010
0000
0000
4000
0004
0000
0000
0000
0000
0000
0000
3000
0003
0000
0000
0000
0000
0000
0001
0000
0000
,
1000
0000
0001
0000
1000
0100
1000
0001
0010
0100
1000
0001
0100
0010
1000
0001
,
1000
0010
0100
0001
1000
0100
0010
0100
1000
0001
0010
0001
1000
0010
0100
0001
,
1000
0010
1000
0001
1000
0100
0010
0100
1000
0001
0010
0001
1000
0010
1000
0001
,
0100
0010
1000
0001
1000
0100
1000
0001
0010
0100
1000
0001
1000
0010
0100
0001
,
1000
0001
0100
0010
1000
0001
0010
0100
0010
0001
1000
0100
1000
0001
0100
0010
,
1000
0010
0100
0001
1000
0100
0010
0100
1000
0001
0010
0001
1000
0010
1000
0001
,
0100
0010
1000
0001
1000
0100
1000
0001
0010
0100
1000
0001
1000
0010
0100
0001
,
1000
0000
0000
0001
0000
0000
0100
0000
0000
0010
0000
0000
1000
0000
0000
0000
0000
0000
0001
0000
0100
0000
0001
0000
1000
0000
0000
0000
0000
0000
0001
0000
0100
0000
0001
0000
1000
0000
0000
0010
0000
0000
0000
0000
0000
0100
0000
0000
,
0001
1000
0001
1000
0001
0000
0100
0010
0100
0000
0001
0000
1000
0000
0100
0010
,
0100
0000
1000
0000
0001
0000
0100
0010
0100
0000
0001
0000
1000
0000
0100
0010
,
0100
0000
1000
0000
0001
0000
0100
0010
0100
0000
0001
0000
1000
0000
0100
0010
,
0100
0000
1000
0000
0001
0000
0100
0010
0100
0000
0001
0000
1000
0000
0100
0010
,
0100
0000
1000
0000
0001
0000
0010
0100
0010
0000
0001
0000
1000
0000
0010
0100
,
0010
0000
1000
0000
0001
0000
0010
0100
0010
0000
0001
0000
1000
0000
0010
0100
,
0010
1000
0001
1000
0100
0010
0000
0001
,
0100
0010
0000
1000
0100
0010
0001
1000
,
0001
0000
1000
0000
0001
0010
0001
0100
0010
1000
0001
1000
0100
1000
0001
0100
,
0010
1000
0001
0010
0100
1000
0001
1000
0010
1000
0001
0010
0100
0010
0001
1000
,
0100
1000
0001
1000
0010
0100
0001
0010
0100
1000
0001
1000
0010
1000
0001
0010
,
0100
1000
0001
0100
0010
1000
0001
1000
0100
1000
0001
0100
0010
0100
0001
1000
,
0010
1000
0001
1000
0100
0010
0001
0010
0100
1000
0010
1000
0001
0100
0010
1000
,
0100
0010
0001
1000
0001
0100
0010
0100
0001
1000
0100
1000
0001
0100
0010
0100
,
0001
1000
0100
1000
0001
0100
0010
1000
0001
0100
0001
1000
0010
0100
0001
1000
,
0001
0010
0001
1000
0100
0010
0001
1000
0010
1000
0001
0010
0100
1000
0010
1000
,
0001
1000
0001
1000
0001
0100
0001
0010
0100
1000
0001
1000
0010
1000
0001
0010
,
0100
1000
0001
0100
0010
1000
0001
1000
0100
1000
0001
0100
0010
0100
0001
1000
,
0010
1000
0001
1000
0100
0010
0001
0100
0010
1000
0001
1000
0100
1000
0001
0100
,
0010
1000
0001
0010
0100
1000
0001
1000
0010
1000
0001
0010
0100
0010
0001
1000
,
0100
1000
0001
1000
0010
0100
0001
0100
0010
1000
0100
1000
0001
0010
0100
1000
,
0010
0100
0001
1000
0001
0010
0100
0010
0001
1000
0010
1000
0001
0010
0100
0010
,
0001
1000
0010
1000
0001
0010
0100
1000
0001
0010
0001
1000
0100
0010
0001
1000
,
0001
0100
0001
1000
0010
0100
0001
1000
0100
1000
0001
0100
0010
1000
0100
1000
,
0001
1000
0001
1000
0001
0100
0001
0010
0100
1000
0001
1000
0010
1000
0001
0010
,
0100
1000
0001
0100
0010
1000
0001
1000
0100
1000
0001
0100
0010
0100
0001
1000
,
0010
1000
0001
1000
0100
0010
0001
0100
0010
1000
0001
1000
0100
1000
0001
0100
,
0010
1000
0001
0010
0100
1000
0001
1000
0010
1000
0001
0010
0100
0010
0001
1000
,
0100
1000
0001
1000
0010
0100
0001
0100
0010
1000
0100
1000
0001
0010
0100
1000
,
0010
0100
0001
1000
0001
0010
0100
0010
0001
1000
0010
1000
0001
0010
0100
0010
,
0001
1000
0010
1000
0001
0010
0100
1000
0001
0010
0001
1000
0100
0010
0001
1000
,
0001
0100
0001
1000
0010
0100
0001
1000
0100
1000
0001
0100
0010
1000
0100
1000
,
0001
1000
0001
1000
0001
0010
0001
0100
0010
1000
0001
1000
0100
1000
0001
0100
,
0010
1000
0001
0010
0100
1000
0001
1000
0010
1000
0001
0010
0100
0010
0001
1000
,
0100
1000
0001
1000
0010
0100
0001
0010
0100
1000
0001
1000
0010
1000
0001
0010
,
0100
1000
0001
0100
0010
1000
0001
1000
0100
1000
0001
0100
0010
0100
0001
1000
,
0010
1000
0001
1000
0100
0010
0001
0010
0100
1000
0010
1000
0001
0100
0010
1000
,
0100
0010
0001
1000
0001
0100
0010
0100
0001
1000
0100
1000
0001
0100
0010
0100
,
0001
1000
0100
1000
0001
0100
0010
1000
0001
0100
0001
1000
0010
0100
0001
1000
,
0001
0010
0001
1000
0002
0000
0000
0000
1003
0000
1000
0000
0020
0000
0030
0000
,
0200
0300
2002
3003
0022
0033
0110
2200
,
3300
2002
3003
0001
0100
0020
0030
1000
,
0100
0010
0001
2000
3000
0020
0030
0200
,
0300
0000
0001
0000
0022
0000
0000
0003
0000
0000
0030
0000
0000
0000
0000
0000
;

//---------------dance-single - 15+ (TYLR)----------------
#NOTES:
     dance-single:
     15+ (TYLR):
     Easy:
     15:
     1.000,1.000,0.149,0.665,1.000,2506.000,42.000,188.000,111.000,0.000:
0000
0000
0000
0000
,
0000
0000
0000
0000
,
0000
0000
0000
0000
,
0000
0000
0000
0000
,
0000
0000
0000
0000
,
0000
0000
0000
0000
,
0000
0000
0000
0000
,
0000
0000
0000
0000
,
1001
0000
1000
0000
0100
0000
0010
0000
0001
1000
0001
0000
0100
0000
0010
0000
,
1000
0000
0001
0000
0010
0000
0001
0000
1000
0001
1000
0000
0010
0000
0100
0000
,
0001
0000
0100
0000
0010
0000
1000
0000
0001
1000
0001
0000
0010
0000
0100
0000
,
1000
0000
0001
0000
0100
0000
00M1
0000
1000
0100
0010
0000
0001
0000
0001
0000
,
1000
0000
0001
0000
0100
0000
0010
0000
1000
0001
0010
0000
0100
0000
1000
0000
,
0001
0000
1000
0000
0010
0000
0100
0000
0001
1000
0100
0000
0010
0000
0100
0000
,
1000
0000
0001
0000
0100
0000
0001
0000
0010
0100
1000
0000
0001
0000
1000
0000
,
0010
0000
0000
0100
0001
0100
0001
0000
0000
1000
0010
1000
0010
0000
0000
1000
0001
1000
0004
0000
0000
0000
0000
0000
,
1003
0100
1000
0000
0001
0000
1000
0100
0010
0001
1000
0000
0001
0010
0100
0000
,
1000
0001
1000
0000
0010
0000
1000
0001
0100
0001
1000
0000
0010
1000
0010
0000
,
1000
0001
1000
0000
0100
0000
1000
0001
0100
0010
1000
0000
0001
1000
0001
0000
,
1000
0100
1000
0000
0001
0000
1000
0100
0010
0001
1000
0000
0001
0000
0001
0000
,
1000
0010
0100
0000
0001
0000
0100
0001
1000
0001
0010
0000
0100
0010
0001
0000
,
1000
0001
0010
0000
0100
0000
1000
0001
1000
0010
0100
0000
0001
0100
0010
0000
,
1000
0001
1000
0000
0100
0000
1000
0001
0010
0100
1000
0000
0001
1000
0001
0000
,
0100
0000
0000
0000
0000
0000
0010
0000
1000
0000
0010
0000
1000
0000
0000
0000
0000
0000
0001
0000
0000
1000
0000
0000
0001
0000
0000
1000
0000
0000
0000
0000
0000
0001
0000
0000
0010
0000
0000
0001
0000
0000
0000
0000
0000
1000
0000
0000
,
0010
0100
0001
0000
0100
0010
1000
0001
0010
0001
0010
0000
0100
1000
0100
0000
,
0010
0001
0010
0000
0001
1000
0001
1000
0010
0100
0001
0000
1000
0001
1000
0000
,
0001
0010
0001
0000
1000
0001
0100
0010
0100
0001
1000
0000
0010
1000
0010
0000
,
0100
0010
0100
0000
0001
0100
0010
1000
0001
1000
0001
0000
0010
0000
0010
0000
,
0100
0010
0001
0000
1000
0001
1000
0010
0100
0001
1000
0000
0100
1000
0100
0000
,
0010
0001
1000
0000
0001
1000
0010
0100
0001
1000
0010
0000
1000
0001
0010
0000
,
0100
1000
0100
0010
0000
0000
0001
0000
0100
0001
0100
0010
0000
0000
1000
0000
,
0001
0010
0001
1000
0100
0010
0100
0010
0001
0000
1000
0000
1000
0000
1000
0000
,
0001
0100
0010
1000
0000
0001
0010
0000
0100
1000
0001
0100
0000
0010
1000
0000
,
0001
0010
0100
1000
0000
0001
0100
0000
0010
1000
0001
0010
0000
0100
1000
0000
,
0001
0100
0010
1000
0000
0001
0010
0000
0100
1000
0001
0100
0000
0010
1000
0000
,
0001
0010
0100
1000
0000
0001
0100
0000
0010
1000
0001
1000
0100
0000
0100
0000
,
0010
0100
1000
0001
0000
1000
0010
0000
0100
0001
1000
0100
0000
0010
0001
0000
,
1000
0010
0100
0001
0000
1000
0100
0000
0010
0001
1000
0010
0000
0100
0001
0000
,
1000
0100
0010
0001
0000
1000
0010
0000
0100
0001
1000
0100
0000
0010
0001
0000
,
1000
0000
0000
0000
0000
0000
0001
0000
0100
0000
0001
0000
0100
0000
0000
0000
0000
0000
0010
0000
1000
0000
0010
0000
1000
0000
0000
0000
0000
0000
0001
0000
1000
0000
0001
0000
1000
0000
0000
0001
0000
0000
1000
0000
0000
0001
0000
0000
,
1000
0010
0100
0001
0000
0010
0100
0000
1000
0001
0100
0010
0000
1000
0001
0000
,
0010
0100
1000
0001
0000
0100
0010
0000
1000
0100
0010
0001
0000
0100
0010
0000
,
1000
0001
0010
0100
0000
1000
0001
0000
0100
0010
1000
0001
0000
0010
0100
0000
,
1000
0100
0010
0001
0000
0100
0010
0000
1000
0001
0010
0100
0000
1000
0001
0000
,
01M1
0100
0001
1000
0100
1000
0100
0010
,
0001
1000
0001
0100
0010
1000
0100
0010
,
0001
0010
0001
1000
0001
0100
0001
0100
0010
1000
0010
1000
0100
0010
0001
1000
,
0004
4000
0000
0000
0000
0000
0000
0000
0000
0000
0000
0000
0000
0000
0000
0000
0000
0000
0000
0000
0000
0000
0000
0000
,
3MM3
0M00
00M0
0M00
,
M000
0000
0000
0M00
0000
0000
000M
0000
0000
00M0
0000
0000
000M
0000
0000
0M00
0000
0000
00M0
0000
M000
0000
0M00
0000
,
000M
0000
0000
0000
00M0
0000
0000
0000
000M
0000
0000
0000
0M00
0000
0000
0000
00M0
0000
0000
0000
M000
0000
0000
0000
000M
0000
0000
00M0
0000
0000
000M
0000
0000
0M00
0000
0000
00M0
0000
0000
M000
0000
0000
0M00
0000
0000
000M
0000
0000
,
2020
3030
2002
3003
0101
2002
3003
2200
,
3300
0100
0010
0001
0001
1000
0010
0100
,
0001
0010
0100
2000
0000
3001
0100
0020
,
0000
1030
0001
0010
2200
3300
2002
3003
,
0001
0100
0010
0100
0001
1000
0001
0010
0001
1000
0100
0010
0100
1000
0001
0010
,
0100
1000
0001
0100
0001
1000
0010
0100
0001
0100
0010
1000
0001
0100
0001
1000
,
0001
0010
0001
0100
0010
1000
0001
0010
0001
1000
0010
0100
0010
1000
0001
0100
,
0010
1000
0001
0010
0001
1000
0100
0010
0001
0010
0100
1000
0001
0010
0001
1000
,
0001
0100
0010
1000
0001
0010
0100
1000
0001
0100
0010
0100
0001
0100
0010
1000
,
0001
0010
0100
0010
0001
1000
0010
0100
0010
1000
0001
0100
0001
1000
0010
1000
,
0010
0100
0010
2000
0000
3001
0010
0200
,
0000
0310
0001
1000
2200
3300
0042
0033
,
0001
1000
0001
1000
0100
1000
0001
0100
0001
1000
0100
0010
0100
1000
0001
0010
,
0100
1000
0001
0100
0001
1000
0010
0100
0001
0100
0010
1000
0001
0100
0001
1000
,
0001
0010
0001
0100
0010
1000
0001
0010
0001
1000
0010
0100
0010
1000
0001
0100
,
0010
1000
0001
0010
0001
1000
0100
0010
0001
0010
0100
1000
0001
0010
0001
1000
,
0001
0100
0010
1000
0001
0010
0100
1000
0001
0100
0010
0100
0001
0100
0010
1000
,
0001
0010
0100
0010
0001
1000
0010
0100
0010
1000
0001
0100
0001
1000
0010
1000
,
0010
0100
0010
2000
0000
3001
0010
0200
,
0000
0310
0001
1000
0202
0303
4002
3003
,
0001
0000
0010
0000
0100
0000
0010
0001
1000
0000
0100
0000
1000
0000
0001
0000
,
0100
0000
0010
0000
1000
0000
0010
0100
0001
0000
1000
0000
0100
0000
1000
0000
,
0010
0000
0100
0000
0001
0000
0100
0010
1000
0000
0001
0000
1000
0000
0010
0000
,
0100
0000
0001
0000
1000
0000
0001
0010
0100
0000
1000
0000
0001
0000
0100
0000
,
0010
0000
1000
0000
0001
0000
1000
0010
0100
0000
0001
0000
1000
0000
0010
0000
,
010M
0000
0010
000M
1000
0M00
0010
1000
0001
0000
10M0
0000
0100
000M
1000
0M00
,
0001
0000
0000
0000
01M0
0000
0000
0000
0001
0000
0M00
0000
1000
0000
0M00
0000
0001
0000
0000
0000
10M0
0000
0000
0000
0100
0000
000M
0000
2000
3000
0002
0003
,
02M0
0000
0000
0000
0000
0000
0300
0000
0000
0000
0000
0000
0000
0000
0000
0000
0000
0000
0000
0000
0000
0000
0000
0000
0010
0000
0000
0000
0000
0000
0000
0000
0000
0000
0000
0000
0000
0000
0000
0000
0000
0000
0000
0000
0000
0000
0000
0000
100M
0000
0000
0000
0000
0000
0000
0000
0000
0000
0000
0000
0000
0000
0000
0000
0000
0000
0000
0000
0000
0000
0000
0000
0200
0000
0000
0000
0000
0000
0000
0000
0000
0000
0000
0000
0000
0000
0000
0000
0000
0000
0000
0000
0000
0000
0000
0000
0310
0000
0000
0000
0000
0000
0000
0000
0000
0000
0000
0000
0000
0000
0000
0000
0000
0000
0000
0000
0000
0000
0000
0000
0004
0000
0000
0000
0000
0000
0000
0000
0040
0000
0000
0000
0000
0000
0000
0000
0000
0000
0000
0000
0000
0000
0000
0000
0000
0000
0000
0000
0000
0000
0000
0000
0000
0000
0000
0000
0000
0000
0000
0000
0000
0000
0000
0000
0000
0000
0000
0000
0000
0000
0000
0000
0000
0000
0000
0000
0000
0000
0000
0000
0000
0000
0000
0000
0003
0000
0000
0000
0000
0000
0000
0000
,
0130
0000
1000
0000
00M1
0000
0010
0001
1M00
0000
0100
000M
1000
0000
00M1
0000
,
M100
0000
001M
0000
1000
0M00
0010
0100
M001
0000
10M0
0000
0100
000M
1000
0M00
,
0010
000M
0100
M000
0001
00M0
0100
0010
1000
0M00
0001
0000
10M0
0000
0010
0000
,
010M
0000
0001
0000
1M00
0000
0001
0010
0100
0000
1000
0000
0001
0000
0100
0000
,
0010
0000
1000
0000
0001
0000
1000
0010
0100
0000
0001
0000
1000
0000
0001
0000
,
0010
0000
0100
0000
1000
0000
0100
0010
0001
0000
2000
3000
0001
0000
0010
0000
,
0100
0000
1000
0000
001M
0000
0100
0001
1000
0000
0100
0000
0010
0000
0001
0000
,
0100
0000
0000
0000
0000
0000
0001
0000
0000
0000
0000
0000
1000
0000
0000
0000
0000
0000
0100
0000
0000
0000
0000
0000
0010
0000
0000
0000
0000
0000
0001
0000
1000
0000
0001
0000
1000
0000
0000
0000
0000
0000
0010
0000
0000
0100
0000
0000
,
0001
0000
0101
0100
0000
0100
0101
0001
,
1000
0000
1200
1300
0000
1000
1001
0001
,
0100
0000
1010
0010
0000
0010
1010
1000
,
0200
0000
0000
0000
031M
0000
0100
0000
0010
0000
0002
0000
1003
0001
1000
0001
,
0100
0000
0000
0000
2010
0000
3010
0000
0100
0001
1000
0000
0010
0000
1000
0000
,
1001
0000
0001
0000
0010
0000
0001
0000
1000
0100
1000
0000
0001
0000
1000
0000
,
0100
0010
0100
0010
0001
0010
0001
0010
0001
1000
0010
0100
0001
0100
0010
1000
,
0400
4000
0000
0000
0000
0000
0000
0000
0000
0000
0000
0000
0000
0000
0000
0000
0000
0000
0000
0000
0000
0000
0000
0300
,
3002
0003
0202
0303
1010
2002
3003
4200
,
3300
0100
0010
0001
0000
0010
0100
1000
,
1001
0001
0000
0100
0000
0010
0000
1000
,
2002
0000
3003
0000
,
0000
0000
0000
0000
,
0000
0000
0000
0000
0000
0000
0000
0000
0000
0000
0000
0000
0000
0000
0000
0000
0000
0000
0000
0000
0000
0000
0000
0000
0000
0000
0000
0000
0000
0000
0000
0000
0000
0000
0000
0000
0000
0000
0000
0000
0000
0000
0000
0000
0000
0000
0000
0000
M0M0
0000
0000
0000
0000
0000
0000
0000
0000
0000
0000
0000
0000
0000
0000
0000
0M0M
0000
0000
0000
0000
0000
0000
0000
0000
0000
0000
0000
0000
0000
0000
0000
M0M0
0000
0000
0000
0000
0000
0000
0000
0000
0000
0000
0000
0000
0000
0000
0000
0M0M
0000
0000
0000
0000
0000
0000
0000
0000
0000
0000
0000
0000
0000
0000
0000
M000
0000
0000
0000
0000
0000
0000
0000
0000
0000
0000
0000
0000
0000
0000
0000
0MM0
0000
0000
0000
0000
0000
0000
0000
0000
0000
0000
0000
0000
0000
0000
0000
M00M
0000
0000
0000
0000
0000
0000
0000
0000
0000
0M00
0000
0000
0000
0000
0000
0000
0000
0000
0000
0000
00M0
0000
0000
0000
0000
0000
0000
0000
0000
0000
0000
0000
0000
0000
0000
0000
0000
0000
0000
0000
0000
000M
0000
0000
0000
0000
0000
,
1000
0100
0010
0001
1000
0001
0010
0100
1000
0001
0100
0010
1000
0001
0100
0001
,
1000
0010
0100
0010
1000
0001
0010
0100
1000
0001
0100
0001
0100
0010
1000
0001
,
2000
0000
0100
3000
0020
0000
0001
0030
0200
0000
0001
0300
2000
3000
2000
0000
,
0010
0001
0100
0010
,
3001
0010
0100
1000
0001
1000
0100
0010
0001
1000
0010
0100
0001
1000
0010
1000
,
0001
0100
0010
0100
0001
1000
0100
0010
0001
1000
0010
1000
0010
0100
0001
1000
,
0002
0000
0100
0003
0020
0000
1000
0030
0200
0000
1000
0300
0002
0003
0002
0000
,
0010
0000
0000
0000
0000
0000
0100
0000
0000
0000
0000
0000
1003
0000
0000
0001
1000
0001
4000
0000
0000
0000
0000
0000
,
3010
0100
0010
1000
0001
1000
0100
0010
0001
1000
0010
0100
0001
1000
0010
1000
,
0001
0100
0010
0100
0001
1000
0100
0010
0001
1000
0010
1000
0010
0100
0001
1000
,
0002
0000
0010
0003
0200
0000
1000
0300
0002
0000
0100
0003
0002
0003
0002
0000
,
0010
0000
0100
0000
1000
0000
0100
0003
,
1000
0000
0001
0000
0100
0000
0001
0000
1000
0100
1000
0000
0001
0010
0001
0000
,
0100
0000
0001
0000
1000
0000
0001
0000
0100
0010
0100
0000
0001
0100
0001
0000
,
1000
0001
1000
0001
1000
0100
1000
0100
0010
0001
0010
0001
1000
0001
1000
0001
,
0400
0004
0000
0000
0000
0000
0000
0000
0000
0000
0000
0000
0000
0000
0000
0000
0000
0000
0000
0000
0000
0000
0000
0303
,
1000
0010
1000
0001
0000
1000
0100
0000
0010
0001
0010
0100
0000
1000
0001
0000
,
1000
0001
0100
0010
0000
1000
0001
0000
1000
0010
0100
0001
0000
1000
0100
0000
,
0010
0100
1000
0001
0000
0100
0010
0000
1000
0001
1000
0010
0000
0100
0001
0000
,
1000
0100
0010
0001
0000
1000
0010
0000
0100
0001
0010
0100
1000
0000
1000
0000
,
0100
0010
0001
1000
0000
0001
0100
0000
0010
1000
0001
0010
0000
0100
1000
0000
,
0001
0100
0010
1000
0000
0001
0010
0000
0100
1000
0001
0100
0000
0010
1000
0000
,
0001
1000
0100
0010
0000
0001
1000
0000
0010
0100
0001
1000
0000
0100
0010
0000
,
0001
0000
0000
0000
0000
0000
1000
0000
0010
0000
1000
0000
0010
0000
0000
0000
0000
0000
0100
0000
0001
0000
0100
0000
0001
0000
0000
0000
0000
0000
1000
0000
0001
0000
1000
0000
0001
0000
0000
1000
0000
0000
0001
0000
0000
1000
0000
0000
,
0100
1000
0100
0010
0000
0001
1000
0000
0010
1000
0010
0100
0000
0001
1000
0000
,
0100
1000
0001
0010
0000
0100
1000
0000
0001
0100
0010
1000
0000
0100
0010
0000
,
0001
1000
0010
0100
0000
0001
1000
0000
0100
0010
0001
1000
0000
0010
0100
0000
,
0001
0010
0100
1000
0000
0001
0100
0000
0010
1000
0001
0010
0100
0000
1000
0000
,
2002
0000
0000
0000
,
0000
0000
0000
0000
,
0000
0000
0000
0000
0000
0000
0000
3003
,
0001
0100
0001
0100
0001
0100
0001
0100
0040
0000
4030
0000
0000
0000
0000
0000
,
3001
0100
0001
1000
0000
0001
0010
0000
0100
1000
0100
0010
0000
0001
1000
0000
,
0001
1000
0010
0100
0000
0001
1000
0000
0001
0100
0010
1000
0000
0001
0010
0000
,
0100
0010
0001
1000
0000
0010
0100
0000
0001
1000
0001
0100
0000
0010
1000
0000
,
0001
0010
0100
1000
0000
0001
0100
0000
0010
1000
0001
1000
0100
0000
0100
0000
,
0010
0100
1000
0001
0000
1000
0010
0000
0100
0001
1000
0100
0000
0010
0001
0000
,
1000
0010
0100
0001
0000
1000
0100
0000
0010
0001
1000
0010
0000
0100
0001
0000
,
1000
0001
0010
0100
0000
1000
0001
0000
0100
0010
1000
0001
0000
0010
0100
0000
,
1000
0000
0000
0000
0000
0000
0001
0000
0100
0000
0001
0000
0100
0000
0000
0000
0000
0000
0010
0000
1000
0000
0010
0000
1000
0000
0000
0000
0000
0000
0001
0000
1000
0000
0001
0000
1000
0000
0000
0001
0000
0000
1000
0000
0000
0001
0000
0000
,
0010
0100
1000
0001
0000
0100
0010
0000
1000
0100
0010
0001
0000
1000
0010
0000
,
0100
0001
1000
0100
0000
0010
0001
0000
1000
0010
0100
0001
0000
0010
0100
0000
,
1000
0001
0100
0010
0000
1000
0001
0000
1000
0100
0010
0001
0000
1000
0010
0000
,
0100
0001
1000
0100
0000
0010
0001
0000
1000
0010
0100
0001
0010
0000
0100
0000
,
110M
1000
0100
1000
0001
1000
0001
1000
,
0010
1000
0010
0100
0001
1000
0100
0010
,
0001
1000
0001
0100
0010
1000
0010
1000
0001
0010
0100
1000
0010
0100
0001
1000
,
0400
4000
0000
0000
0000
0000
0000
0000
0000
0000
0000
0000
0000
0000
0000
0000
0000
0000
0000
0000
0000
0000
0000
0300
,
3001
0010
0001
1000
0000
0001
0100
0000
0010
1000
0001
1000
0000
0100
0010
0000
,
0001
1000
0010
0100
0000
0001
1000
0000
0001
0010
0100
1000
0000
0010
0100
0000
,
0001
1000
0100
0010
0000
0001
0100
0000
0001
1000
0001
0010
0000
0100
1000
0000
,
0001
0100
0010
1000
0000
0001
0010
0000
0100
1000
0001
1000
0100
0000
0100
0000
,
0010
0100
1000
0001
0000
1000
001M
0000
0100
0001
1000
0100
0000
0010
0001
0000
,
1000
0010
0100
0001
0000
1000
0100
0000
0010
0001
1000
0010
0000
0100
0001
0000
,
1000
0001
0010
0100
0000
1000
0001
0000
0100
0010
1000
0001
0000
0010
0100
0000
,
1000
0000
0000
0000
0000
0000
0001
0000
0100
0000
0001
0000
0100
0000
0000
0000
0000
0000
0010
0000
1000
0000
0010
0000
1000
0000
0000
0000
0000
0000
0001
0000
1000
0000
0001
0000
1000
0000
0000
0001
0000
0000
1000
0000
0000
0001
0000
0000
,
0010
0001
0010
0100
0000
1000
0001
0000
0100
0001
0100
0010
0000
1000
0001
0000
,
2000
3000
0200
0300
2000
3000
0002
0003
0020
0030
0200
0300
0020
0030
0002
0003
2000
3000
0020
0030
2000
3000
0002
0003
0020
0030
0200
0300
0020
0030
0002
0003
,
0200
0300
0001
0000
1000
0000
0010
0000
0000
0000
1000
0000
0001
0000
0000
0000
0010
0000
0100
0000
1000
0000
0001
0000
0000
0000
0100
0000
0010
0000
0000
0000
,
1000
0100
0010
0001
0000
1000
0010
0000
0100
0001
1000
0100
0010
0000
0001
0000
,
1MM1
1000
0010
1000
0001
0010
0100
1000
,
0001
0100
0001
0010
0100
1000
00M1
1000
,
0001
0100
0001
0100
0010
1000
0010
1000
0100
1000
0001
0100
0010
1000
0100
0010
,
0004
0000
4000
0000
0000
0000
0000
0000
0000
0000
0000
0000
0000
0000
0000
0000
0000
0000
0000
0000
0000
0000
0000
0000
3003
0000
0000
0000
0000
0000
0000
0000
0000
0000
0000
0000
0001
0000
0000
0100
0000
0000
0001
0000
0000
0100
0000
0000
,
0020
0000
0000
1030
0000
0000
0100
0000
0000
1000
0000
0000
0002
00M0
0M00
M000
00M0
0M00
M000
00M0
0M00
M000
00M0
0M00
,
1003
0001
1000
0001
1000
0100
1000
0001
0000
1000
0010
0000
0100
0001
1000
0001
,
0000
0010
0100
0000
1000
0001
0100
0010
0000
1000
0001
0000
1000
0100
0010
0001
,
0000
0100
0010
0000
1000
0001
0010
0100
0000
1000
0010
0000
0100
0001
1000
0001
,
0000
0010
0100
0000
1000
0010
0100
0001
0000
1000
0100
0000
0010
0001
0010
0100
,
1000
0000
1000
0000
0001
0100
0010
1000
0000
0001
0010
0000
0100
1000
0001
0100
,
0000
0010
1000
0000
0001
0010
0100
1000
0000
0001
0100
0000
0010
1000
0001
0010
,
0000
0100
1000
0000
0001
1000
0100
0010
0000
0001
0100
0000
0001
0010
0100
1000
,
0000
0000
0000
0001
0000
0000
0100
0000
0000
0000
0000
0000
0010
0000
0000
0000
0000
0000
1000
0000
0001
0000
1000
0000
0001
0000
0000
0000
0000
0000
1000
0000
0000
0001
0000
0000
0010
0000
0000
0100
0000
0000
0000
0000
0000
1000
0000
0000
,
0001
0000
0000
0100
0000
0000
0000
0000
0001
0000
0100
0000
0001
0000
0000
1000
0000
0000
0001
0000
0000
0010
0000
0000
0000
0000
0000
0100
0000
0000
1000
0000
0000
0000
0000
0000
0001
0000
0000
1000
0000
0000
0100
0000
0000
0010
0000
0000
,
0000
0001
1000
0000
0010
0100
0001
1000
0000
0100
0010
0000
0001
1000
0001
0100
,
0000
0010
1000
0000
0100
0010
0001
1000
0000
0010
0100
0000
0001
1000
0001
0010
,
0000
0100
1000
0000
0001
0100
0010
1000
0000
0001
0010
0000
0100
1000
0010
0100
,
0001
0000
0001
0000
1000
0100
1000
0001
0000
1000
0010
0000
0100
0001
1000
0001
,
0000
0010
0100
0000
1000
0001
0100
0010
0000
1000
0001
0000
1000
0100
0010
0001
,
0000
0100
0010
0000
1M00
0001
0010
0100
0000
1000
0010
0000
1000
0001
1000
0100
,
0000
0000
0000
0010
0000
0000
0001
0000
0000
0000
0000
0000
4000
0000
0004
0000
0000
0000
0000
0000
0000
0000
0000
0000
0000
0000
0000
0000
0000
0000
0000
0000
0000
0000
0000
0000
0003
0000
0000
0000
0000
0000
3010
0000
0000
0000
0000
0000
,
0010
0000
0010
0000
100M
0100
0010
0001
0000
0100
0001
0000
M010
0100
1000
0001
,
0000
0100
0001
0000
10M0
0100
0010
0001
0000
0100
0001
0000
M010
0100
1000
0001
,
0000
0100
0010
0000
1M00
0001
0010
0100
0000
1000
0010
0000
1M00
0001
1000
0100
,
0000
0010
0001
0000
1M00
0010
0100
0001
0000
1000
0100
0000
M010
0001
1000
0010
,
0100
0000
0100
0000
M001
0010
0001
1000
0000
0001
0100
0000
001M
1000
0001
1000
,
0000
0100
0010
0000
0M01
1000
0010
0100
0000
0001
1000
0000
0M01
0010
0100
1000
,
0000
0010
0100
0000
00M1
1000
0100
0010
0000
0001
0100
0000
M001
0010
0100
1000
,
0000
0000
0000
0001
0000
0000
0100
0000
0000
0000
0000
0000
M010
0000
0000
0000
0000
0000
1000
0000
0001
0000
1000
0000
0001
0000
0000
0000
0000
0000
1000
0000
0000
0100
0000
0000
0010
0000
0000
0001
0000
0000
0000
0000
0000
1000
0000
0000
,
0010
0000
0000
1000
0000
0000
0000
0000
0001
0000
1000
0000
0001
0000
0000
0010
0000
0000
0100
0000
0000
1000
0000
0000
0001
0000
0000
1000
0000
0000
0001
0000
0000
0000
0000
0000
1000
0000
0000
0010
0000
0000
0100
0000
0000
0001
0000
0000
,
1000
0001
1000
0000
0001
0010
0100
1000
0001
1000
0001
0000
1000
0010
0100
0001
,
1000
0001
1000
0000
0001
0100
0010
1000
0001
1000
0001
0000
1000
0100
0010
0001
,
1000
0001
1000
0000
0001
0100
0010
1000
0001
1000
0001
0000
1000
0100
0010
0001
,
1000
0000
1000
0000
0010
0100
0001
1000
0100
1000
0100
0000
0010
0100
1000
0001
,
0100
0001
0100
0000
0010
0100
0001
1000
0100
1000
0100
0000
0010
0100
1000
0001
,
0100
0001
0100
0000
0002
0000
0203
0000
0302
0000
0023
0000
0000
0000
0230
0000
,
2300
3020
0000
0230
0320
2030
3200
0010
,
0010
0000
0310
0000
0001
0010
0100
1000
0001
1000
0001
0100
0001
1000
0100
0010
,
0100
1000
0001
0010
0100
1000
0001
0100
0001
1000
0010
0100
0001
0100
0010
1000
,
0001
0100
0001
1000
0001
0010
0001
0100
0010
1000
0001
0010
0001
1000
0010
0100
,
0010
1000
0001
0100
0010
1000
0001
0010
0001
1000
0100
0010
0001
0010
0100
1000
,
0001
0010
0001
1000
0001
0100
0010
1000
0001
0010
0100
1000
0001
0100
0010
0100
,
0001
0100
0010
1000
0001
0010
0100
0010
0001
1000
0010
0100
0010
1000
0001
0100
,
0001
1000
0010
1000
0010
0100
0001
0100
0010
1000
0001
0010
0100
1000
0001
1000
,
0100
0000
0000
0010
0000
0000
0001
0000
0000
1000
0000
0000
0010
0000
0000
0000
0000
0000
0100
0000
0001
0000
0100
0000
0001
0000
0000
0000
0000
0000
1000
0000
0001
0000
1000
0000
0001
0000
0000
0000
0000
0000
1000
0000
0100
0000
1000
0000
,
0100
0000
0000
0000
0000
0000
0010
0000
0001
0000
0010
0000
0001
0000
0000
1000
0000
0000
0001
0000
0000
0010
0000
0000
0100
0000
0000
1000
0000
0000
0001
0000
0000
0100
0000
0000
0001
0000
0000
1000
0000
0000
0100
0000
0000
0010
0000
0000
,
0100
1000
0001
0010
0100
1000
0001
0100
0001
1000
0010
0100
0001
0100
0010
1000
,
0001
0000
0000
0000
0000
0000
0000
0000
0000
0000
0000
0000
0100
0000
0000
0000
0000
0000
0000
0000
0000
0000
0000
0000
0001
0000
0000
0000
0000
0000
0000
0000
0000
0000
0000
0000
1000
0000
0000
0000
0000
0000
0000
0000
0000
0000
0000
0000
0002
0003
0000
0000
0000
0000
0000
0000
0000
0000
0000
0000
0020
0030
0000
0000
0000
0000
0000
0000
0000
0000
0000
0000
0002
0003
0000
0000
0000
0000
0000
0000
0000
0000
0000
0000
0200
0300
0000
0000
0000
0000
0000
0000
0000
0000
0000
0000
0020
0030
0000
0000
0000
0000
0000
0000
0000
0000
0000
0000
2000
3000
0000
0000
0000
0000
0000
0000
0000
0000
0000
0000
0002
0003
0000
0000
0000
0000
0000
0000
0000
0000
0000
0000
0020
0030
0000
0000
0000
0000
0000
0000
0000
0000
0000
0000
0002
0000
0003
0000
0000
0000
0000
0000
0000
0000
0000
0000
2000
0000
3000
0000
0000
0000
0000
0000
0000
0000
0000
0000
0020
0000
0030
0000
0000
0000
0000
0000
0000
0000
0000
0000
0200
0000
0300
0000
0000
0000
0000
0000
0000
0000
0000
0000
,
0020
0000
0030
0000
0000
0000
0000
0000
0000
0000
0000
0000
2000
0000
3000
0000
0000
0000
0000
0000
0000
0000
0000
0000
0002
0000
0003
0000
0000
0000
0000
0000
0000
0000
0000
0000
0200
0000
0300
0000
0000
0000
0000
0000
0000
0000
0000
0000
0020
0000
0000
0030
0000
0000
0000
0000
0000
0000
0000
0000
2000
0000
0000
3000
0000
0000
0000
0000
0000
0000
0000
0000
0002
0000
0000
0003
0000
0000
0000
0000
0000
0000
0000
0000
0020
0000
0000
0030
0000
0000
0000
0000
0000
0000
0000
0000
0002
0000
0000
0003
0000
0000
0000
0000
0000
0000
0000
0000
2000
0000
0000
3000
0000
0000
0000
0000
0000
0000
0000
0000
0200
0000
0000
0300
0000
0000
0000
0000
0000
0000
0000
0000
0020
0000
0000
0030
0000
0000
0000
0000
0000
0000
0000
0000
0002
0000
0000
0003
0000
0000
0000
0000
0000
0000
0000
0000
0020
0000
0000
0030
0000
0000
0000
0000
0000
0000
0000
0000
0200
0000
0000
0300
0000
0000
0000
0000
0000
0000
0000
0000
2000
0000
0000
3000
0000
0000
0000
0000
0000
0000
0000
0000
,
0002
0000
0000
0000
0003
0000
0000
0000
0000
0000
0000
0000
0020
0000
0000
0000
0030
0000
0000
0000
0000
0000
0000
0000
0002
0000
0000
0000
0003
0000
0000
0000
0000
0000
0000
0000
2000
0000
0000
0000
3000
0000
0000
0000
0000
0000
0000
0000
0002
0000
0000
0000
0003
0000
0000
0000
0000
0000
0000
0000
0200
0000
0000
0000
0300
0000
0000
0000
0000
0000
0000
0000
0020
0000
0000
0000
0030
0000
0000
0000
0000
0000
0000
0000
2000
0000
0000
0000
3000
0000
0000
0000
0000
0000
0000
0000
0002
0000
0000
0000
0003
0000
0000
0000
0000
0000
0000
0000
0020
0000
0000
0000
0030
0000
0000
0000
0000
0000
0000
0000
0200
0000
0000
0000
0000
0000
0300
0000
0000
0000
0000
0000
2000
0000
0000
0000
0000
0000
3000
0000
0000
0000
0000
0000
0002
0000
0000
0000
0000
0000
0003
0000
0000
0000
0000
0000
0200
0000
0000
0000
0000
0000
0300
0000
0000
0000
0000
0000
0020
0000
0000
0000
0000
0000
0030
0000
0000
0000
0000
0000
0200
0000
0000
0000
0000
0000
0300
0000
0000
0000
0000
0000
,
0002
0003
0200
0000
0320
0000
2030
0000
3002
0000
0023
0000
0230
0000
0320
0000
0032
0000
2003
0000
3020
0000
0230
0000
0320
0000
1030
0000
0001
0000
0100
0000
,
0001
1000
0010
1000
0010
0100
0001
0100
0010
1000
0001
0010
0100
1000
0001
1000
,
0100
0000
0000
0010
0000
0000
0001
0000
0000
1000
0000
0000
0010
0000
0000
0000
0000
0000
0100
0000
0001
0000
0100
0000
0001
0000
0000
0000
0000
0000
1000
0000
0100
0000
1000
0000
0100
0000
0000
0000
0000
0000
0010
0000
0001
0000
0010
0000
,
0001
0000
0000
0000
0000
0000
1000
0000
0001
0000
1000
0000
0001
0000
0000
0010
0000
0000
0100
0000
0000
1000
0000
0000
0001
0000
0000
0100
0000
0000
0001
0000
0000
1000
0000
0000
0010
0000
0000
0100
0000
0000
0010
0000
0000
1000
0000
0000
,
0001
0100
0010
1000
0001
0010
0001
1000
0100
0010
0001
0010
0100
1000
0001
0100
,
0010
1000
0010
0100
0001
1000
0010
0100
0010
1000
0001
0100
0010
1000
0001
0010
,
0100
1000
0001
1000
0010
1000
0010
1000
0001
1000
0001
1000
0100
0010
0001
1000
,
0001
0010
0100
1000
0001
0100
0010
0100
0001
1000
0010
0100
0010
1000
0001
0100
,
0010
1000
0001
0100
0001
0010
0100
0010
0001
1000
0100
0010
0100
0010
0001
1000
,
0010
0100
0010
1000
0001
0010
0100
1000
0001
0100
0001
1000
0010
1000
0001
0100
,
0001
0000
0000
0100
0000
0000
0010
0000
0000
1000
0000
0000
0001
0000
0000
0000
0000
0000
1000
0000
0100
0000
1000
0000
0100
0000
0000
0000
0000
0000
0010
0000
0001
0000
0010
0000
0001
0000
0000
0000
0000
0000
1000
0000
0001
0000
1000
0000
,
0001
0000
0000
0000
0000
0000
1000
0000
0001
0000
1000
0000
0001
0000
0000
0010
0000
0000
0100
0000
0000
1000
0000
0000
0001
0000
0000
0100
0000
0000
0010
0000
0000
1000
0000
0000
0001
0000
0000
0010
0000
0000
0001
0000
0000
1000
0000
0000
,
0100
0010
0100
1000
0001
0010
0100
1000
0001
0100
0001
1000
0010
0100
0001
0100
,
0010
1000
0001
0010
0100
1000
0100
0010
0001
1000
0100
0010
0100
1000
0001
0010
,
0100
1000
0001
0100
0010
1000
0001
1000
0100
1000
0100
1000
0001
1000
0001
1000
,
0010
0100
0001
1000
0001
0100
0010
1000
0001
0010
0100
0010
0001
1000
0100
0010
,
0100
0000
0000
0000
0000
0000
0000
0000
0000
0000
0000
0000
1000
0000
0000
0000
0000
0000
0000
0000
0000
0000
0000
0000
0001
0000
0000
0000
0000
0000
0000
0000
0000
0000
0000
0000
0010
0000
0000
0000
0000
0000
0000
0000
0000
0000
0000
0000
0200
0300
0000
0000
0000
0000
0000
0000
0000
0000
0000
0000
2000
3000
0000
0000
0000
0000
0000
0000
0000
0000
0000
0000
0002
0003
0000
0000
0000
0000
0000
0000
0000
0000
0000
0000
0020
0030
0000
0000
0000
0000
0000
0000
0000
0000
0000
0000
0002
0003
0000
0000
0000
0000
0000
0000
0000
0000
0000
0000
0200
0300
0000
0000
0000
0000
0000
0000
0000
0000
0000
0000
0020
0030
0000
0000
0000
0000
0000
0000
0000
0000
0000
0000
0200
0300
0000
0000
0000
0000
0000
0000
0000
0000
0000
0000
0002
0003
0000
0000
0000
0000
0000
0000
0000
0000
0000
0000
2000
0000
0000
3000
0000
0000
0000
0000
0000
0000
0000
0000
0020
0000
0000
0030
0000
0000
0000
0000
0000
0000
0000
0000
0200
0000
0000
0300
0000
0000
0000
0000
0000
0000
0000
0000
,
0020
0000
0000
0030
0000
0000
0000
0000
0000
0000
0000
0000
0200
0000
0000
0300
0000
0000
0000
0000
0000
0000
0000
0000
0002
0000
0000
0003
0000
0000
0000
0000
0000
0000
0000
0000
2000
0000
0000
3000
0000
0000
0000
0000
0000
0000
0000
0000
0200
0000
0000
0000
0300
0000
0000
0000
0000
0000
0000
0000
0020
0000
0000
0000
0030
0000
0000
0000
0000
0000
0000
0000
0200
0000
0000
0000
0300
0000
0000
0000
0000
0000
0000
0000
2000
0000
0000
0000
3000
0000
0000
0000
0000
0000
0000
0000
0002
0000
0000
0000
0003
0000
0000
0000
0000
0000
0000
0000
0200
0000
0000
0000
0300
0000
0000
0000
0000
0000
0000
0000
0020
0000
0000
0000
0030
0000
0000
0000
0000
0000
0000
0000
2000
0000
0000
0000
0000
0000
3000
0000
0000
0000
0000
0000
0002
0000
0000
0000
0000
0000
0003
0000
0000
0000
0000
0000
0020
0000
0000
0000
0000
0000
0030
0000
0000
0000
0000
0000
0002
0000
0000
0000
0000
0000
0003
0000
0000
0000
0000
0000
2000
0000
0000
0000
0000
0000
3000
0000
0000
0000
0000
0000
,
0200
0300
2000
3000
0001
0000
0010
0000
0400
0000
0000
0000
0000
0000
0000
0000
0000
0000
0000
0000
0000
0000
0000
0000
4300
0000
0000
0000
0000
0000
0000
0000
,
0000
0000
0000
3000
2002
0000
3003
0000
0022
0000
0033
0000
0110
0000
2200
0000
,
3300
4002
3003
0001
0100
0020
0030
1000
,
0100
0010
0001
2000
3000
0020
0030
0200
,
0300
0001
0022
0000
0000
0033
0000
0000
;
