#TITLE:NO. 13;
#SUBTITLE:;
#ARTIST:TAKA RESPECT FOR JSB;
#TITLETRANSLIT:;
#SUBTITLETRANSLIT:;
#ARTISTTRANSLIT:;
#CREDIT:;
#BANNER:No. 13.png;
#BACKGROUND:No. 13-bg.png;
#LYRICSPATH:;
#CDTITLE:!toph-cdtitle.png;
#MUSIC:dj Taka respect for JSB - No. 13.mp3;
#OFFSET:-0.416;
#SAMPLESTART:24.100;
#SAMPLELENGTH:11.300;
#SELECTABLE:YES;
#BPMS:0.000=172.000;
#STOPS:;
#BGCHANGES:;
// cache tags:
#FIRSTBEAT:4.000;
#LASTBEAT:334.000;
#SONGFILENAME:Songs/Community Keyboard Megapack - Volume 1/(Toph) No. 13/No. 13.sm;
#HASMUSIC:1;
#HASBANNER:1;
#MUSICLENGTH:121.812;
// end cache tags

//---------------dance-single - ----------------
#NOTES:
     dance-single:
     :
     Hard:
     11:
     1.000,1.000,0.821,0.041,1.000,969.000,100.000,5.000,0.000,0.000:
0000
0000
0000
0000
,
1001
0010
0100
0001
0010
0001
0100
0010
1000
0100
0010
0001
0000
0001
1000
0010
,
0000
0010
0100
0001
1000
0010
1000
0100
0010
0001
1000
0010
0000
0010
0000
0010
,
0100
0001
0100
0000
0100
0010
1000
0100
0010
0001
1000
0010
0000
0010
0100
0010
,
1000
0100
0010
0001
0100
0010
0000
0010
0000
0010
1000
0000
1000
0100
0000
0100
,
1001
0100
0010
0000
0100
1000
0010
0100
0000
0100
0001
1000
0000
1000
0000
1000
,
0000
1000
0001
0010
0001
0100
0000
0100
0001
0010
0100
1000
0000
1000
0000
1000
,
0000
1000
0001
1000
0010
0100
0001
0010
0100
1000
0010
0100
0000
0100
0000
0100
,
0001
0010
0001
0100
0010
1000
0001
0100
0001
1000
0100
0010
0000
0000
1001
0000
,
0000
0001
0010
0001
1100
0001
0010
0001
0000
0001
1000
0010
0000
0010
0000
0010
,
0000
0010
1000
0001
0000
0001
0000
0001
0000
0001
1000
0100
0000
0100
0000
0100
,
0010
0001
0010
0000
0010
0001
0100
0010
0000
0010
0100
0001
0000
0001
1000
0001
,
1000
0010
0100
0010
1000
0100
0000
0100
0000
0100
0010
0000
0010
0000
0011
0000
,
0000
0001
1000
0000
1000
0010
0000
0010
0000
0010
0100
0000
0100
0000
0101
0000
,
0000
1000
0100
0010
0100
1000
0000
1000
0000
1000
0001
0000
0001
0100
1001
0000
,
0000
0001
1000
0001
1000
0100
1001
0000
0000
1000
0010
0100
0010
0000
0110
0000
,
0000
1000
0101
1000
0000
1000
0101
1000
0000
1000
0011
0100
0000
0000
0011
0000
,
1000
0100
1000
0000
0001
0100
0000
0010
0000
1000
0100
0010
1001
0000
0010
0000
,
1100
0001
0010
0000
0001
0100
0010
1000
0000
0100
1000
0010
0100
0000
0100
0000
,
0001
1000
0001
0000
0100
0010
0000
1000
0000
0001
0010
0000
0100
1000
0000
0010
,
0000
1000
0001
0000
0010
0100
0000
1000
0010
0000
1000
0010
0000
0100
0001
0000
,
1001
0100
1000
0000
0001
0010
0000
0100
0000
1000
0010
0100
0001
0000
0010
0000
,
0100
1000
0100
0000
0010
0001
0000
1000
0000
1000
0010
0100
0001
0000
0001
0000
,
1000
0001
0100
0000
0010
1000
0000
0001
0000
1000
0100
0000
0010
0001
0000
1000
,
0000
0001
1000
0000
0010
0100
0000
0001
0010
0000
0001
0010
0100
1000
0010
0100
,
1001
0010
0001
0010
0100
1000
0010
0100
0001
1000
0100
1000
0011
1000
0100
0010
,
1001
0000
1000
0100
0011
0000
0001
0100
1010
0000
0001
1000
0110
0001
0010
0100
,
1001
0100
0010
1000
0100
0010
0001
1000
0010
0100
0001
0010
1100
0001
0100
0010
,
1001
0000
1000
0100
0011
0000
0001
0100
0010
0000
1100
0001
0010
0001
1100
0000
,
1001
0010
0100
0010
1000
0100
0010
0001
0100
0000
0001
0010
0100
0010
0001
0100
,
0010
1000
0100
0010
0001
0100
0010
1000
0001
0000
1000
0100
0010
0100
1000
0010
,
0100
0001
1000
0100
0010
0001
0100
0010
1000
0001
0010
0001
0100
0010
0100
0001
,
1000
1000
0100
0100
0010
0010
0001
0001
,
1000
0100
1000
0000
0001
0100
0000
0010
0000
1001
0100
0010
1001
0000
0110
0000
,
0000
0001
0010
0000
0001
0100
0010
1000
0000
0100
1000
0010
0100
0000
0100
0000
,
0001
1000
0001
0000
0100
0010
0000
1000
0000
0001
0010
0000
0100
1000
0000
0010
,
0000
1000
0001
0000
0010
0100
0000
1000
0010
0000
1000
0010
0000
0100
0001
0000
,
1001
0100
0010
0100
1000
0010
0100
0001
0010
0100
1000
0100
0010
0001
1000
0010
,
0100
0000
0001
1000
0100
0000
0010
0001
1000
0000
0010
0100
0001
0100
0010
1000
,
0001
0010
0100
1000
0010
0100
0001
1000
0100
0010
0001
0010
0100
1000
0010
0100
,
0001
0000
1000
0100
0010
0000
0001
1000
0010
0000
1000
0100
0010
0100
1000
0001
,
1000
0010
0100
0010
1000
0100
0010
0001
0100
0000
0010
0100
1001
0010
0100
1000
,
0011
1000
0100
0010
0001
0100
0010
1000
0001
0000
1000
0100
0010
0100
1000
0010
,
0100
0001
1000
0100
0010
0001
0100
0010
1000
0001
0010
0001
0100
0010
0100
0001
,
2000
0100
0010
0001
0100
0010
0100
3001
,
0110
0000
0000
1000
0001
0000
0010
0000
0001
0000
0100
0000
1010
0000
0100
0000
,
1001
0100
0000
0010
0001
0000
0101
0000
0001
0100
0000
1000
0010
0000
0110
0000
,
0001
1000
0000
0100
0010
0000
1100
0000
1000
0100
0000
0001
0010
0000
0011
0000
,
0001
0100
0000
0010
1000
0000
1100
0000
1000
0001
0000
0010
0100
0000
1001
0000
,
0110
0000
1000
0001
0010
0000
0001
0100
0010
0000
1000
0100
1000
0001
0100
0010
,
1001
0000
1000
0100
0011
0000
0001
0100
1010
0000
1000
0001
0110
0000
0010
0100
,
1001
0010
0100
0010
0001
0100
0010
1000
0100
0010
0001
1000
0011
1000
0100
0010
,
1001
0000
0001
0100
1010
0000
1000
0100
0011
0000
1000
0001
0110
0000
1100
0000
,
1001
0010
0100
0010
1000
0100
0010
0001
,
1000
0010
1000
0000
0001
0000
0000
0000
0001
0010
0100
0000
1000
0000
0100
0000
,
1000
0001
0100
0000
0010
0000
0000
0000
1000
0001
0100
0001
0010
0001
0100
0000
,
0001
1000
0001
0000
0010
0000
0000
0000
0001
1000
0010
1000
0100
1000
0010
0000
,
1000
0000
0001
0000
0010
0100
1000
0001
0100
0010
0000
1000
0100
0010
0001
0000
,
2010
0001
0010
0100
0001
0010
0100
3010
,
1001
0100
0010
0100
0001
0010
0100
1000
0001
0100
0010
1000
0100
0010
0100
1000
,
0001
0100
0010
1000
0100
1000
0010
0100
1001
0000
1010
0000
0110
0000
0101
0000
,
1001
0100
0010
0100
1000
0010
0100
0001
0010
0100
1000
0001
0100
0010
1000
0100
,
1000
0010
0100
0001
1000
0100
0010
0100
1001
0000
0011
0000
0110
0000
1100
0000
,
1001
0100
0010
1000
0001
0010
0001
0100
0010
1000
0100
0010
0100
1000
0001
0010
,
0001
0100
0010
1000
0100
1000
0001
0010
1100
0000
1010
0000
0011
0000
0101
0000
,
1010
0001
0010
0100
1000
0010
0100
0001
1000
0100
0010
0001
0100
0010
0100
0001
,
1000
0100
0010
0100
1000
0010
0100
0001
1010
0000
1001
0000
0011
0000
0110
0000
,
1000
0001
0100
0010
1000
0100
1000
0001
,
0100
0010
1000
0011
,
1100
0110
0011
0110
1001
1010
0101
1100
,
0011
0000
0101
0000
1010
0000
1100
0000
1000
0100
0010
0001
1000
0010
0100
0001
,
1010
0100
0001
0100
0010
1000
0001
0010
,
0100
0010
0001
1000
0010
1000
0100
0010
,
0001
0100
0010
0100
0001
1000
0100
1000
0001
0010
1000
0010
0001
0100
0010
1000
,
0001
0000
0001
2000
0100
3000
0110
0000
,
1001
0011
0101
1100
,
0001
0010
0100
1000
0010
0100
0010
1000
,
0100
1000
0100
0010
0100
1000
0100
0010
0001
0100
0010
1000
0001
0010
0100
1000
,
0010
0100
0010
1000
0001
0010
0100
0010
0001
0100
0010
1000
0001
0010
0100
1000
,
0011
0100
0010
1000
0010
0100
0001
1000
0100
0010
0001
0010
0100
0010
0001
0000
,
1000
0001
0100
0000
1000
0001
0000
0010
0001
0100
0010
0100
0001
1000
0010
0000
,
1000
0001
0010
0100
1000
0010
0100
0001
1000
0100
0010
0001
1000
0001
0100
0010
,
1001
0010
0100
0010
2002
0000
0000
0000
,
0000
0000
3003
0000
;
