#TITLE:Kick Your A;
#SUBTITLE:;
#ARTIST:DJ Amuro (Remixed by SuperGreenX);
#TITLETRANSLIT:;
#SUBTITLETRANSLIT:;
#ARTISTTRANSLIT:;
#CREDIT:;
#BANNER:Kick Your A.png;
#BACKGROUND:Kick Your A-bg.PNG;
#LYRICSPATH:;
#CDTITLE:;
#MUSIC:Kick Your A.mp3;
#OFFSET:-0.037;
#SAMPLESTART:34.895;
#SAMPLELENGTH:12.000;
#SELECTABLE:YES;
#BPMS:0.000=92.992,248.000=185.984,420.003=92.992;
#STOPS:416.063=2.581
;
#BGCHANGES:;
// cache tags:
#FIRSTBEAT:0.000;
#LASTBEAT:520.000;
#SONGFILENAME:Songs/new/Kick Your A/steps.sm;
#HASMUSIC:1;
#HASBANNER:1;
#MUSICLENGTH:286.987;
// end cache tags

//---------------dance-single - ----------------
#NOTES:
     dance-single:
     :
     Hard:
     9:
     0.573,0.612,0.310,0.213,0.106,994.000,89.000,61.000,0.000,7.000:
1000
0100
0010
0001
1000
2000
0100
0010
,
3001
0000
1000
0100
0010
0000
0001
0000
0100
0000
1000
0000
1100
0000
0101
0000
,
2000
0100
0010
0002
3000
1000
0000
0010
,
0000
0100
1000
0013
0100
1000
0100
0010
,
0001
1100
0100
0001
1000
0100
0010
0001
,
1000
0100
0010
0001
1000
0100
0020
0031
,
1100
0100
0001
1000
0100
0010
0001
0101
,
0010
1000
0100
0010
0001
1000
2001
0100
,
0010
0000
0100
0001
0100
0010
0100
3001
,
1000
0000
0100
0000
0010
0000
0001
0000
0100
0000
0100
0000
0001
0000
1000
0100
,
0010
0001
0100
0010
1000
0100
0020
0031
,
1100
0000
0100
0001
0000
0000
1000
0000
0100
0000
0010
0000
0001
0000
0100
0000
,
0010
1000
0100
0010
0100
1000
0010
0100
,
0001
1000
0100
0020
0031
0010
0100
1000
,
1100
0100
0001
1000
0100
0020
0031
1000
,
2000
0100
0010
0001
0100
0010
0100
3100
,
0000
0000
1000
0100
0000
1000
0000
0100
0000
0000
1000
0000
0100
0000
0010
0000
,
0001
0000
0100
0000
0010
0000
1000
0000
0100
0000
0010
0000
0001
0000
0100
0010
,
1000
0100
0010
0001
0100
1100
0100
0001
,
1000
0100
0010
0001
0100
0010
1000
0100
,
0010
0000
0001
0000
0100
0000
0010
1000
0100
0000
0010
0000
0001
0000
0100
0000
,
1000
0100
0001
0020
1000
0100
0001
0100
,
1000
0100
0031
1000
0100
0001
0100
0010
,
1100
0100
0001
0010
0100
1000
0100
0020
,
0031
1000
1100
0101
2000
0010
0100
0001
,
0100
0000
0010
0000
0100
0000
3001
0000
0010
0001
1000
0000
0100
0000
0010
0000
,
0001
0100
0010
1000
1100
0101
0020
0001
,
0100
0000
1000
0000
0100
0000
0001
0030
1000
0000
0100
0000
0001
0000
0010
0000
,
1000
0100
0010
1000
1000
1100
0100
0001
,
0010
0100
1000
0100
0010
0100
0010
0001
,
1000
0001
1000
0001
0010
0100
1000
0001
,
0100
0000
0010
0000
2000
3000
0001
0000
0100
0000
0010
0000
2000
0000
3010
0000
,
0100
0000
0001
0000
1000
0000
1000
0000
1000
0000
1000
0000
1000
0100
0010
0001
,
0000
0100
0010
0000
1000
0000
0100
0000
0010
0001
1000
0000
0100
0010
0000
0001
,
0000
1000
0100
0000
0100
0001
1000
0100
0010
0001
0100
0000
0100
0000
1000
0000
,
0001
0020
0100
0000
1000
0000
0130
0000
1000
0100
0010
0001
0100
0000
0010
0000
,
2000
0000
0100
0000
0001
0000
0010
3000
0100
0000
1000
0100
0010
0000
0001
0100
,
0010
0000
1100
0010
0000
0100
1000
0000
0101
0000
1000
0000
0100
0000
0010
0000
,
0001
0000
0100
0000
0010
0000
2000
0000
0100
3000
0001
0000
0010
0000
0100
0000
,
2002
0000
0000
0000
,
3003
1001
0110
1001
,
0110
1110
0111
1011
,
1101
1111
1111
2200
,
0001
3300
0000
0100
0010
1000
0100
0010
,
0001
1000
0100
0010
0001
2000
0000
3000
,
0100
0010
0001
0100
0010
1000
0100
0010
,
0001
0100
0100
2000
0001
0100
0010
0001
,
0100
0000
0001
0000
0010
0000
0100
0000
0001
0000
0100
0000
0001
0000
0010
3000
,
0100
1000
0100
0010
0001
0100
1000
0100
,
0010
0001
0100
0010
1000
0100
0010
0001
,
1000
0100
0010
0001
1000
0100
0010
0001
,
0100
0010
1000
0100
0010
0001
2000
3100
,
1100
0100
0001
1000
0100
0010
0001
1000
,
0100
0010
0001
1000
0100
0010
1100
0101
,
2010
0000
0000
0000
0100
0000
0000
0000
0001
0000
0010
0000
0100
0000
0001
3000
,
0010
0000
1000
0000
0100
0000
0010
0000
0001
0000
0100
0000
0101
0000
1000
0100
,
0010
0000
0001
0000
0100
0000
0010
0000
1000
0000
0100
0000
0010
0001
0000
0000
,
0100
0010
1000
0100
0010
0001
0100
0010
,
2000
0000
0100
0000
3000
0000
0000
1000
0100
0000
0010
0000
0001
0000
1000
0000
,
0100
0010
0001
0100
0010
1000
0100
0010
,
0001
1000
0100
0010
0001
2000
3100
1000
,
1100
0000
0101
0000
1010
0000
1100
0000
0011
0100
1000
0000
1001
0000
1001
0000
,
1001
0100
0010
0001
0100
0010
0010
1000
,
0100
0010
0001
0100
0010
1000
0100
0010
,
0001
0100
0010
1000
0100
0010
0001
1000
,
0100
0000
0010
0000
0001
0000
1000
0000
0100
0000
1000
0000
1000
0100
1000
0000
,
0001
0010
0100
1000
0001
0010
0100
1000
,
0001
0010
0001
0100
0010
1000
0001
1000
,
1100
0101
1000
0020
,
0130
0000
0001
0000
1000
0000
0100
0000
0010
0000
0100
0000
1000
0100
1000
0100
,
1000
0100
0010
0001
0100
0010
0100
1000
,
0100
0010
0001
0100
0010
1000
0100
0010
,
0001
0100
0010
1000
0100
0010
0001
1000
,
0100
0100
0001
1000
0100
0010
0001
0100
,
0010
1000
0100
0010
0001
0100
0010
1000
,
0100
0010
0001
1000
0100
1000
0100
0001
,
1000
0100
0010
0001
0001
1000
0100
0010
,
0001
0000
0010
0000
1000
0010
1000
0000
0001
0100
0001
0000
1000
0100
1000
0000
,
0001
0100
0010
0100
0100
1000
0001
0010
,
0100
1000
1000
0100
0010
0001
0100
0010
,
0100
1000
0001
0100
0010
1000
0100
1000
,
0100
1100
0100
0010
0010
0001
1000
0100
,
1000
0010
0010
0100
1000
0001
0100
0010
,
0100
0000
1100
0000
0000
0101
0000
0010
1000
0000
1000
0100
0000
1000
0000
0001
,
0000
0000
1000
0000
0100
0000
2002
0000
0000
0000
0000
0000
0000
3003
0000
0000
,
1000
0100
1000
0100
1000
0100
1000
0100
1000
0100
1000
0100
1000
0200
0000
0000
,
1000
0000
0000
0000
1000
0000
0000
0000
1000
0300
0000
0000
0100
0000
0000
0000
,
1000
0100
0010
0001
0010
1000
0010
0001
,
0010
1000
0010
0001
0100
1000
0100
0001
,
0100
0010
1000
0100
0010
0001
0100
0010
,
1000
0100
0010
0001
0100
0100
1000
1000
,
0100
1000
0100
0001
1000
1010
0010
0001
,
1100
1000
0010
1000
0001
0010
0100
1000
,
1001
0010
0100
1000
0001
0100
0100
0010
,
0001
0010
0100
1000
0001
0010
0100
1000
,
0010
0100
0010
1000
0100
0010
0001
0100
,
0010
1000
0100
0010
0001
1000
0100
1000
,
0100
1000
0100
0010
0001
1000
0100
0010
,
0001
0000
1000
0000
0100
0000
0010
0000
0001
0000
1000
0000
0100
2000
0000
0000
,
0001
0000
0000
0000
0100
0000
0000
0000
0010
0000
0000
0000
0100
3000
0000
0000
,
0000
0000
0100
0000
0010
0001
0000
0100
0000
0010
0000
1000
0000
0100
0000
0000
,
0220
0000
0000
0000
0000
0330
0000
2200
0000
0000
0000
0000
3300
0000
0000
1100
,
0000
0000
0000
0101
0000
0000
1100
0000
0000
0011
0000
0000
1100
0000
0000
0000
,
0101
0000
1100
0000
0000
0000
0000
0000
1000
0100
0000
0010
0001
0000
0100
0010
,
2002
3003
0000
0000
0000
0000
0000
0000
0000
0000
0000
0000
0000
0000
0000
0000
0000
0000
0000
0000
0000
0000
0000
0000
0000
0000
0000
0000
0000
0000
0000
0000
,
1001
1000
0100
0010
0001
2000
0100
0010
,
3001
1000
0100
0010
0001
1000
0001
0010
,
0100
1000
1001
0110
1000
0001
0010
0100
,
1000
0001
0010
0100
1000
1000
1000
0100
,
0010
0001
2000
0100
0010
0001
0100
3010
,
1000
0100
0010
0001
0100
0010
1000
0100
,
0010
0001
1000
0100
0010
0001
1000
0100
,
0020
0000
0031
0000
2000
0000
0100
0000
0010
3000
0101
0000
1100
0000
0101
0000
,
0011
1100
0101
1100
0020
0001
0100
1000
,
0100
0031
1000
0100
0010
0001
0100
0010
,
1000
0100
0010
0001
2000
3001
1000
0001
,
1100
0101
1010
0101
1010
0011
0110
1010
,
1100
0200
0001
0010
1000
0010
0001
0301
,
1000
0100
0001
0100
1000
0010
0001
0010
,
1000
0100
0020
0031
2000
3100
2000
3100
,
1100
0101
1000
0100
0010
0001
2000
3100
,
1100
0100
0001
0010
0100
1000
0100
0010
,
0001
1000
1000
1000
1001
1000
0100
0010
,
1000
0100
0010
0001
0010
0100
1000
0100
,
0010
0001
0010
0100
1000
0001
1001
0000
,
1000
0010
0100
0001
0100
0010
1000
0010
,
0100
0001
0100
0010
1000
0100
0020
0130
,
1200
0300
1000
0100
0020
0031
2000
3100
,
2002
0000
0000
3003
0220
0330
2000
3100
,
2002
0000
0000
0000
,
3003
0000
0000
0000
;
