#TITLE:Lash's Theme;
#SUBTITLE:Advance Wars DS;
#ARTIST:Intelligent Systems;
#TITLETRANSLIT:;
#SUBTITLETRANSLIT:;
#ARTISTTRANSLIT:;
#CREDIT:;
#BANNER:Lash's Theme.png;
#BACKGROUND:Lash's Theme-bg.png;
#LYRICSPATH:;
#CDTITLE:!gloveTitle.png;
#MUSIC:Lash's Theme.mp3;
#OFFSET:-0.178;
#SAMPLESTART:9.000;
#SAMPLELENGTH:7.060;
#SELECTABLE:YES;
#BPMS:0.000=135.971;
#STOPS:;
#BGCHANGES:;
// cache tags:
#FIRSTBEAT:0.000;
#LASTBEAT:132.000;
#SONGFILENAME:Songs/VGMP 2/Lash's Theme (GLoVE)/Lash's Theme.sm;
#HASMUSIC:1;
#HASBANNER:1;
#MUSICLENGTH:63.824;
// end cache tags

//---------------dance-single - ----------------
#NOTES:
     dance-single:
     :
     Hard:
     10:
     1.000,0.905,0.188,0.110,1.000,464.000,12.000,7.000,0.000,0.000:

1000
0000
0001
0000
1000
0000
0001
0000
1000
0000
0001
0000
1000
0000
0001
0000
1000
0000
0001
0000
1000
0000
0001
0000
1000
0001
1000
0001
1000
0001
1000
0001
,
1000
0000
0100
0010
0001
0010
0100
1000
0010
0100
0001
0010
0100
0000
1000
0000
,
1001
0000
0100
0010
1000
0010
0100
0001
0010
0001
0100
0010
0100
0000
0010
0000
,
1010
0000
0010
1000
0100
0010
0100
1000
0001
0010
0100
1000
0001
0000
0100
0000
,
0110
0000
0000
0000
1000
0000
0100
0000
1000
0000
0010
0000
1000
0000
0100
0000
0010
0000
0001
0000
0010
0000
0100
0000
0010
0100
0010
0100
0010
0100
0010
0100
,
0010
0000
0001
0010
0100
1000
0100
0010
0001
1000
0010
0100
0001
0000
0010
0000
,
0110
0000
1000
0001
0100
0001
0100
0010
1000
0100
0010
0001
0010
0000
0100
0000
,
1100
0000
0001
1000
0010
0100
0010
1000
0001
0100
0010
1000
0001
0000
0010
0000
,
0011
0000
0100
0010
0100
0001
0010
0100
1000
0100
0010
0100
1000
0000
0100
0000
,
0010
0000
0000
0000
0001
0000
0000
0000
1000
0000
0000
0000
0010
0000
0000
0000
0100
0000
0000
0000
0001
0000
0000
0000
0100
0000
0000
0000
0010
0000
0000
0000
1000
0000
0000
0000
0100
0000
0000
0000
0010
0000
0000
0000
0001
0000
0000
0000
0010
0000
0000
0000
0000
0100
0000
0000
1000
0000
0000
0000
0010
0000
0000
0000
,
0100
0010
1000
0001
0010
0100
1000
0100
0010
0001
0010
0100
0010
0001
1000
0100
,
0010
0001
0100
0010
1000
0100
1000
0001
0100
0001
0010
0001
0010
0100
1000
0010
,
1000
0000
0100
0000
0000
0000
0100
0000
0000
0000
0000
0000
0000
0000
0000
0000
0010
0000
0100
0000
0010
0000
0100
0000
0010
0100
0010
0100
0010
0100
0010
0100
,
0010
0000
1000
0100
0010
0100
1000
0001
0100
0010
1000
0001
0100
0000
0010
0000
,
0011
0000
0010
0100
0010
0001
1000
0010
0100
0001
1000
0001
0010
0000
0100
0000
,
1100
0000
0001
0100
0001
0100
0010
1000
0100
0010
0001
0010
0100
0000
1000
0000
,
1100
0000
0010
0001
0010
0100
1000
0001
1000
0100
0010
0001
1000
0000
0100
0000
,
0010
0000
0000
0000
0001
0000
0000
0000
0010
0000
0000
0000
0100
0000
0000
0000
1000
0000
0000
0000
0001
0000
0000
0000
0100
0000
0000
0000
0001
0000
0000
0000
1000
0000
0000
0000
0010
0000
0000
0000
0100
0000
0000
0000
0001
0000
0000
0000
1000
0000
0000
0000
0000
0100
0000
0000
0010
0000
0000
0000
0001
0000
0000
0000
,
0100
0001
1000
0010
0100
0010
1000
0001
0010
0100
1000
0001
0010
0100
0010
0001
,
0010
0100
1000
0001
0100
0010
1000
0100
0010
0001
0010
0100
1000
0100
0010
0100
,
0010
0000
0001
0000
0000
0000
0001
0000
0000
0000
0000
0000
0000
0000
0000
0000
0100
0000
0010
0000
0100
0000
0010
0000
0100
0010
0100
0010
0100
0010
0100
0010
,
0100
0000
0001
0100
0000
0000
0200
0000
0001
0000
0000
0000
1300
0000
0000
0000
,
0120
0000
1000
0230
0001
0000
1300
0000
,
0110
0000
0001
0100
0000
0000
0200
0000
0001
0000
0000
0000
1300
0000
0000
0000
,
0120
0000
0000
0000
1000
0000
0230
0000
0001
0000
0000
0000
1300
0001
1000
0001
,
1000
0100
0010
0001
0100
0010
1000
0010
0100
0001
0010
0100
1000
0100
0010
0001
,
0010
0100
1000
0010
0100
0010
1000
0100
0010
0001
1000
0010
0200
0000
0000
0000
,
0301
0010
0100
0010
0001
1000
0001
0100
0010
1000
0001
0010
0100
1000
0100
0010
,
0001
0000
1000
0000
0001
0000
1000
0000
0001
0000
1000
0000
0001
0000
1000
0000
0001
0000
1000
0000
0001
0000
1000
0000
0001
1000
0001
1000
0001
1000
0001
1000
,
0001
0000
0010
0100
1000
0001
0100
0010
1000
0100
0010
0001
1000
0010
0100
0001
,
0000
0000
0010
0100
1000
0001
0100
0001
0100
0010
1000
0100
0010
0001
0010
0100
,
1000
0100
0010
0001
0100
0010
1000
0100
0010
0001
0100
0010
1000
0100
0010
0001
,
1000
0000
0001
0000
1000
0000
0001
0000
1000
0000
0001
0000
1000
0000
0001
0000
1000
0000
0001
0000
1000
0000
0001
0000
1000
0001
1000
0001
1000
0001
1000
0001
,
1000
0000
0000
0000
;

//---------------dance-single - Not copied from----------------
#NOTES:
     dance-single:
     Not copied from:
     Challenge:
     12:
     1.000,1.000,1.000,0.094,1.000,487.000,143.000,6.000,0.000,0.000:


1000
0000
0001
0000
1000
0000
0001
0000
1000
0000
0001
0000
1000
0000
0001
0000
1000
0000
0001
0000
1000
0000
0001
0000
1000
0001
1000
0001
1000
0001
1000
0001
,
1100
0000
0100
0010
1001
0010
1000
0100
0011
0100
1000
0010
0101
0000
0100
0010
,
1001
0000
0010
0100
1001
0100
0010
1000
0011
0100
0001
1000
0101
0000
0001
1000
,
0110
0000
0001
1000
0101
0010
1000
0100
1001
0010
0100
1000
0011
0000
0010
0001
,
1100
0000
0000
0000
0001
0000
1000
0000
0001
0000
0100
0000
0001
0000
1000
0000
0001
0000
0100
0000
0001
0000
1000
0000
0001
0100
0001
1000
0001
0100
0001
1000
,
0110
0100
0001
1010
0100
1000
0100
0010
1100
0001
0100
1001
0010
0000
0110
1000
,
0101
0000
1001
0100
1010
0001
1100
0010
1001
0100
0001
1010
0100
0000
0010
0001
,
1010
1000
0001
1100
0010
0100
0001
0010
1001
0010
1000
0101
0010
0000
0101
1000
,
0011
0000
1010
0100
1010
0101
0010
0001
1010
0100
0001
0010
1000
0000
0010
0100
,
1001
0000
0000
0000
0001
0000
0000
0000
0100
0000
0000
0000
1010
0000
0000
0000
0001
0000
0000
0000
1000
0000
0000
0000
0001
0000
0000
0000
0010
0000
0000
0000
1000
0000
0000
0000
0100
0000
0000
0000
0010
0000
0000
0000
1001
0000
0000
0000
0010
0000
0000
0000
0100
0010
0000
0000
1001
0000
0000
0000
0100
0000
0000
0000
,
1010
1010
0001
1100
0001
0010
1000
0010
0100
1000
0001
0100
0010
1000
0010
0100
,
1010
1010
0001
1100
0010
0100
1000
0001
0100
0010
1100
0001
1010
0000
1001
0100
,
0011
0000
1100
0000
0010
0000
1100
0000
0010
0000
1000
0000
0010
0000
0100
0000
0010
0000
1000
0000
0010
0000
0100
0000
0010
1000
0010
0100
0010
1000
0010
0100
,
0011
0001
1000
0101
0010
0100
1000
0001
1100
0010
1000
0011
0100
0000
1100
0010
,
0101
0000
0011
0100
1010
0001
1100
0010
0101
1000
0010
1001
0100
0000
0001
0100
,
1010
1000
0001
1100
0001
0010
1000
0001
1010
0100
0010
1001
0100
0000
0101
1000
,
0011
0000
0110
0001
1010
0101
1000
0010
1001
0100
0010
0001
1000
0000
0010
0100
,
0011
0000
0000
0000
0001
0000
0000
0000
0100
0000
0000
0000
1010
0000
0000
0000
0001
0000
0000
0000
0100
0000
0000
0000
0010
0000
0000
0000
1000
0000
0000
0000
0001
0000
0000
0000
0100
0000
0000
0000
0010
0000
0000
0000
1100
0000
0000
0000
0010
0000
0000
0000
1000
0001
0000
0000
0110
0000
0000
0000
0001
0000
0000
0000
,
1010
1010
0001
1100
0010
0100
0001
1000
0100
0010
0001
1000
0100
0010
0100
1000
,
0101
0101
0010
1001
0100
0010
1000
0100
0010
0001
1010
0100
1001
0000
0101
1000
,
0011
0000
1100
0000
0010
0000
1000
0000
0100
0000
0001
0000
0100
0000
0010
0000
0100
0000
0001
0000
0100
0000
0010
0000
0100
0001
0100
0010
0100
0001
0100
0010
,
0101
0000
0001
0001
1001
0000
0020
0000
1000
0000
0000
0000
1000
0000
0030
0000
,
1200
0000
1000
0302
1000
0000
1003
0000
,
1001
0000
0001
0001
1001
0000
0020
0000
1000
0000
0000
0000
1000
0000
0030
0000
,
1200
0000
0000
0000
1000
0000
0302
0000
1000
0000
0000
0003
0100
0100
0100
0100
,
1000
0000
1010
0100
0011
0100
1010
0001
1100
0010
1001
0100
1010
0000
0110
0001
,
1010
0000
1001
0100
1010
0001
1100
0010
0101
1000
0011
0100
1010
0000
0000
0000
,
1000
0000
1100
0010
0101
0010
1001
0100
0011
0100
1010
0100
1001
0000
0101
1000
,
0011
0000
0000
0000
0101
0000
0010
0000
1001
0000
0100
0000
1010
0000
0001
0000
1100
0000
0010
0000
1001
0000
0100
0000
0011
1000
0001
1000
0001
1000
0001
1000
,
0011
0000
1000
0100
0011
0100
1001
0010
0101
1000
0110
0001
1100
0010
1001
0100
,
1010
0000
0001
0100
1010
0001
1100
0010
1001
0100
0011
0100
1010
0100
1001
0010
,
0101
0000
1000
0100
1010
0001
1100
0010
1001
0100
1010
0001
1100
0010
1001
0100
,
1010
0000
0001
0000
0100
0000
0010
0000
1000
0000
0100
0000
0010
0000
0001
0000
1000
0100
0010
0001
0100
0010
0000
0000
1000
0100
0010
0001
1000
0100
0010
0001
,
1100
0000
0000
0000
;
