#TITLE:DATA DRAIN;
#SUBTITLE:;
#ARTIST:DJ Sharpnel;
#TITLETRANSLIT:;
#SUBTITLETRANSLIT:;
#ARTISTTRANSLIT:;
#CREDIT:;
#BANNER:data drain bn.png;
#BACKGROUND:data drain bg.png;
#LYRICSPATH:;
#CDTITLE:!exige.png;
#MUSIC:dj_sharpnel-data_drain.ogg;
#OFFSET:-0.423;
#SAMPLESTART:18.093;
#SAMPLELENGTH:20.756;
#SELECTABLE:YES;
#BPMS:0.000=92.502,2.000=100.001,5.000=105.001,7.000=110.001,8.000=115.001,10.000=120.001,11.000=125.001,13.000=130.001,15.000=135.001,17.000=140.001,19.000=150.001,23.000=160.001,25.000=165.001,27.000=170.001,29.000=175.001,30.000=180.001,31.000=185.001,144.000=190.001,145.000=200.001,148.000=205.001,152.000=210.001,153.000=215.001,157.000=220.001,158.000=230.001,163.000=240.001,168.000=250.001,172.000=255.001,174.000=260.001,177.000=270.001,181.000=275.002,182.000=280.002,186.000=290.002,190.000=300.002,197.000=310.002,199.000=320.002,204.000=330.003,209.000=340.003,213.000=350.004,219.000=360.004,222.000=370.004,225.000=380.004,229.000=385.005,239.000=395.005,241.000=410.005,242.000=415.006,243.000=420.006,244.000=425.006,252.000=430.006,255.000=435.007,259.000=450.007,263.000=460.007,267.000=465.007,268.000=470.007,271.000=475.007,275.000=490.008,281.000=500.008,287.000=510.008,289.000=520.008,299.000=535.008,303.000=540.009,307.000=550.009,311.000=560.009,315.000=580.011,327.000=600.013,331.000=610.013,335.000=620.013,339.000=635.014,343.000=640.014,351.000=660.014,367.000=670.014,375.000=680.014,390.500=92.500;
#STOPS:390.500=2.270
;
#BGCHANGES:;
// cache tags:
#FIRSTBEAT:1.000;
#LASTBEAT:391.000;
#SONGFILENAME:Songs/SHARPNELSTREAMZ v2/Data Drain/data drain.sm;
#HASMUSIC:1;
#HASBANNER:1;
#MUSICLENGTH:88.555;
// end cache tags

//---------------dance-single - 16 (Zaia)----------------
#NOTES:
     dance-single:
     16 (Zaia):
     Challenge:
     16:
     1.000,1.000,0.068,0.508,0.898,920.000,6.000,45.000,4.000,4.000:
0000
0000
0000
0000
1000
0010
0100
0000
0001
0010
0100
0000
2000
0000
3002
0000
,
0013
0000
0000
0000
0100
0000
0000
0000
0010
0000
0000
0000
0000
0000
0000
0000
0001
0000
0000
0000
0100
0000
0000
0000
0010
0000
0000
0000
0000
0000
0000
0000
1000
0000
0000
0000
0100
0000
0000
0000
0010
0000
0000
0000
0000
0000
0000
0000
0200
0000
0000
0000
0000
0000
0000
0000
2300
0000
0000
0000
0000
0000
0000
3000
,
2002
0000
3013
0100
0001
0100
0010
0000
1000
0100
0010
0000
0001
0000
1000
0000
,
0010
0000
0000
0000
0100
0000
0000
0000
0010
0000
0000
0000
0000
0000
0000
0000
1000
0000
0000
0000
0001
0000
0000
0000
0100
0000
0000
0000
0000
0000
0000
0000
0001
0000
0000
0000
1000
0000
0000
0000
0100
0000
0000
0000
0000
0000
0000
0000
0020
0000
0000
0000
0000
0000
0000
0000
0032
0000
0000
0000
0000
0000
0000
0003
,
1001
0000
1001
0000
1000
0001
0010
0000
0100
1000
0001
0000
0200
0000
0320
0000
,
1030
0001
1000
0000
0100
0010
0001
0000
0100
0010
1000
0000
0200
0000
0320
0000
,
0032
0000
1003
0001
0100
0010
1000
0000
0100
1000
0010
0000
0200
0000
0302
0000
,
0013
0001
0010
0000
0100
1000
0001
0000
0010
0001
1000
0000
0020
0000
0230
0000
,
0302
0003
1111
0000
0000
0000
0000
0000
,
0000
0000
0000
0000
,
1000
0001
1000
0001
1000
0010
0100
0001
1000
0001
0010
0100
1000
0001
0100
0000
,
0010
0000
1000
0000
0010
0000
0000
0000
0100
0000
0001
0000
1000
0000
0100
0000
0010
0000
0001
0000
1000
0000
0010
0000
0200
0000
0000
0000
0302
0000
0000
0003
,
1000
0001
1000
0000
0001
0010
0100
1000
0001
0010
0001
1000
0010
0100
0001
0000
,
1000
0100
1000
0000
0001
0010
0001
1000
0010
0100
0001
1000
0200
0000
0320
0000
,
0032
0000
0003
0000
1000
0100
0010
0001
1000
0001
0100
0010
1000
0001
0010
0000
,
0100
0000
1000
0000
0100
0000
0000
0000
0010
0000
0001
0000
1000
0000
0010
0000
0100
0000
0001
0000
1000
0000
0100
0000
0020
0000
0000
0000
0032
0000
0000
0003
,
1000
0001
1000
0000
0001
0100
0010
1000
0001
0100
0001
1000
0100
0010
0001
0000
,
1000
0010
1000
0000
0001
0100
0001
1000
0100
0010
0001
1000
0020
0000
0230
0000
,
2302
0000
3003
0000
0001
0100
0010
1000
0001
1000
0100
0010
0001
1000
0010
0000
,
0100
0000
0001
0000
0100
0000
0000
0000
0010
0000
1000
0000
0001
0000
0010
0000
0100
0000
1000
0000
0001
0000
0100
0000
0020
0000
0000
0000
2030
0000
0000
3000
,
0001
1000
0001
0000
1000
0100
0010
0001
1000
0100
1000
0001
0100
0010
1000
0000
,
0001
0010
0001
0000
1000
0100
1000
0001
0100
0010
1000
0001
0020
0000
0230
0000
,
2300
0000
3000
0000
0001
0010
0100
1000
0001
1000
0010
0100
0001
1000
0100
0000
,
0010
0000
0001
0000
0010
0000
0000
0000
0100
0000
1000
0000
0001
0000
0100
0000
0010
0000
1000
0000
0001
0000
0010
0000
0200
0000
0000
0000
2300
0000
0000
3000
,
0001
1000
0001
0000
1000
0010
0100
0001
1000
0010
1000
0001
0010
0100
1000
0000
,
0001
0100
0001
0000
1000
0010
1000
0001
0010
0100
1000
0001
0200
0000
0320
0000
,
2032
0000
3003
0000
1000
0010
0100
0001
1000
0001
0010
0100
1000
0001
0100
0000
,
0010
0000
1000
0000
0010
0000
0000
0000
0100
0000
0001
0000
1000
0000
0100
0000
0010
0000
0001
0000
1000
0000
0010
0000
0200
0000
0000
0000
0302
0000
0000
0003
,
1000
0001
1000
0000
0001
0010
0100
1000
0001
0010
0001
1000
0010
0100
0001
0000
,
1000
0100
1000
0000
0001
0010
0001
1000
0010
0100
0001
1000
0200
0000
0320
0000
,
0032
0000
0003
0000
1000
0100
0010
0001
1000
0001
0100
0010
1000
0001
0010
0000
,
0100
1000
0100
0000
0010
0001
1000
0010
0100
0001
1000
0100
0010
0001
0010
0100
,
1000
0001
1000
0010
0100
0001
0100
0010
1000
0001
1000
0001
0010
0100
0010
0001
,
1000
0100
1000
0001
0100
0010
1000
0001
1000
0100
0010
0001
1000
0010
1000
0001
,
0010
0100
0010
0100
1000
0000
0001
0000
1000
0000
0001
0000
1000
0000
0001
0000
,
1000
0001
1000
0001
1000
0001
1000
0001
,
1000
0001
1000
0001
1000
0001
1000
0001
,
1000
0001
1000
0001
1000
0001
1000
0001
,
1000
0001
1000
0001
1000
0001
1000
0001
,
1000
0001
1000
0001
1000
0001
1000
0001
,
1000
0001
1000
0001
1000
0001
1000
0001
,
1000
0001
1000
0001
1000
0001
1000
0001
,
1000
0001
1000
0001
1000
0001
1000
0001
,
1000
0001
1000
0001
1000
0001
1000
0001
,
1000
0001
1000
0001
1000
0001
1000
0001
,
1000
0001
1000
0001
1000
0001
1000
0001
,
1000
0001
1000
0001
1000
0001
1000
0001
,
1000
0001
1000
0001
1000
0001
1000
0001
,
1000
0001
1000
0001
1000
0001
1000
0001
,
1000
0001
1000
0001
1000
0001
1000
0001
,
1000
0001
1000
0001
1000
0001
1000
0001
,
1000
0001
1000
0001
1000
0001
1000
0001
,
1000
0001
1000
0001
1000
0001
1000
0001
,
1000
0001
1000
0001
1000
0001
1000
0001
,
1000
0001
1000
0001
1000
0001
1000
0001
,
1000
0001
1000
0001
1000
0001
1000
0001
,
1000
0001
1000
0001
1000
0001
1000
0001
,
1000
0001
1000
0001
1000
0001
1000
0001
,
1000
0001
1000
0001
1000
0001
1000
0001
,
1000
0001
1000
0001
1000
0001
1000
0001
,
1000
0001
1000
0001
1000
0001
1000
0001
,
1000
0001
1000
0001
1000
0001
1000
0001
,
1000
0001
1000
0001
1000
0001
1000
0001
,
1000
0001
1000
0001
1000
0001
1000
0001
,
1000
0001
1000
0001
1000
0001
1000
0001
,
1000
0001
1000
0001
1000
0001
1000
0001
,
1000
0001
1000
0001
1000
0001
1000
0001
,
1000
0001
1000
0001
1000
0001
1000
0001
,
1000
0001
1000
0001
1000
0001
1000
0001
,
1000
0001
1000
0001
1000
0001
1000
0001
,
1000
0001
1000
0001
1000
0001
1000
0001
,
1000
0001
1000
0001
1000
0001
1000
0001
,
1000
0001
1000
0001
1000
0001
1000
0001
,
1000
0001
1000
0001
1000
0001
1000
0001
,
1000
0001
1000
0001
1000
0001
1000
0001
,
1000
0001
1000
0001
1000
0001
1000
0001
,
1000
0001
1000
0001
1000
0001
1000
0001
,
1000
0001
1000
0001
1000
0001
1000
0001
,
1000
0001
1000
0001
1000
0001
1000
0001
,
1000
0001
1000
0001
1000
0001
1000
0001
,
1000
0001
1000
0001
1000
0001
1000
0001
,
1000
0001
1000
0001
1000
0001
1000
0001
,
1000
0001
1000
0001
1000
0001
1000
0001
,
1000
0001
1000
0001
1000
0001
1000
0001
,
1000
0001
1000
0001
1000
0001
1000
0001
,
1000
0001
1000
0001
1000
0001
1000
0001
,
1000
0001
1000
0001
1000
0001
1000
0001
,
1000
0001
1000
0001
1000
0001
1000
0001
,
1000
0001
1000
0001
1000
0001
1000
0001
,
1000
0001
1000
0001
1000
0001
1000
0001
,
1000
0001
1000
0001
1000
0001
1000
0001
,
1000
0001
1000
0001
1000
0001
1000
0001
,
1000
0001
1000
0001
1000
0001
1000
0001
,
1000
0001
1000
0001
1000
0001
1000
0001
,
1000
0001
1000
0001
1000
0001
1000
0001
,
1000
0001
1000
0001
1000
0001
1000
0001
,
1000
0001
1000
0001
1000
0001
1000
0001
,
1000
0001
1000
0001
1000
0001
MMMM
0000
;

//---------------dance-single - 14 (Zaia)----------------
#NOTES:
     dance-single:
     14 (Zaia):
     Hard:
     14:
     1.000,1.000,0.079,0.508,0.898,700.000,7.000,45.000,4.000,4.000:
0000
0000
0000
0000
1000
0010
0100
0000
0001
0010
0100
0000
2000
0000
3002
0000
,
0013
0000
0000
0000
0100
0000
0000
0000
0010
0000
0000
0000
0000
0000
0000
0000
0001
0000
0000
0000
0100
0000
0000
0000
0010
0000
0000
0000
0000
0000
0000
0000
1000
0000
0000
0000
0100
0000
0000
0000
0010
0000
0000
0000
0000
0000
0000
0000
0200
0000
0000
0000
0000
0000
0000
0000
2300
0000
0000
0000
0000
0000
0000
3000
,
2002
0000
3013
0100
0001
0100
0010
0000
1000
0100
0010
0000
0001
0000
1000
0000
,
0010
0000
0000
0000
0100
0000
0000
0000
0010
0000
0000
0000
0000
0000
0000
0000
1000
0000
0000
0000
0001
0000
0000
0000
0100
0000
0000
0000
0000
0000
0000
0000
0001
0000
0000
0000
1000
0000
0000
0000
0100
0000
0000
0000
0000
0000
0000
0000
0020
0000
0000
0000
0000
0000
0000
0000
0032
0000
0000
0000
0000
0000
0000
0003
,
1001
0000
1001
0000
1000
0001
0010
0000
0100
1000
0001
0000
0200
0000
0320
0000
,
1030
0001
1000
0000
0100
0010
0001
0000
0100
0010
1000
0000
0200
0000
0320
0000
,
0032
0000
1003
0001
0100
0010
1000
0000
0100
1000
0010
0000
0200
0000
0302
0000
,
0013
0001
0010
0000
0100
1000
0001
0000
0010
0001
1000
0000
0020
0000
0230
0000
,
0302
0003
1111
0000
0000
0000
0000
0000
,
0000
0000
0000
0000
,
1000
0001
1000
0001
1000
0010
0100
0001
1000
0001
0010
0100
1000
0001
0100
0000
,
0010
0000
1000
0000
0010
0000
0000
0000
0100
0000
0001
0000
1000
0000
0100
0000
0010
0000
0001
0000
1000
0000
0010
0000
0200
0000
0000
0000
0302
0000
0000
0003
,
1000
0001
1000
0000
0001
0010
0100
1000
0001
0010
0001
1000
0010
0100
0001
0000
,
1000
0100
1000
0000
0001
0010
0001
1000
0010
0100
0001
1000
0200
0000
0320
0000
,
0032
0000
0003
0000
1000
0100
0010
0001
1000
0001
0100
0010
1000
0001
0010
0000
,
0100
0000
1000
0000
0100
0000
0000
0000
0010
0000
0001
0000
1000
0000
0010
0000
0100
0000
0001
0000
1000
0000
0100
0000
0020
0000
0000
0000
0032
0000
0000
0003
,
1000
0001
1000
0000
0001
0100
0010
1000
0001
0100
0001
1000
0100
0010
0001
0000
,
1000
0010
1000
0000
0001
0100
0001
1000
0100
0010
0001
1000
0020
0000
0230
0000
,
2302
0000
3003
0000
0001
0100
0010
1000
0001
1000
0100
0010
0001
1000
0010
0000
,
0100
0000
0001
0000
0100
0000
0000
0000
0010
0000
1000
0000
0001
0000
0010
0000
0100
0000
1000
0000
0001
0000
0100
0000
0020
0000
0000
0000
2030
0000
0000
3000
,
0001
1000
0001
0000
1000
0100
0010
0001
1000
0100
1000
0001
0100
0010
1000
0000
,
0001
0010
0001
0000
1000
0100
1000
0001
0100
0010
1000
0001
0020
0000
0230
0000
,
2300
0000
3000
0000
0001
0010
0100
1000
0001
1000
0010
0100
0001
1000
0100
0000
,
0010
0000
0001
0000
0010
0000
0000
0000
0100
0000
1000
0000
0001
0000
0100
0000
0010
0000
1000
0000
0001
0000
0010
0000
0200
0000
0000
0000
2300
0000
0000
3000
,
0001
1000
0001
0000
1000
0010
0100
0001
1000
0010
1000
0001
0010
0100
1000
0000
,
0001
0100
0001
0000
1000
0010
1000
0001
0010
0100
1000
0001
0200
0000
0320
0000
,
2032
0000
3003
0000
1000
0010
0100
0001
1000
0001
0010
0100
1000
0001
0100
0000
,
0010
0000
1000
0000
0010
0000
0000
0000
0100
0000
0001
0000
1000
0000
0100
0000
0010
0000
0001
0000
1000
0000
0010
0000
0200
0000
0000
0000
0302
0000
0000
0003
,
1000
0001
1000
0000
0001
0010
0100
1000
0001
0010
0001
1000
0010
0100
0001
0000
,
1000
0100
1000
0000
0001
0010
0001
1000
0010
0100
0001
1000
0200
0000
0320
0000
,
0032
0000
0003
0000
1000
0100
0010
0001
1000
0001
0100
0010
1000
0001
0010
0000
,
0100
1000
0100
0000
0010
0001
1000
0010
0100
0001
1000
0100
0010
0001
0010
0100
,
1000
0001
1000
0010
0100
0001
0100
0010
1000
0001
1000
0001
0010
0100
0010
0001
,
1000
0100
1000
0001
0100
0010
1000
0001
1000
0100
0010
0001
1000
0010
1000
0001
,
0010
0100
0010
0100
1000
0000
0001
0000
1000
0000
0001
0000
1000
0000
0001
0000
,
1000
0001
1000
0001
1000
0001
1000
0001
,
1000
0001
1000
0001
1000
0001
1000
0001
,
1000
0001
1000
0001
1000
0001
1000
0001
,
1000
0001
1000
0001
1000
0001
1000
0001
,
1000
0001
1000
0001
1000
0001
1000
0001
,
1000
0001
1000
0001
1000
0001
1000
0001
,
1000
0001
1000
0001
1000
0001
1000
0001
,
1000
0001
1000
0001
1000
0001
1000
0001
,
1000
0001
1000
0001
1000
0001
1000
0001
,
1000
0001
1000
0001
1000
0001
1000
0001
,
1000
0001
1000
0001
1000
0001
1000
0001
,
1000
0001
1000
0001
1000
0001
1000
0001
,
1000
0001
1000
0001
1000
0001
1000
0001
,
1000
0001
1000
0001
1000
0001
1000
0001
,
1000
0001
1000
0001
1000
0001
1000
0001
,
1000
0001
1000
0001
1000
0001
1000
0001
,
1000
0001
1000
0001
1000
0001
1000
0001
,
1000
0001
1000
0001
1000
0001
1000
0001
,
1000
0001
1000
0001
1000
0001
1000
0001
,
1000
0001
1000
0001
1000
0001
1000
0001
,
1000
0001
1000
0001
1000
0001
1000
0001
,
1000
0001
1000
0001
1000
0001
1000
0001
,
1000
0001
1000
0001
1000
0001
1000
0001
,
1000
0001
1000
0001
1000
0001
1000
0001
,
1000
0001
1000
0001
1000
0001
1000
0001
,
1000
0001
1000
0001
1000
0001
1000
0001
,
1000
0001
1000
0001
1000
0001
1000
0001
,
1000
0001
1000
0001
1000
0001
1000
0001
,
1000
0001
1000
0001
1000
0001
1000
0001
,
1000
0001
1000
0001
1000
0001
1000
0001
,
1000
0001
1000
0001
1000
0001
1000
0001
,
1000
0001
1000
0001
1000
0001
1000
0001
,
1000
0001
1000
0001
1000
0001
1000
0001
,
1000
0001
1000
0001
1000
0001
1000
0001
,
1000
0001
1000
0001
1000
0001
1000
0001
,
1000
0001
4000
0004
0000
0000
0000
0000
,
0000
0000
0000
0000
,
0000
0000
0000
0000
,
0000
0000
0000
0000
,
0000
0000
0000
0000
,
0000
0000
0000
0000
,
0000
0000
0000
0000
,
0000
0000
0000
0000
,
0000
0000
0000
0000
,
0000
0000
0000
0000
,
0000
0000
0000
0000
,
0000
0000
0000
0000
,
0000
0000
0000
0000
,
0000
0000
0000
0000
,
0000
0000
0000
0000
,
0000
0000
0000
0000
,
0000
0000
0000
0000
,
0000
0000
0000
0000
,
0000
0000
0000
0000
,
0000
0000
0000
0000
,
0000
0000
0000
0000
,
0000
0000
0000
0000
,
0000
0000
0000
0000
,
0000
0000
0000
0000
,
0000
0000
0000
0000
,
0000
0000
0000
0000
,
0000
0000
0000
0000
,
0000
0000
0000
0000
0000
3003
MMMM
0000
;

//---------------dance-single - 12+ (CTalon)----------------
#NOTES:
     dance-single:
     12+ (CTalon):
     Medium:
     12:
     0.753,1.000,0.079,0.508,0.898,412.000,7.000,45.000,4.000,4.000:
0000
0000
0000
0000
1000
0010
0100
0000
0001
0010
0100
0000
2000
0000
3002
0000
,
0013
0000
0000
0000
0100
0000
0000
0000
0010
0000
0000
0000
0000
0000
0000
0000
0001
0000
0000
0000
0100
0000
0000
0000
0010
0000
0000
0000
0000
0000
0000
0000
1000
0000
0000
0000
0100
0000
0000
0000
0010
0000
0000
0000
0000
0000
0000
0000
0200
0000
0000
0000
0000
0000
0000
0000
2300
0000
0000
0000
0000
0000
0000
3000
,
2002
0000
3013
0100
0001
0100
0010
0000
1000
0100
0010
0000
0001
0000
1000
0000
,
0010
0000
0000
0000
0100
0000
0000
0000
0010
0000
0000
0000
0000
0000
0000
0000
1000
0000
0000
0000
0001
0000
0000
0000
0100
0000
0000
0000
0000
0000
0000
0000
0001
0000
0000
0000
1000
0000
0000
0000
0100
0000
0000
0000
0000
0000
0000
0000
0020
0000
0000
0000
0000
0000
0000
0000
0032
0000
0000
0000
0000
0000
0000
0003
,
1001
0000
1001
0000
1000
0001
0010
0000
0100
1000
0001
0000
0200
0000
0320
0000
,
1030
0001
1000
0000
0100
0010
0001
0000
0100
0010
1000
0000
0200
0000
0320
0000
,
0032
0000
1003
0001
0100
0010
1000
0000
0100
1000
0010
0000
0200
0000
0302
0000
,
0013
0001
0010
0000
0100
1000
0001
0000
0010
0001
1000
0000
0020
0000
0230
0000
,
0302
0003
1111
0000
0000
0000
0000
0000
,
0000
0000
0000
0000
,
1000
0001
1000
0001
1000
0010
0100
0001
1000
0001
0010
0100
1000
0001
0100
0000
,
0010
0000
1000
0000
0010
0000
0000
0000
0100
0000
0001
0000
1000
0000
0100
0000
0010
0000
0001
0000
1000
0000
0010
0000
0200
0000
0000
0000
0302
0000
0000
0003
,
1000
0001
1000
0000
0001
0010
0100
1000
0001
0010
0001
1000
0010
0100
0001
0000
,
1000
0100
1000
0000
0001
0010
0001
1000
0010
0100
0001
1000
0200
0000
0320
0000
,
0032
0000
0003
0000
1000
0100
0010
0001
1000
0001
0100
0010
1000
0001
0010
0000
,
0100
0000
1000
0000
0100
0000
0000
0000
0010
0000
0001
0000
1000
0000
0010
0000
0100
0000
0001
0000
1000
0000
0100
0000
0020
0000
0000
0000
0032
0000
0000
0003
,
1000
0001
1000
0000
0001
0100
0010
1000
0001
0100
0001
1000
0100
0010
0001
0000
,
1000
0010
1000
0000
0001
0100
0001
1000
0100
0010
0001
1000
0020
0000
0230
0000
,
2302
0000
3003
0000
0001
0100
0010
1000
0001
1000
0100
0010
0001
1000
0010
0000
,
0100
0000
0001
0000
0100
0000
0000
0000
0010
0000
1000
0000
0001
0000
0010
0000
0100
0000
1000
0000
0001
0000
0100
0000
0020
0000
0000
0000
2030
0000
0000
3000
,
0001
1000
0001
0000
1000
0100
0010
0001
1000
0100
1000
0001
0100
0010
1000
0000
,
0001
0010
0001
0000
1000
0100
1000
0001
0100
0010
1000
0001
0020
0000
0230
0000
,
2300
0000
3000
0000
0001
0010
0100
1000
0001
1000
0010
0100
0001
1000
0100
0000
,
0010
0000
0001
0000
0010
0000
0000
0000
0100
0000
1000
0000
0001
0000
0100
0000
0010
0000
1000
0000
0001
0000
0010
0000
0200
0000
0000
0000
2300
0000
0000
3000
,
0001
1000
0001
0000
1000
0010
0100
0001
1000
0010
1000
0001
0010
0100
1000
0000
,
0001
0100
0001
0000
1000
0010
1000
0001
0010
0100
1000
0001
0200
0000
0320
0000
,
2032
0000
3003
0000
1000
0010
0100
0001
1000
0001
0010
0100
1000
0001
0100
0000
,
0010
0000
1000
0000
0010
0000
0000
0000
0100
0000
0001
0000
1000
0000
0100
0000
0010
0000
0001
0000
1000
0000
0010
0000
0200
0000
0000
0000
0302
0000
0000
0003
,
1000
0001
1000
0000
0001
0010
0100
1000
0001
0010
0001
1000
0010
0100
0001
0000
,
1000
0100
1000
0000
0001
0010
0001
1000
0010
0100
0001
1000
0200
0000
0320
0000
,
0032
0000
0003
0000
1000
0100
0010
0001
1000
0001
0100
0010
1000
0001
0010
0000
,
0100
1000
0100
0000
0010
0001
1000
0010
0100
0001
1000
0100
0010
0001
0010
0100
,
1000
0001
1000
0010
0100
0001
0100
0010
1000
0001
1000
0001
0010
0100
0010
0001
,
1000
0100
1000
0001
0100
0010
1000
0001
1000
0100
0010
0001
1000
0010
1000
0001
,
0010
0100
0010
0100
4000
0000
0004
0000
0000
0000
0000
0000
0000
0000
0000
0000
,
0000
0000
0000
0000
,
0000
0000
0000
0000
,
0000
0000
0000
0000
,
0000
0000
0000
0000
,
0000
0000
0000
0000
,
0000
0000
0000
0000
,
0000
0000
0000
0000
,
0000
0000
0000
0000
,
0000
0000
0000
0000
,
0000
0000
0000
0000
,
0000
0000
0000
0000
,
0000
0000
0000
0000
,
0000
0000
0000
0000
,
0000
0000
0000
0000
,
0000
0000
0000
0000
,
0000
0000
0000
0000
,
0000
0000
0000
0000
,
0000
0000
0000
0000
,
0000
0000
0000
0000
,
0000
0000
0000
0000
,
0000
0000
0000
0000
,
0000
0000
0000
0000
,
0000
0000
0000
0000
,
0000
0000
0000
0000
,
0000
0000
0000
0000
,
0000
0000
0000
0000
,
0000
0000
0000
0000
,
0000
0000
0000
0000
,
0000
0000
0000
0000
,
0000
0000
0000
0000
,
0000
0000
0000
0000
,
0000
0000
0000
0000
,
0000
0000
0000
0000
,
0000
0000
0000
0000
,
0000
0000
0000
0000
,
0000
0000
0000
0000
,
0000
0000
0000
0000
,
0000
0000
0000
0000
,
0000
0000
0000
0000
,
0000
0000
0000
0000
,
0000
0000
0000
0000
,
0000
0000
0000
0000
,
0000
0000
0000
0000
,
0000
0000
0000
0000
,
0000
0000
0000
0000
,
0000
0000
0000
0000
,
0000
0000
0000
0000
,
0000
0000
0000
0000
,
0000
0000
0000
0000
,
0000
0000
0000
0000
,
0000
0000
0000
0000
,
0000
0000
0000
0000
,
0000
0000
0000
0000
,
0000
0000
0000
0000
,
0000
0000
0000
0000
,
0000
0000
0000
0000
,
0000
0000
0000
0000
,
0000
0000
0000
0000
,
0000
0000
0000
0000
,
0000
0000
0000
0000
,
0000
0000
0000
0000
,
0000
0000
0000
0000
,
0000
0000
0000
0000
0000
3003
MMMM
0000
;
