#TITLE:Butterfly (acorn mix);
#SUBTITLE:;
#ARTIST:Squirel Push;
#TITLETRANSLIT:;
#SUBTITLETRANSLIT:;
#ARTISTTRANSLIT:;
#CREDIT:;
#BANNER:;
#BACKGROUND:squirel push0001.jpg;
#LYRICSPATH:;
#CDTITLE:;
#MUSIC:full_f098a9d39a81769a737114803668b963.mp3;
#OFFSET:0.000;
#SAMPLESTART:35.294;
#SAMPLELENGTH:12.000;
#SELECTABLE:YES;
#BPMS:0.000=170.000;
#STOPS:;
#BGCHANGES:0.000=squirel push0001.jpg=1.000=0=0=1,
99999=-nosongbg-=1.000=0=0=0 // don't automatically add -songbackground-
;
// cache tags:
#FIRSTBEAT:16.000;
#LASTBEAT:244.000;
#SONGFILENAME:Songs/toune 4/butterfly (acorn mix)/full_f098a9d39a81769a737114803668b963.sm;
#HASMUSIC:1;
#HASBANNER:0;
#MUSICLENGTH:87.006;
// end cache tags

//---------------dance-single - ----------------
#NOTES:
     dance-single:
     :
     Hard:
     1:
     0.629,0.561,0.690,0.000,0.000,323.000,60.000,0.000,0.000,0.000:
0000
0000
0000
0000
,
0000
0000
0000
0000
,
0000
0000
0000
0000
,
0000
0000
0000
0000
,
1000
1000
0001
0100
1000
0000
0010
0001
,
1000
0100
0010
0001
1000
0000
1001
0000
,
0010
0000
0010
0100
1000
0000
0010
1000
,
0001
0010
0100
1000
0001
0000
1001
0000
,
1000
1000
0001
0100
1000
0000
0010
0001
,
1000
0100
0010
0001
1000
0000
1001
0000
,
0010
0000
0010
0100
1000
0000
0100
0001
,
1000
0010
0100
0001
1000
0000
1001
0000
,
1000
1000
1100
1100
,
0001
0001
0101
0101
,
1001
1001
1001
1001
,
1000
0001
0100
0010
1000
0000
1001
0000
,
1000
1000
1100
1100
,
0001
0001
0101
0101
,
1001
1001
1001
1001
,
1000
0001
0100
0010
1000
0000
1001
0000
,
0000
0000
0000
0000
0000
0000
0010
0100
,
1000
0001
0010
1001
,
0010
0001
1000
0100
0001
0000
1001
0000
,
0010
1000
0001
0100
0010
1000
0001
0000
,
1000
0100
0010
0001
1000
0000
1001
0000
,
0010
0001
1000
0010
1000
0000
1001
0000
,
0010
0001
1000
0100
0001
0000
1001
0000
,
0010
0001
1000
0100
0010
0001
1000
0000
,
0001
0100
0010
1000
0001
0000
1001
0000
,
1000
1000
0001
0100
1000
0000
0010
0001
,
1000
0100
0010
0001
1000
0000
1001
0000
,
0010
0000
0010
0100
1000
0000
0010
1000
,
0001
0010
0100
1000
0001
0000
1001
0000
,
1000
1000
0001
0100
1000
0000
0010
0001
,
1000
0100
0010
0001
1000
0000
1001
0000
,
0010
0000
0010
0100
1000
0000
0100
0001
,
1000
0010
0100
0001
1000
0000
1001
0000
,
1000
1000
1100
1100
,
0001
0001
0101
0101
,
1001
1001
1001
1001
,
1000
0001
0100
0010
1000
0000
1001
0000
,
1000
1000
1100
1100
,
0001
0001
0101
0101
,
1001
1001
1001
1001
,
1000
0001
0100
0010
1000
0000
1001
0000
,
0001
1000
0001
0100
0010
0000
1001
0000
,
0010
1000
0001
0100
1000
0000
1001
0000
,
0010
0001
1000
0100
0001
1000
0001
0000
,
0001
0100
0010
1000
0001
0000
1001
0000
,
0010
1000
0001
0010
0001
0000
1001
0000
,
0010
1000
0001
0100
1000
0000
1001
0000
,
0010
1000
0001
0010
1000
0100
0001
0000
,
1000
0100
0010
0001
1000
0000
1001
0000
,
0001
0001
1000
0100
0001
0000
0010
1000
,
0001
0100
0010
1000
0001
0000
1001
0000
,
0010
0000
0010
0100
1000
0000
0001
0100
,
1000
0001
0010
0100
1000
0000
1001
0000
,
0001
0001
1000
0100
0001
0000
0010
1000
,
0001
0100
0010
1000
0001
0000
1001
0000
,
0010
0000
0010
0100
1000
0000
0001
0100
,
1000
0001
0010
0100
1000
0000
1001
0000
,
0010
0000
0000
0000
;

//---------------dance-single - ----------------
#NOTES:
     dance-single:
     :
     Easy:
     1:
     0.386,0.386,0.391,0.000,0.000,201.000,34.000,0.000,0.000,0.000:
0000
0000
0000
0000
,
0000
0000
0000
0000
,
0000
0000
0000
0000
,
0000
0000
0000
0000
,
0001
1000
0010
0110
,
0001
0010
1000
1001
,
0001
0001
1000
1000
,
0001
0100
1000
1001
,
0001
1000
0010
0110
,
0001
0010
1000
1001
,
0010
0010
0100
0100
,
0001
1000
1000
1001
,
0001
0000
0001
0000
,
1000
0000
1000
0000
,
0001
0010
0100
1000
,
0001
1000
0100
1001
,
0001
0000
0001
0000
,
0100
0000
0100
0000
,
0010
1000
0001
0100
,
1000
0010
0100
1001
,
0000
0000
0000
0000
,
0001
0000
1000
1001
,
0001
0000
1000
1001
,
0001
1000
1000
0010
,
0100
0001
1000
1001
,
1000
0000
0001
1001
,
1000
0000
0001
1001
,
0010
1000
0001
0010
,
0100
0001
1000
1001
,
0001
1000
0010
0110
,
0001
0010
1000
1001
,
0010
0010
1000
1000
,
0001
0100
1000
1001
,
0001
1000
0010
0110
,
0001
0010
1000
1001
,
0001
0001
0010
0010
,
0001
0100
1000
1001
,
0010
0000
0010
0000
,
1000
0000
1000
0000
,
0001
0100
1000
0010
,
0001
1000
0100
1001
,
1000
0000
1000
0000
,
0100
0000
0100
0010
,
0001
1000
0100
0001
,
1000
0100
1001
0001
,
0000
1000
1001
0001
,
0000
0001
1001
1000
,
0000
0001
0001
0100
,
0010
0001
1000
1001
,
0001
0000
0001
1001
,
1000
0000
0001
1001
,
1000
0001
0100
1000
,
0100
0001
1000
1001
,
0001
1000
0010
0110
,
0001
0100
1000
1001
,
0001
0100
0010
1000
,
0001
1000
0100
1001
,
0001
1000
0010
0110
,
0001
1000
0100
1001
,
0001
1000
0010
1000
,
0001
0100
1000
1001
,
0010
0000
0000
0000
;
