#TITLE:Cold Breath;
#SUBTITLE:;
#ARTIST:Shiki;
#TITLETRANSLIT:;
#SUBTITLETRANSLIT:;
#ARTISTTRANSLIT:;
#CREDIT:;
#BANNER:Cold Breath.bn.PNG;
#BACKGROUND:Cold Breath.bg.PNG;
#LYRICSPATH:;
#CDTITLE:;
#MUSIC:Cold Breath.mp3;
#OFFSET:-0.040;
#SAMPLESTART:50.000;
#SAMPLELENGTH:12.000;
#SELECTABLE:YES;
#BPMS:0.000=200.000,400.000=180.000,416.000=170.000,424.000=160.000,428.000=150.000,432.000=140.000;
#STOPS:;
#BGCHANGES:;
// cache tags:
#FIRSTBEAT:4.000;
#LASTBEAT:432.000;
#SONGFILENAME:Songs/IzzySM Keyboard Mega Pack/Cold Breath/Cold Breath.sm;
#HASMUSIC:1;
#HASBANNER:1;
#MUSICLENGTH:135.248;
// end cache tags

//---------------dance-single - ----------------
#NOTES:
     dance-single:
     :
     Challenge:
     12:
     1.000,1.000,0.799,0.044,0.917,903.000,108.000,6.000,0.000,0.000:  // measure 1
0000
0000
0000
0000
,  // measure 2
0001
0000
0000
1000
0000
1000
0100
0010
,  // measure 3
0001
0001
0010
0100
,  // measure 4
0100
0000
0000
1000
1000
0000
0000
0000
,  // measure 5
0000
0000
0000
1000
0000
0100
0000
1000
,  // measure 6
0010
0000
0000
0001
0001
0000
0000
0000
,  // measure 7
0000
0000
0000
1000
0000
0100
0000
1000
,  // measure 8
0100
0000
0000
0010
0010
0000
0000
0000
,  // measure 9
0001
0000
0000
0010
0010
0000
0000
0000
,  // measure 10
1000
0100
0010
0000
0001
0000
0001
0010
0000
0000
1000
0100
0010
0001
0010
0100
,  // measure 11
1000
0001
1000
0000
0100
0000
0100
0001
0000
0000
0100
0001
1000
0010
1000
0001
,  // measure 12
0010
0100
0001
0000
1000
0000
1000
0001
0000
0000
0010
1000
0001
0100
0010
1000
,  // measure 13
0001
0100
0010
0000
0100
0000
0100
1000
0000
0000
0010
0100
0001
1000
0100
0001
,  // measure 14
1000
0010
0100
0000
0001
0000
0001
0010
0000
0000
1000
0010
0100
1000
0010
0001
,  // measure 15
0010
0100
1000
0000
0010
0000
0010
0100
0000
0000
1000
0100
0010
0100
0010
0001
,  // measure 16
0100
0010
1000
0000
0001
0000
0001
1000
0000
0000
0100
0010
0100
0010
0100
1000
,  // measure 17
0011
1000
0100
0000
1010
0000
1000
0100
0010
0000
1000
0001
1010
0100
0010
1000
,  // measure 18
0110
1000
0110
0001
0110
1000
0110
0001
,  // measure 19
1100
0010
1100
0001
1100
0010
1100
0001
,  // measure 20
1001
0100
1001
0010
1001
0100
1001
0010
,  // measure 21
1010
0100
1010
0001
1010
0100
1010
0001
,  // measure 22
0101
0010
0101
1000
0101
0010
0101
1000
,  // measure 23
0011
1000
0011
0100
0011
1000
0011
0100
,  // measure 24
0011
0010
0110
0100
1100
0100
0110
0010
,  // measure 25
0011
1010
0010
0011
0010
1010
0010
0011
,  // measure 26
1001
0100
0010
0001
0100
0010
1000
0100
0001
0010
1000
0010
0100
0001
0010
1000
,  // measure 27
0100
0001
0010
0100
1000
0010
0100
1000
0001
0010
0100
0010
1000
0001
0100
0010
,  // measure 28
0001
0010
0100
1000
0010
0100
0001
0010
1000
0100
0001
0100
0010
1000
0100
0001
,  // measure 29
0010
1000
0100
0010
0001
0100
0010
0001
1000
0100
0010
0100
0001
1000
0010
0100
,  // measure 30
0010
1000
0001
0100
1000
0001
0010
1000
0100
0001
0010
0001
1000
0100
0001
0010
,  // measure 31
1000
0100
0001
1000
0010
0001
1000
0010
0100
0001
1000
0001
0010
0100
1000
0001
,  // measure 32
0010
0100
0010
0001
0100
0010
1000
0100
0001
0010
1000
0010
0100
0001
0010
0100
,  // measure 33
1001
0100
0010
0100
1001
0010
1000
0100
1001
0100
0001
0010
1001
0000
0001
0010
,  // measure 34
1001
1000
1000
1000
1000
1000
1000
1000
,  // measure 35
1000
1000
0100
0100
0010
0001
0000
0001
,  // measure 36
0100
0100
0100
0100
0100
0100
0000
0020
,  // measure 37
0000
0000
0000
0000
0000
0030
1000
0100
,  // measure 38
0010
0010
0010
0010
0010
0010
0000
0100
,  // measure 39
0100
0100
0100
0100
0000
0100
1000
0010
,  // measure 40
0002
0000
0000
0000
0000
0003
0010
0100
,  // measure 41
1001
0000
0101
0000
0011
1000
0001
0000
,  // measure 42
1001
0100
0010
1000
0010
0001
0100
0010
1000
0001
0100
0010
1000
0100
0010
0100
,  // measure 43
0010
0001
0100
0010
1000
0100
0001
0010
0100
0010
1000
0001
0100
0010
0100
1000
,  // measure 44
0010
0100
0001
0010
0100
1000
0010
0100
1000
0100
1000
0010
1000
0100
0001
0100
,  // measure 45
0010
0001
1000
0100
0010
0100
0010
0001
0100
0010
1000
0100
0010
0001
0100
0010
,  // measure 46
1000
0001
0100
0010
1000
0100
0001
0010
0100
0010
0100
0010
0001
0100
1000
0100
,  // measure 47
0010
0100
0001
0100
0010
1000
0100
1000
0001
0010
0100
0001
0010
0100
0010
1000
,  // measure 48
0100
1000
0001
0010
0001
0100
0010
0100
1000
0010
1000
0100
0001
0100
0010
1000
,  // measure 49
0001
0100
0010
1000
0001
0100
0010
1000
0100
0010
0001
0010
0100
0010
0001
0010
,  // measure 50
1001
0100
0010
1001
0000
1000
0100
0010
,  // measure 51
0001
0001
0010
0100
,  // measure 52
1100
0010
0001
1100
1000
0000
0000
0000
,  // measure 53
0000
0000
0000
1000
0000
0100
0000
1000
,  // measure 54
0011
0100
1000
0011
0001
0000
0000
0000
,  // measure 55
0000
0000
0000
1000
0000
0100
0000
1000
,  // measure 56
0110
0001
1000
0110
0010
0000
0000
0000
,  // measure 57
0011
1000
0100
0011
0010
0000
0000
0000
,  // measure 58
1001
0100
0010
1001
0000
1000
0100
0010
,  // measure 59
0001
0001
0010
0100
,  // measure 60
1100
0010
0001
1100
1000
0000
0000
0000
,  // measure 61
0000
0000
0000
1000
0000
0100
0000
1000
,  // measure 62
0011
0100
1000
0011
0001
0000
0000
0000
,  // measure 63
0000
0000
0000
1000
0000
0100
0000
1000
,  // measure 64
0110
0001
1000
0110
0010
0000
0000
0000
,  // measure 65
0011
1000
0100
0011
0010
0000
0000
0000
,  // measure 66
1000
0100
1000
0000
0100
0000
0100
0010
0000
0000
0001
0010
0001
0010
1001
0110
,  // measure 67
1001
1000
1000
1000
1000
1000
1000
1000
,  // measure 68
1000
1000
0100
0100
0010
0001
0000
0001
,  // measure 69
0100
0100
0100
0100
0100
0100
0000
0020
,  // measure 70
0000
0000
0000
0000
0000
0030
1000
0100
,  // measure 71
0010
0010
0010
0010
0010
0010
0000
0100
,  // measure 72
0100
0100
0100
0100
0000
0100
1000
0010
,  // measure 73
0002
0000
0000
0000
0000
0003
0010
0100
,  // measure 74
1001
0000
0000
0000
0101
0000
0000
0000
0011
0000
1000
0000
0001
0000
0010
0100
,  // measure 75
1001
1000
1000
1000
1000
1000
1000
1000
,  // measure 76
1000
1000
0100
0100
0010
0001
0000
0001
,  // measure 77
0100
0100
0100
0100
0100
0100
0000
0020
,  // measure 78
0000
0000
0000
0000
0000
0030
1000
0100
,  // measure 79
0010
0010
0010
0010
0010
0010
0000
0100
,  // measure 80
0100
0100
0100
0100
0000
0100
1000
0010
,  // measure 81
0002
0000
0000
0000
0000
0003
0010
0100
,  // measure 82
1000
0000
0001
0000
0010
1000
0000
0000
,  // measure 83
1001
0100
1000
0000
0100
0000
0100
0010
0000
0000
0001
0010
0001
0010
1001
0110
,  // measure 84
1001
0010
0001
0010
0001
1010
0001
0110
,  // measure 85
1001
0000
0100
0000
1000
0000
0110
0000
1000
0000
0101
0000
1000
0000
1001
0100
,  // measure 86
1010
0100
0001
0100
0010
1010
0001
1100
,  // measure 87
0011
0000
0100
0000
1000
0000
0110
0000
0010
0000
1100
0000
0001
0000
1001
0100
,  // measure 88
0011
0100
1000
0001
0100
0010
0100
0010
,  // measure 89
1001
0101
0011
0101
,  // measure 90
1001
0010
0001
0010
0001
1010
0001
1100
,  // measure 91
0110
0000
0010
0000
1000
0000
0101
0000
1000
0000
0010
0000
0100
0000
1000
0100
,  // measure 92
1001
0010
0100
1000
0001
0010
0100
0010
0001
1000
0100
0010
0100
1000
0100
0010
,  // measure 93
0001
0010
0100
0010
0001
1000
0001
0100
0001
0010
0001
1000
0100
1000
0010
0100
,  // measure 94
1000
0100
0010
0001
1000
0100
0010
0100
1000
0001
0010
0100
0010
0001
0010
0100
,  // measure 95
1000
0100
0010
0100
1000
0001
1000
0010
1000
0100
1000
0001
0010
0001
0100
0001
,  // measure 96
0010
0001
1000
0010
0100
0001
1000
0001
0100
0010
1000
0001
1000
0010
1000
0001
,  // measure 97
1100
0001
1000
0001
1100
0010
0100
0010
1100
0001
0100
0010
1100
0010
0001
0010
,  // measure 98
1100
0001
0100
0010
1000
0001
1000
0010
0100
0001
1000
0001
0100
0001
1000
0010
,  // measure 99
1000
0000
0000
0100
0000
0000
1000
0000
0000
0100
0000
0000
1000
0000
0000
0100
0000
0000
1000
0000
0000
0100
0000
0000
1000
0000
0000
0100
0000
0000
0010
0000
0100
0000
1000
0000
0001
0000
0010
0000
0100
0000
0010
0000
0100
0000
1000
0000
,  // measure 100
0110
0000
0000
0000
,  // measure 101
0001
0000
0000
1000
0000
1000
0100
0010
,  // measure 102
0001
0001
0010
0100
,  // measure 103
0100
0000
0000
1000
1000
0000
0000
0000
,  // measure 104
0000
0000
0000
1000
0000
0100
0000
1000
,  // measure 105
0010
0000
0000
0001
0001
0000
0000
0000
,  // measure 106
0000
0000
0000
1000
0000
0100
0000
1000
,  // measure 107
0100
0000
0000
0010
0010
0000
0000
0000
,  // measure 108
0001
0000
0000
0010
0010
0000
0000
0000
,  // measure 109
1100
0000
0000
0000
;

//---------------dance-single - ----------------
#NOTES:
     dance-single:
     :
     Hard:
     11:
     0.901,1.000,1.000,0.059,0.218,692.000,153.000,8.000,0.000,0.000:  // measure 1
0000
0000
0000
0000
,  // measure 2
0001
0000
0000
1000
0000
1000
0100
0010
,  // measure 3
0001
0001
0010
0100
,  // measure 4
0100
0000
0000
1000
1000
0000
0000
0000
,  // measure 5
0000
0000
0000
1000
0000
0100
0000
1000
,  // measure 6
0010
0000
0000
0001
0001
0000
0000
0000
,  // measure 7
0000
0000
0000
1000
0000
0100
0000
1000
,  // measure 8
0100
0000
0000
0010
0010
0000
0000
0000
,  // measure 9
0001
0000
0000
0010
0010
0000
0000
0000
,  // measure 10
1000
0100
0010
0000
0001
0000
0001
0010
0000
0000
1000
0100
0010
0001
0010
0100
,  // measure 11
1000
0001
1000
0000
0100
0000
0100
0001
0000
0000
0100
0001
1000
0010
1000
0001
,  // measure 12
0010
0100
0001
0000
1000
0000
1000
0001
0000
0000
0010
1000
0001
0100
0010
1000
,  // measure 13
0001
0100
0010
0000
0100
0000
0100
1000
0000
0000
0010
0100
0001
1000
0100
0001
,  // measure 14
1000
0010
0100
0000
0001
0000
0001
0010
0000
0000
1000
0010
0100
1000
0010
0001
,  // measure 15
0010
0100
1000
0000
0010
0000
0010
0100
0000
0000
1000
0100
0010
0100
0010
0001
,  // measure 16
0100
0010
1000
0000
0001
0000
0001
1000
0000
0000
0100
0010
0100
0010
0100
1000
,  // measure 17
0011
1000
0100
0000
1010
0000
1000
0100
0010
0000
1000
0001
1010
0100
0010
1000
,  // measure 18
0110
1000
0110
0001
0110
1000
0110
0001
,  // measure 19
1100
0010
1100
0001
1100
0010
1100
0001
,  // measure 20
1001
0100
1001
0010
1001
0100
1001
0010
,  // measure 21
1010
0100
1010
0001
1010
0100
1010
0001
,  // measure 22
0101
0010
0101
1000
0101
0010
0101
1000
,  // measure 23
0011
1000
0011
0100
0011
1000
0011
0100
,  // measure 24
0011
0010
0110
0100
1100
0100
0110
0010
,  // measure 25
0011
1010
0010
0011
0010
1010
0010
0011
,  // measure 26
1001
0010
0110
1000
0101
1000
0110
0010
,  // measure 27
1100
0010
1001
0100
0101
0100
1010
0100
,  // measure 28
1001
0100
1010
0001
1100
0001
0110
0100
,  // measure 29
0011
0100
1001
0010
1100
0010
0101
0010
,  // measure 30
1010
0001
1100
0010
0110
0010
1010
0001
,  // measure 31
1010
0001
0110
1000
0101
1000
0011
1000
,  // measure 32
0110
0010
1100
1000
0011
1000
0110
0010
,  // measure 33
1001
0000
0010
0000
1001
0000
0100
0000
1001
0000
0101
0000
1001
0000
0101
0010
,  // measure 34
1001
1000
1000
1000
1000
1000
1000
1000
,  // measure 35
1000
1000
0100
0100
0010
0001
0000
0001
,  // measure 36
0100
0100
0100
0100
0100
0100
0000
0020
,  // measure 37
0000
0000
0000
0000
0000
0030
1000
0100
,  // measure 38
0010
0010
0010
0010
0010
0010
0000
0100
,  // measure 39
0100
0100
0100
0100
0000
0100
1000
0010
,  // measure 40
0002
0000
0000
0000
0000
0003
0010
0100
,  // measure 41
1001
0000
0000
0000
0101
0000
0000
0000
0011
0000
1000
0000
0001
0000
0010
0100
,  // measure 42
1001
1000
1000
1000
1000
1000
1000
1000
,  // measure 43
1000
1000
0100
0100
0010
0001
0000
0001
,  // measure 44
0100
0100
0100
0100
0100
0100
0000
0020
,  // measure 45
0000
0000
0000
0000
0000
0030
1000
0100
,  // measure 46
0010
0010
0010
0010
0010
0010
0000
0100
,  // measure 47
0100
0100
0100
0100
0000
0100
1000
0010
,  // measure 48
0002
0000
0000
0000
0000
0003
0010
0100
,  // measure 49
1000
0000
0001
0000
0010
1000
0000
0000
,  // measure 50
1000
0100
0010
1001
0000
1000
0100
0010
,  // measure 51
0001
0001
0010
0100
,  // measure 52
1100
0010
0001
1100
1000
0000
0000
0000
,  // measure 53
0000
0000
0000
1000
0000
0100
0000
1000
,  // measure 54
0011
0100
1000
0011
0001
0000
0000
0000
,  // measure 55
0000
0000
0000
1000
0000
0100
0000
1000
,  // measure 56
0110
0001
1000
0110
0010
0000
0000
0000
,  // measure 57
0011
1000
0100
0011
0010
0000
0000
0000
,  // measure 58
1001
0100
0010
1001
0000
1000
0100
0010
,  // measure 59
0001
0001
0010
0100
,  // measure 60
1100
0010
0001
1100
1000
0000
0000
0000
,  // measure 61
0000
0000
0000
1000
0000
0100
0000
1000
,  // measure 62
0011
0100
1000
0011
0001
0000
0000
0000
,  // measure 63
0000
0000
0000
1000
0000
0100
0000
1000
,  // measure 64
0110
0001
1000
0110
0010
0000
0000
0000
,  // measure 65
0011
1000
0100
0011
0010
0000
0000
0000
,  // measure 66
1000
0100
1000
0000
0100
0000
0100
0010
0000
0000
0001
0010
0001
0010
1001
0110
,  // measure 67
1001
1000
1000
1000
1000
1000
1000
1000
,  // measure 68
1000
1000
0100
0100
0010
0001
0000
0001
,  // measure 69
0100
0100
0100
0100
0100
0100
0000
0020
,  // measure 70
0000
0000
0000
0000
0000
0030
1000
0100
,  // measure 71
0010
0010
0010
0010
0010
0010
0000
0100
,  // measure 72
0100
0100
0100
0100
0000
0100
1000
0010
,  // measure 73
0002
0000
0000
0000
0000
0003
0010
0100
,  // measure 74
1001
0000
0000
0000
0101
0000
0000
0000
0011
0000
1000
0000
0001
0000
0010
0100
,  // measure 75
1001
1000
1000
1000
1000
1000
1000
1000
,  // measure 76
1000
1000
0100
0100
0010
0001
0000
0001
,  // measure 77
0100
0100
0100
0100
0100
0100
0000
0020
,  // measure 78
0000
0000
0000
0000
0000
0030
1000
0100
,  // measure 79
0010
0010
0010
0010
0010
0010
0000
0100
,  // measure 80
0100
0100
0100
0100
0000
0100
1000
0010
,  // measure 81
0002
0000
0000
0000
0000
0003
0010
0100
,  // measure 82
1000
0000
0001
0000
0010
1000
0000
0000
,  // measure 83
1001
0100
1000
0000
0100
0000
0100
0010
0000
0000
0001
0010
0001
0010
1001
0110
,  // measure 84
1001
0010
0001
0010
0001
1010
0001
0110
,  // measure 85
1001
0000
0100
0000
1000
0000
0110
0000
1000
0000
0101
0000
1000
0000
1001
0100
,  // measure 86
1010
0100
0001
0100
0010
1010
0001
1100
,  // measure 87
0011
0000
0100
0000
1000
0000
0110
0000
0010
0000
1100
0000
0001
0000
1001
0100
,  // measure 88
0011
0100
1000
0001
0100
0010
0100
0010
,  // measure 89
1001
0101
0011
0101
,  // measure 90
1001
0010
0001
0010
0001
1010
0001
1100
,  // measure 91
0110
0000
0010
0000
1000
0000
0101
0000
1000
0000
0010
0000
0100
0000
0001
0010
,  // measure 92
1000
0100
1000
0100
1000
0101
1000
0110
,  // measure 93
1001
0000
0010
0000
0001
0000
0110
0000
0001
0000
1010
0000
0001
0000
1001
0010
,  // measure 94
0101
0010
1000
0010
0100
0101
1000
0011
,  // measure 95
1100
0000
0010
0000
0001
0000
0110
0000
0100
0000
0011
0000
1000
0000
1001
0010
,  // measure 96
1100
0010
0001
1000
0010
0100
0010
0100
,  // measure 97
1001
1010
1100
1010
,  // measure 98
1001
0100
1000
0100
1000
0101
1000
0011
,  // measure 99
0110
0000
0100
0000
0001
0000
1010
0000
0001
0000
0100
0000
0010
0000
0001
0010
,  // measure 100
1001
0000
0000
0000
,  // measure 101
0001
0000
0000
1000
0000
1000
0100
0010
,  // measure 102
0001
0001
0010
0100
,  // measure 103
0100
0000
0000
1000
1000
0000
0000
0000
,  // measure 104
0000
0000
0000
1000
0000
0100
0000
1000
,  // measure 105
0010
0000
0000
0001
0001
0000
0000
0000
,  // measure 106
0000
0000
0000
1000
0000
0100
0000
1000
,  // measure 107
0100
0000
0000
0010
0010
0000
0000
0000
,  // measure 108
0001
0000
0000
0010
0010
0000
0000
0000
,  // measure 109
1100
0000
0000
0000
;

//---------------dance-single - ----------------
#NOTES:
     dance-single:
     :
     Medium:
     10:
     0.799,1.000,0.850,0.059,0.041,633.000,115.000,8.000,0.000,0.000:  // measure 1
0000
0000
0000
0000
,  // measure 2
0001
0000
0000
1000
0000
1000
0100
0010
,  // measure 3
0001
0001
0010
0100
,  // measure 4
0100
0000
0000
1000
1000
0000
0000
0000
,  // measure 5
0000
0000
0000
1000
0000
0100
0000
1000
,  // measure 6
0010
0000
0000
0001
0001
0000
0000
0000
,  // measure 7
0000
0000
0000
1000
0000
0100
0000
1000
,  // measure 8
0100
0000
0000
0010
0010
0000
0000
0000
,  // measure 9
0001
0000
0000
0010
0010
0000
0000
0000
,  // measure 10
1000
0010
0001
0001
0000
1000
0010
0010
,  // measure 11
1000
1000
0100
0001
0000
0100
1000
1000
,  // measure 12
0010
0001
1000
0100
0000
0010
0001
0010
,  // measure 13
0001
0010
0100
1000
0000
0010
0001
0100
,  // measure 14
1000
0100
0001
0100
0000
1000
0100
0010
,  // measure 15
0001
1000
0010
0100
0000
1000
0010
0001
,  // measure 16
0100
1000
0001
1000
0000
0100
0100
0100
,  // measure 17
0011
0100
1010
1000
0010
1000
1010
0010
,  // measure 18
0110
1000
0110
0001
0110
1000
0110
0001
,  // measure 19
1100
0010
1100
0001
1100
0010
1100
0001
,  // measure 20
1001
0100
1001
0010
1001
0100
1001
0010
,  // measure 21
1010
0100
1010
0001
1010
0100
1010
0001
,  // measure 22
0101
0010
0101
1000
0101
0010
0101
1000
,  // measure 23
0011
1000
0011
0100
0011
1000
0011
0100
,  // measure 24
0011
0010
0010
0100
0100
0100
0100
0010
,  // measure 25
0010
0010
0010
0010
0010
0010
0010
0010
,  // measure 26
1001
0010
0010
1000
0001
1000
0100
0010
,  // measure 27
1100
0010
0001
0100
0001
0100
0010
0100
,  // measure 28
1010
0100
0010
0001
1000
0001
0010
0100
,  // measure 29
1001
0100
0001
0010
1000
0010
0100
0010
,  // measure 30
1100
0001
1000
0010
0100
0010
1000
0001
,  // measure 31
1010
0001
0010
1000
0100
1000
0001
1000
,  // measure 32
0010
0010
1000
1000
0001
1000
0100
0010
,  // measure 33
1001
0000
0010
0000
1001
0000
0100
0000
1001
0000
0100
0000
1001
0000
0001
0010
,  // measure 34
1001
1000
1000
1000
1000
1000
1000
1000
,  // measure 35
1000
1000
0100
0100
0010
0001
0000
0001
,  // measure 36
0100
0100
0100
0100
0100
0100
0000
0020
,  // measure 37
0000
0000
0000
0000
0000
0030
1000
0100
,  // measure 38
0010
0010
0010
0010
0010
0010
0000
0100
,  // measure 39
0100
0100
0100
0100
0000
0100
1000
0010
,  // measure 40
0002
0000
0000
0000
0000
0003
0010
0100
,  // measure 41
1001
0000
0000
0000
0101
0000
0000
0000
0011
0000
1000
0000
0001
0000
0010
0100
,  // measure 42
1001
1000
1000
1000
1000
1000
1000
1000
,  // measure 43
1000
1000
0100
0100
0010
0001
0000
0001
,  // measure 44
0100
0100
0100
0100
0100
0100
0000
0020
,  // measure 45
0000
0000
0000
0000
0000
0030
1000
0100
,  // measure 46
0010
0010
0010
0010
0010
0010
0000
0100
,  // measure 47
0100
0100
0100
0100
0000
0100
1000
0010
,  // measure 48
0002
0000
0000
0000
0000
0003
0010
0100
,  // measure 49
1000
0000
0001
0000
0010
1000
0000
0000
,  // measure 50
1000
0100
0010
1001
0000
1000
0100
0010
,  // measure 51
0001
0001
0010
0100
,  // measure 52
1100
0010
0001
1100
1000
0000
0000
0000
,  // measure 53
0000
0000
0000
1000
0000
0100
0000
1000
,  // measure 54
0011
0100
1000
0011
0001
0000
0000
0000
,  // measure 55
0000
0000
0000
1000
0000
0100
0000
1000
,  // measure 56
0110
0001
1000
0110
0010
0000
0000
0000
,  // measure 57
0011
1000
0100
0011
0010
0000
0000
0000
,  // measure 58
1001
0100
0010
1001
0000
1000
0100
0010
,  // measure 59
0001
0001
0010
0100
,  // measure 60
1100
0010
0001
1100
1000
0000
0000
0000
,  // measure 61
0000
0000
0000
1000
0000
0100
0000
1000
,  // measure 62
0011
0100
1000
0011
0001
0000
0000
0000
,  // measure 63
0000
0000
0000
1000
0000
0100
0000
1000
,  // measure 64
0110
0001
1000
0110
0010
0000
0000
0000
,  // measure 65
0011
1000
0100
0011
0010
0000
0000
0000
,  // measure 66
0000
0000
0000
0000
0000
0000
0000
0000
0000
0000
0000
0000
0000
0000
0001
0100
,  // measure 67
1000
1000
1000
1000
1000
1000
1000
1000
,  // measure 68
1000
1000
0100
0100
0010
0001
0000
0001
,  // measure 69
0100
0100
0100
0100
0100
0100
0000
0020
,  // measure 70
0000
0000
0000
0000
0000
0030
1000
0100
,  // measure 71
0010
0010
0010
0010
0010
0010
0000
0100
,  // measure 72
0100
0100
0100
0100
0000
0100
1000
0010
,  // measure 73
0002
0000
0000
0000
0000
0003
0010
0100
,  // measure 74
1001
0000
0000
0000
0101
0000
0000
0000
0011
0000
1000
0000
0001
0000
0010
0100
,  // measure 75
1001
1000
1000
1000
1000
1000
1000
1000
,  // measure 76
1000
1000
0100
0100
0010
0001
0000
0001
,  // measure 77
0100
0100
0100
0100
0100
0100
0000
0020
,  // measure 78
0000
0000
0000
0000
0000
0030
1000
0100
,  // measure 79
0010
0010
0010
0010
0010
0010
0000
0100
,  // measure 80
0100
0100
0100
0100
0000
0100
1000
0010
,  // measure 81
0002
0000
0000
0000
0000
0003
0010
0100
,  // measure 82
1000
0000
0001
0000
0010
1000
0000
0000
,  // measure 83
1001
0000
0000
0000
0000
0000
0000
0000
0000
0000
0000
0000
0000
0000
1000
0100
,  // measure 84
0001
0010
0001
0010
0001
1010
0001
0110
,  // measure 85
1001
0000
0100
0000
1000
0000
0110
0000
1000
0000
0101
0000
1000
0000
1001
0100
,  // measure 86
1010
0100
0001
0100
0010
1010
0001
1100
,  // measure 87
0011
0000
0100
0000
1000
0000
0110
0000
0010
0000
1100
0000
0001
0000
1001
0100
,  // measure 88
0011
0100
1000
0001
0100
0010
0100
0010
,  // measure 89
1001
0101
0011
0101
,  // measure 90
1001
0010
0001
0010
0001
1010
0001
1100
,  // measure 91
0110
0000
0010
0000
1000
0000
0101
0000
1000
0000
0010
0000
0100
0000
0001
0010
,  // measure 92
1000
0100
1000
0100
1000
0101
1000
0110
,  // measure 93
1001
0000
0010
0000
0001
0000
0110
0000
0001
0000
1010
0000
0001
0000
1001
0010
,  // measure 94
0101
0010
1000
0010
0100
0101
1000
0011
,  // measure 95
1100
0000
0010
0000
0001
0000
0110
0000
0100
0000
0011
0000
1000
0000
1001
0010
,  // measure 96
1100
0010
0001
1000
0010
0100
0010
0100
,  // measure 97
1001
1010
1100
1010
,  // measure 98
1001
0100
1000
0100
1000
0101
1000
0011
,  // measure 99
0110
0000
0100
0000
0001
0000
1010
0000
0001
0000
0100
0000
0010
0000
0001
0010
,  // measure 100
1001
0000
0000
0000
,  // measure 101
0001
0000
0000
1000
0000
1000
0100
0010
,  // measure 102
0001
0001
0010
0100
,  // measure 103
0100
0000
0000
1000
1000
0000
0000
0000
,  // measure 104
0000
0000
0000
1000
0000
0100
0000
1000
,  // measure 105
0010
0000
0000
0001
0001
0000
0000
0000
,  // measure 106
0000
0000
0000
1000
0000
0100
0000
1000
,  // measure 107
0100
0000
0000
0010
0010
0000
0000
0000
,  // measure 108
0001
0000
0000
0010
0010
0000
0000
0000
,  // measure 109
1100
0000
0000
0000
;

//---------------dance-single - ----------------
#NOTES:
     dance-single:
     :
     Easy:
     8:
     0.636,1.000,0.532,0.177,0.041,506.000,72.000,24.000,0.000,0.000:  // measure 1
0000
0000
0000
0000
,  // measure 2
0001
0000
0000
1000
0000
1000
0100
0010
,  // measure 3
0001
0001
0010
0100
,  // measure 4
0100
0000
0000
1000
1000
0000
0000
0000
,  // measure 5
0000
0000
0000
1000
0000
0100
0000
1000
,  // measure 6
0010
0000
0000
0001
0001
0000
0000
0000
,  // measure 7
0000
0000
0000
1000
0000
0100
0000
1000
,  // measure 8
0100
0000
0000
0010
0010
0000
0000
0000
,  // measure 9
0001
0000
0000
0010
0010
0000
0000
0000
,  // measure 10
1000
0010
0001
0001
0000
1000
0010
0010
,  // measure 11
1000
1000
0100
0001
0000
0100
1000
1000
,  // measure 12
0010
0001
1000
0100
0000
0010
0001
0010
,  // measure 13
0001
0010
0100
1000
0000
0010
0001
0100
,  // measure 14
1000
0100
0001
0100
0000
1000
0100
0010
,  // measure 15
0001
1000
0010
0100
0000
1000
0010
0001
,  // measure 16
0100
1000
0001
1000
0000
0100
0100
0100
,  // measure 17
0011
0100
1010
1000
0010
1000
1010
0010
,  // measure 18
0100
1000
0010
0001
0010
1000
0010
0001
,  // measure 19
0100
0010
1000
0001
0100
0010
0100
0001
,  // measure 20
1000
0100
1000
0010
1000
0100
1000
0010
,  // measure 21
1000
0100
1000
0001
1000
0100
1000
0001
,  // measure 22
0001
0010
0001
1000
0001
0010
0001
1000
,  // measure 23
0010
1000
0010
0100
0010
1000
0010
0100
,  // measure 24
0010
0010
0010
0100
0100
0100
0100
0010
,  // measure 25
0010
0010
0010
0010
0010
0010
0010
0010
,  // measure 26
1001
0010
0010
1000
0001
1000
0100
0010
,  // measure 27
1100
0010
0001
0100
0001
0100
0010
0100
,  // measure 28
1010
0100
0010
0001
1000
0001
0010
0100
,  // measure 29
1001
0100
0001
0010
1000
0010
0100
0010
,  // measure 30
1100
0001
1000
0010
0100
0010
1000
0001
,  // measure 31
1010
0001
0010
1000
0100
1000
0001
1000
,  // measure 32
0010
0010
1000
1000
0001
1000
0100
0010
,  // measure 33
1001
0000
0010
0000
1001
0000
0100
0000
1001
0000
0100
0000
1001
0000
0001
0010
,  // measure 34
2001
0000
0000
0000
,  // measure 35
0000
0000
3100
0100
0010
0001
0000
0001
,  // measure 36
0200
0000
0000
0000
0000
0300
0000
0020
,  // measure 37
0000
0000
0000
0000
0000
0030
1000
0100
,  // measure 38
0020
0000
0000
0000
0000
0030
0000
0200
,  // measure 39
0000
0000
0000
0300
0000
0100
1000
0010
,  // measure 40
0002
0000
0000
0000
0000
0003
0010
0100
,  // measure 41
1001
0000
0000
0000
0101
0000
0000
0000
0011
0000
1000
0000
0001
0000
0010
0100
,  // measure 42
2001
0000
0000
0000
,  // measure 43
0000
0000
3100
0100
0010
0001
0000
0001
,  // measure 44
0200
0000
0000
0000
0000
0300
0000
0020
,  // measure 45
0000
0000
0000
0000
0000
0030
1000
0100
,  // measure 46
0020
0000
0000
0000
0000
0030
0000
0200
,  // measure 47
0000
0000
0000
0300
0000
0100
1000
0010
,  // measure 48
0002
0000
0000
0000
0000
0003
0010
0100
,  // measure 49
1000
0000
0001
0000
0010
1000
0000
0000
,  // measure 50
1000
0100
0010
1001
0000
1000
0100
0010
,  // measure 51
0001
0001
0010
0100
,  // measure 52
1100
0010
0001
1100
1000
0000
0000
0000
,  // measure 53
0000
0000
0000
1000
0000
0100
0000
1000
,  // measure 54
0011
0100
1000
0011
0001
0000
0000
0000
,  // measure 55
0000
0000
0000
1000
0000
0100
0000
1000
,  // measure 56
0110
0001
1000
0110
0010
0000
0000
0000
,  // measure 57
0011
1000
0100
0011
0010
0000
0000
0000
,  // measure 58
1001
0100
0010
1001
0000
1000
0100
0010
,  // measure 59
0001
0001
0010
0100
,  // measure 60
1100
0010
0001
1100
1000
0000
0000
0000
,  // measure 61
0000
0000
0000
1000
0000
0100
0000
1000
,  // measure 62
0011
0100
1000
0011
0001
0000
0000
0000
,  // measure 63
0000
0000
0000
1000
0000
0100
0000
1000
,  // measure 64
0110
0001
1000
0110
0010
0000
0000
0000
,  // measure 65
0011
1000
0100
0011
0010
0000
0000
0000
,  // measure 66
0000
0000
0000
0000
0000
0000
0000
0000
0000
0000
0000
0000
0000
0000
0001
0100
,  // measure 67
2000
0000
0000
0000
,  // measure 68
0000
0000
3100
0100
0010
0001
0000
0001
,  // measure 69
0200
0000
0000
0000
0000
0300
0000
0020
,  // measure 70
0000
0000
0000
0000
0000
0030
1000
0100
,  // measure 71
0020
0000
0000
0000
0000
0030
0000
0200
,  // measure 72
0000
0000
0000
0300
0000
0100
1000
0010
,  // measure 73
0002
0000
0000
0000
0000
0003
0010
0100
,  // measure 74
1001
0000
0000
0000
0101
0000
0000
0000
0011
0000
1000
0000
0001
0000
0010
0100
,  // measure 75
2001
0000
0000
0000
,  // measure 76
0000
0000
3100
0100
0010
0001
0000
0001
,  // measure 77
0200
0000
0000
0000
0000
0300
0000
0020
,  // measure 78
0000
0000
0000
0000
0000
0030
1000
0100
,  // measure 79
0020
0000
0000
0000
0000
0030
0000
0200
,  // measure 80
0000
0000
0000
0300
0000
0100
1000
0010
,  // measure 81
0002
0000
0000
0000
0000
0003
0010
0100
,  // measure 82
1000
0000
0001
0000
0010
1000
0000
0000
,  // measure 83
1001
0000
0000
0000
0000
0000
0000
0000
0000
0000
0000
0000
0000
0000
1000
0100
,  // measure 84
0001
0000
0000
0000
0000
1000
0000
0100
,  // measure 85
1000
0000
0000
0000
0000
0000
0010
0000
0000
0000
0001
0000
0000
0000
0001
0100
,  // measure 86
1000
0000
0000
0000
0000
0010
0000
1000
,  // measure 87
0001
0000
0000
0000
0000
0000
0010
0000
0000
0000
1000
0000
0000
0000
1000
0100
,  // measure 88
0010
0000
0000
0000
,  // measure 89
1001
0101
0011
0101
,  // measure 90
1001
0000
0000
0000
0000
1000
0000
0100
,  // measure 91
0010
0000
0000
0000
0000
0000
0001
0000
0000
0000
0000
0000
0000
0000
0001
0010
,  // measure 92
1000
0100
1000
0100
1000
0101
1000
0110
,  // measure 93
1001
0000
0010
0000
0001
0000
0110
0000
0001
0000
1010
0000
0001
0000
1001
0010
,  // measure 94
0101
0010
1000
0010
0100
0101
1000
0011
,  // measure 95
1100
0000
0010
0000
0001
0000
0110
0000
0100
0000
0011
0000
1000
0000
1001
0010
,  // measure 96
1100
0010
0001
1000
0010
0100
0010
0100
,  // measure 97
1001
1010
1100
1010
,  // measure 98
1001
0100
1000
0100
1000
0101
1000
0011
,  // measure 99
0110
0000
0100
0000
0001
0000
1010
0000
0001
0000
0100
0000
0010
0000
0001
0010
,  // measure 100
1001
0000
0000
0000
,  // measure 101
0001
0000
0000
1000
0000
1000
0100
0010
,  // measure 102
0001
0001
0010
0100
,  // measure 103
0100
0000
0000
1000
1000
0000
0000
0000
,  // measure 104
0000
0000
0000
1000
0000
0100
0000
1000
,  // measure 105
0010
0000
0000
0001
0001
0000
0000
0000
,  // measure 106
0000
0000
0000
1000
0000
0100
0000
1000
,  // measure 107
0100
0000
0000
0010
0010
0000
0000
0000
,  // measure 108
0001
0000
0000
0010
0010
0000
0000
0000
,  // measure 109
1100
0000
0000
0000
;
