#TITLE:Key of timepieces;
#SUBTITLE:;
#ARTIST:Camellia;
#TITLETRANSLIT:;
#SUBTITLETRANSLIT:;
#ARTISTTRANSLIT:;
#CREDIT:;
#BANNER:../Banner.png;
#BACKGROUND:../BG.png;
#LYRICSPATH:;
#CDTITLE:../CDTitleBRAEDEN.png;
#MUSIC:Camellia - Key of timepieces.ogg;
#OFFSET:-0.252;
#SAMPLESTART:90.857;
#SAMPLELENGTH:29.999;
#SELECTABLE:YES;
#BPMS:0.000=59.961,2.000=59.959,3.000=59.273,4.000=59.959,5.000=59.961,7.000=59.959,8.000=59.961,9.000=59.959,10.000=59.961,11.000=59.959,12.000=60.664,13.000=59.961,14.000=59.271,15.000=58.601,16.000=59.959,17.000=58.601,18.000=62.121,19.000=59.273,20.000=62.123,21.000=58.599,22.000=57.301,23.000=58.599,24.000=57.944,25.000=60.663,26.000=59.961,27.000=59.273,28.000=59.959,29.000=59.961,30.000=63.652,31.000=59.961,32.000=59.959,33.000=59.961,34.000=58.601,35.000=59.959,36.000=59.273,37.000=59.959,38.000=59.961,39.000=60.663,40.000=59.273,41.000=59.961,42.000=62.877,43.000=59.961,44.000=59.959,45.000=59.961,46.000=229.250,47.000=120.000,84.000=174.010,84.500=173.999,93.500=174.010,94.500=173.999,103.500=174.010,104.500=173.999,113.500=174.010,114.500=173.999,122.500=174.010,123.500=173.999,132.500=174.010,133.500=173.999,142.500=174.010,143.500=173.999,152.500=174.010,153.500=173.999,163.500=174.010,164.500=173.999,172.500=174.010,173.500=173.999,182.500=174.010,183.500=173.999,192.500=174.010,193.500=173.999,202.500=174.010,203.500=173.999,212.500=174.010,213.500=173.999,222.500=174.010,223.500=173.999,231.500=174.010,232.500=173.999,241.500=174.010,242.500=173.999,251.500=174.010,252.500=173.999,260.500=174.010,261.500=173.999,270.500=174.010,271.500=173.999,280.500=174.010,281.500=173.999,289.500=174.010,290.500=173.999,299.500=174.010,300.500=173.999,309.500=174.010,310.500=173.999,318.500=174.010,319.500=173.999,328.500=174.010,329.500=173.999,338.500=174.010,339.500=173.999,348.500=174.010,349.500=173.999,356.500=174.010,357.500=173.999,366.500=174.010,367.500=173.999,375.500=174.010,376.500=173.999,385.500=174.010,386.500=173.999,395.500=174.010,396.500=173.999,404.500=174.010,405.500=173.999,414.500=174.010,415.500=173.999,424.500=174.010,425.500=173.999,434.500=174.010,435.500=173.987,436.500=174.010,437.500=173.987,438.500=174.010,439.500=173.999,443.500=174.010,444.500=173.987,445.500=174.010,446.500=173.987,447.500=174.010,448.500=173.999,454.500=174.010,455.500=173.987,456.500=174.010,457.500=173.987,458.500=174.010,459.500=173.999,463.500=174.010,464.500=173.987,465.500=174.010,466.500=173.987,467.500=174.010,468.500=173.999,472.500=174.010,473.500=173.987,474.500=174.010,475.500=173.987,476.500=174.010,477.500=173.999,483.500=174.010,484.500=173.987,485.500=174.010,486.500=173.987,487.500=174.010,488.500=173.999,492.500=174.010,493.500=173.987,494.500=174.010,495.500=173.987,496.500=174.010,497.500=173.999,501.500=174.010,502.500=173.987,503.500=174.010,504.500=173.987,505.500=174.010,506.500=173.999,512.500=174.010,513.500=173.987,514.500=174.010,515.500=173.987,516.500=174.010,517.500=173.999,521.500=174.010,522.500=173.987,523.500=174.010,524.500=173.987,525.500=174.010,526.500=173.999,530.500=174.010,531.500=173.987,532.500=174.010,533.500=173.987,534.500=174.010,535.500=173.999,541.500=174.010,542.500=173.987,543.500=174.010,544.500=173.987,545.500=174.010,546.500=173.999,550.500=174.010,551.500=173.987,552.500=174.010,553.500=173.987,554.500=174.010,555.500=173.999,561.500=174.010,562.500=173.987,563.500=174.010,564.500=173.999,570.500=174.010,571.500=173.987,572.500=174.010,573.500=173.987,574.500=174.010,575.500=173.999,579.500=174.010,580.500=173.987,581.500=174.010,582.500=173.987,583.500=174.010,584.500=173.999,590.500=174.010,591.500=173.987,592.500=174.010,593.500=173.999,599.500=174.010,600.500=173.987,601.500=174.010,602.500=173.987,603.500=174.010,604.500=173.999,608.500=174.010,609.500=173.987,610.500=174.010,611.500=173.987,612.500=174.010,613.500=173.999,619.500=174.010,620.500=173.987,621.500=174.010,622.500=173.987,623.500=174.010,624.500=173.999,630.500=174.010,631.500=173.999,639.500=174.010,640.500=173.999,649.500=174.010,650.500=173.999,659.500=174.010,660.500=173.999,669.500=174.010,670.500=173.999,678.500=174.010,679.500=173.999,688.500=174.010,689.500=173.999,698.500=174.010,699.500=173.999,707.500=174.010,708.500=173.999,717.500=174.010,718.500=173.999,727.500=174.010,728.500=173.999,736.500=174.010,737.500=173.999,746.500=174.010,747.500=173.999,756.500=174.010,757.500=173.999,765.500=174.010,766.500=173.999,775.500=174.010,776.500=173.999,785.500=174.010,786.500=173.999,795.500=174.010,796.500=173.999,804.500=174.010,805.500=173.999,814.500=174.010,815.500=173.999,824.500=174.010,825.500=173.999,833.500=174.010,834.500=173.999,843.500=174.010,844.500=173.999,853.500=174.010,854.500=173.999,862.500=174.010,863.500=173.999,872.500=174.010,873.500=173.999,882.500=174.010,883.500=173.999,891.500=174.010,892.500=173.999,901.500=174.010,902.500=173.999,911.500=174.010,912.500=173.999,921.500=174.010,922.500=173.999;
#STOPS:84.000=0.132
;
#BGCHANGES:;
// cache tags:
#FIRSTBEAT:4.000;
#LASTBEAT:934.000;
#SONGFILENAME:Songs/Index Fusion - Part 2/Key of timepieces - [Braeden]/Key of timepieces.sm;
#HASMUSIC:1;
#HASBANNER:1;
#MUSICLENGTH:363.232;
// end cache tags

//---------------dance-single - ----------------
#NOTES:
     dance-single:
     :
     Challenge:
     19:
     0.866,1.000,0.306,0.055,0.913,2059.000,111.000,20.000,30.000,2.000:

0000
0000
0000
0000
,
0010
1000
0010
0100
,
0001
0100
0010
1000
,
0001
0000
0000
0000
0000
0000
0100
0000
0000
0010
1000
0100
1000
0010
0100
0000
0001
0100
0010
1000
0000
0001
0100
0010
,
1000
0000
0001
0100
0000
0010
1000
0000
0001
0100
0000
0010
1000
0001
0100
0010
0000
1000
0100
0010
0001
0100
0010
1000
,
0001
0100
0010
1000
0000
0000
0001
0100
0010
0000
0000
0100
1000
0000
0100
0010
0000
0001
0100
0000
0000
0010
1000
0100
,
1000
0000
0000
0000
0000
0000
MMMM
0000
0000
0000
0000
0000
0001
0000
0000
0000
0000
0000
MMM0
0000
0001
0010
0000
0100
,
1000
0000
0010
0100
0000
0000
M001
0000
0100
0010
0000
0000
1000
0000
0000
0000
0001
0000
MMM0
0000
0001
0100
0000
0010
,
0000
1000
0100
0010
0000
0001
0100
0010
1000
0001
0000
1000
0100
0000
0010
0001
0000
0000
0010
0100
0010
0100
1000
0000
,
0001
0000
1000
0MM0
0001
0000
1000
0M0M
,
0010
0100
M0M1
1000
,
0100
0000
0000
0010
0000
0000
0001
0000
0000
1000
0100
0010
,
0001
0100
0010
1000
0100
0010
0001
0100
0010
1000
0100
0010
,
0001
0010
0100
1000
0001
0100
0010
0100
0001
1000
0010
0100
,
0001
1000
0100
0010
0001
0010
0100
1000
0001
0100
0010
0100
,
0001
1000
0010
0100
0001
1000
0100
0010
0100
1000
0001
0100
,
0010
1000
0100
0010
0100
1000
0001
0010
0100
1000
0001
0100
,
0010
1000
0100
0010
0001
0010
0100
1000
0001
0100
0010
0100
,
0001
1000
0100
0010
0001
1000
0010
0100
0001
1000
0100
0010
,
0001
0100
0010
1000
0001
0100
0010
1000
0100
0010
0001
0100
,
0010
1000
0001
0010
0100
1000
0001
0100
0010
0100
0001
1000
,
0100
0010
0001
0010
0000
0000
0001
0010
,
0100
1000
0010
0100
0001
1000
0010
0200
,
0000
0000
0301
1000
1001
0001
0100
0010
,
1000
0100
0010
0001
0100
0010
1000
0001
,
0010
0100
1000
0001
0100
0010
1000
0010
,
0100
0001
1000
0100
0010
0001
0010
0100
,
1000
0001
0100
0010
0100
0001
1000
0100
,
0010
0100
1000
0001
0100
0010
1000
0100
,
1000
0001
0100
0010
0100
0001
0010
0100
,
1000
0000
0000
0000
0001
0000
0000
0000
1000
0000
0000
0000
0100
0010
0001
1000
0010
0000
0100
0000
0001
0000
0000
0000
0100
0000
0010
0000
1000
0000
0010
0000
,
0100
0000
0001
0000
0000
0000
1000
0000
0100
0010
0001
0010
0100
1000
0001
0100
0010
0000
0000
0000
1000
0000
0000
0000
0100
0000
0000
0000
0010
0000
0000
0000
,
0100
1010
0100
0001
0100
0110
0010
1000
,
1001
0001
0010
0100
0110
0010
1000
0010
,
1010
0100
0001
0100
0101
0001
1000
0001
,
1001
0100
0010
0100
1001
0001
0100
0010
,
1010
0000
0100
0000
0001
0000
0000
0100
0000
0000
0010
0000
1000
0000
0000
0001
,
0000
0100
1010
0000
1001
0000
0000
0000
,
0000
0000
0000
0000
,
0000
0000
0000
0000
1000
0001
0100
0010
4000
0000
3100
0000
0010
0000
0004
0000
,
0403
0000
0000
0340
0000
0000
1030
0100
0010
0004
0000
0000
0403
0000
0000
0340
0000
0000
1030
0100
0010
0004
0000
0000
,
4003
0000
0000
3040
0000
0000
0130
0001
1000
0100
0010
0001
4000
0000
0000
0000
0000
0000
3010
0000
0000
0100
0000
0000
,
0100
0000
0100
0000
1001
0000
0010
0000
0010
0000
0010
0000
1001
0000
0100
0010
,
0100
0001
0100
0010
0100
0001
1000
0100
0040
0000
0000
0000
0031
0000
1000
0000
,
1000
0000
0000
1000
0000
0000
0001
0100
0010
1000
0000
0000
1000
0000
0000
1000
0000
0000
0001
0010
0100
0010
0000
0000
,
0010
0000
0000
0010
0000
0000
1000
0100
0010
0001
0010
0100
1000
0001
0100
0010
1000
0100
0010
0000
0000
0001
0000
0000
,
0100
0010
1000
0100
0010
0001
1000
0001
,
1000
0000
0000
0010
0000
0000
1000
0100
0010
0001
0010
0100
1000
0000
0000
0010
0000
0000
0100
0000
0000
0001
0000
0000
,
0001
0000
0000
0001
0000
0000
0010
0100
1000
0001
0000
0000
0001
0000
0000
0001
0000
0000
0010
0100
1000
0010
0000
0000
,
0100
0000
0000
0010
0100
0001
1000
0010
0100
0001
1000
0100
0010
0001
0010
0100
1000
0001
0100
0000
0000
0010
0000
0000
,
1000
0000
0010
0000
0101
0000
0010
0000
1000
0000
0010
0000
1100
0000
0010
0001
,
0100
0010
1000
0100
0010
0001
0100
0010
1000
0000
0000
0000
0000
0000
1001
0000
,
0001
0000
0000
0100
0000
0000
0010
1000
0001
0100
0010
1000
0001
0000
0000
0100
0000
0000
0010
0000
0000
1000
0000
0000
,
0001
0000
0000
0010
0000
0000
0100
1000
0100
0010
0001
0010
0100
1000
0001
0100
0010
1000
0001
0000
0000
0100
0000
0000
,
0110
0000
0010
0000
0010
0000
1000
0000
0000
0000
0101
0000
0000
0110
0000
0000
,
1010
0000
1100
0000
0000
0110
0000
0000
1010
0000
0000
0000
0101
0000
0001
0000
,
0100
0000
0000
0100
0000
0000
0010
1000
0001
0100
0000
0000
0100
0000
0000
0100
0000
0000
0010
0001
1000
0010
0000
0000
,
0010
0000
0000
0010
0000
0000
0100
0001
1000
0010
0100
0001
1000
0100
0010
0001
0010
0100
1000
0000
0000
0010
0000
0000
,
0100
0000
0001
0000
1100
0000
0001
0000
0100
0000
0010
0000
0011
0000
1000
0010
,
0100
0000
0000
0001
0000
0000
1000
0000
0000
0100
0000
0000
0010
0000
0000
0001
0000
0000
0010
0000
0000
0100
0000
0000
1000
0000
0010
0000
0100
0000
0001
0000
1000
0000
0100
0000
0010
0000
0000
0000
0000
0000
0001
0000
0000
0000
0000
0000
,
0001
0000
0000
0001
0000
0000
1000
0010
0100
0001
0000
0000
0001
0000
0000
0001
0000
0000
1000
0010
0100
0001
0000
0000
,
0001
0000
0000
0000
0000
0000
0001
0000
0000
0000
0000
0000
1000
0000
0100
0000
0010
0000
0001
0000
0010
0000
0100
0000
1000
0000
0001
0000
0100
0000
0010
0000
1000
0000
0001
0000
0010
0000
0000
0100
0000
0000
0000
0000
0000
0000
0000
0000
,
1000
0000
0000
0001
0000
0000
0100
0000
0000
0010
0000
0000
1000
0000
0000
0010
,
0000
0000
0000
0100
0000
0000
0001
1000
0100
0010
0001
0010
0100
0000
0000
0000
0000
0000
1000
0000
0000
0100
0000
0000
,
0100
0000
0000
0100
0000
0000
0010
0001
1000
0010
0000
0000
0010
0000
0000
0010
0000
0000
0100
0001
1000
0100
0000
0000
,
0010
0000
0000
0010
0000
0000
0100
1000
0001
0100
0010
1000
0100
0010
0001
0010
0100
1000
0001
0000
0000
0010
0000
0000
,
0100
0000
1000
0000
0011
0000
0100
0000
0010
0000
1000
0000
0110
0000
0001
1000
,
0010
0000
0000
0100
0000
0000
0001
0000
0000
1000
0000
0000
0100
0000
0000
0010
0000
0000
0001
0000
0000
1000
0000
0000
0010
0000
0100
0000
0001
0000
0100
0000
0010
0000
1000
0000
0001
0000
0000
0000
0000
0000
0010
0000
0000
0000
0000
0000
,
0010
0010
0100
1000
0004
0103
0010
1000
,
0100
0000
0010
0000
0001
1000
0010
0100
0001
0000
1000
0000
0010
0000
0100
0000
,
0001
0100
0040
0000
1030
0100
0010
0001
,
4000
0000
0000
3000
1001
0000
0000
0100
,
0000
0000
0000
0000
1000
0100
0010
0001
,
0010
0100
1000
0001
0100
0010
0100
0001
,
1000
0100
0010
0001
0100
0010
1000
0010
,
0100
0001
1000
0100
0010
0001
1000
0010
,
0100
0001
1000
0100
1000
0001
0010
0100
,
1000
0001
0100
0010
0100
0001
1000
0100
,
0010
0100
1000
0001
0100
0010
0100
0001
,
1000
0100
0010
0100
1000
0001
0100
0010
,
1000
0100
1000
0001
0010
0100
1000
0001
,
0100
0010
0100
0001
1000
0100
0010
0100
,
1000
0001
0100
0010
0100
0001
1000
0100
,
0010
0100
1000
0001
0100
0010
0100
0001
,
1000
0100
0010
0001
0010
0100
1000
0001
,
0100
0010
0100
0001
1000
0010
0100
0001
,
1000
0100
0010
0001
1000
0110
0110
0110
,
0001
0000
1000
0000
0001
0000
0000
0000
1001
0000
0000
1000
0100
0000
0000
0010
,
0001
0000
0010
0000
0100
0000
1000
0000
0001
0000
0100
0000
0010
0000
1000
0000
0100
0000
0010
0000
0001
0000
0010
0000
0100
0000
1000
0000
0100
0000
0010
0000
0001
1000
0000
0000
0001
0000
0000
0100
0000
0000
0000
0000
0000
0000
0000
0000
,
0001
0100
0001
0100
0001
0100
0010
1000
0001
0000
0000
0100
0020
0000
0030
1010
,
0000
0000
0000
0000
0000
0000
0000
0000
0000
0000
0000
0000
1000
0000
0000
0010
0000
0000
1000
0000
0000
0010
0000
0000
4000
0000
0000
0000
0000
0000
0000
0000
3000
0001
0000
0000
0100
0000
0000
0010
0000
0000
0000
0000
0000
1010
0000
0000
,
0000
0000
1001
0000
0004
0000
0003
0000
1001
0000
0000
0010
0001
0000
0000
1000
,
0100
0000
0000
0010
0000
0000
0001
0000
0000
0100
0000
0000
0001
0000
0100
0000
0010
0000
1000
0000
0001
0000
0100
0000
0010
0000
0000
0000
0000
0000
0000
0000
0000
1000
0000
0000
0001
0000
0000
0000
0000
0000
0000
0000
0000
2001
0000
0000
,
0000
0000
3000
0001
0100
0010
1000
0001
0100
0000
0010
1000
0020
0000
0000
0000
,
0130
0000
0000
0010
0002
0000
0000
0000
0000
0000
0000
0000
0013
0000
0000
0001
,
0000
0000
0010
0000
0200
0000
1300
0000
1001
0000
0000
0001
0100
0000
0000
0100
,
0001
0000
0010
0000
0100
0000
1000
0000
0100
0000
0010
0000
0001
0000
0000
0000
0000
0000
0000
0000
0000
1000
0000
0000
0000
0000
0000
0000
0000
0000
0000
0000
0000
0000
0000
0000
1001
0000
0000
0000
0000
0000
0100
0000
0000
0000
0000
0000
,
0040
0000
0000
0000
0031
0000
0100
0010
0100
0000
0001
0100
0010
1000
0000
1001
,
0000
0000
0000
0000
1000
0010
1000
0010
4000
0000
3000
0001
0100
0010
0000
1000
,
0000
0000
0010
0000
0100
0001
0100
0010
1000
0000
0000
0100
0001
0000
0000
1000
,
0010
0100
0001
0100
0010
1000
0100
0010
0001
0000
0000
0000
1000
0000
0100
0000
0000
0000
0011
0000
0000
0001
0000
0000
,
1000
0001
0010
0000
0001
0100
0010
1000
0001
0000
0000
0000
1001
0000
0000
0101
,
0000
0000
0000
0000
1110
0000
0000
1000
0001
0000
0000
1000
0101
0000
0000
0010
,
1000
0000
0200
0000
0310
0001
0010
0001
1000
0000
0000
0010
0100
0000
0000
0010
,
0400
0000
0000
0000
0000
0000
0000
0000
0000
0000
0000
0000
0310
0000
0000
0000
0000
0000
0000
0000
0000
0010
0000
0000
1000
0000
0100
0000
0010
0000
0001
0000
0010
0000
0100
0000
0010
0000
0000
0000
0000
0000
0000
0000
0000
0001
0000
0000
,
1000
0000
0000
0000
0000
0000
0000
0000
0000
1000
0000
0000
0010
0000
0000
0000
0000
0000
0100
0000
0000
0000
0000
0000
0101
0000
0000
0000
0000
0000
0000
0000
0000
0010
0000
0000
1000
0000
0100
0000
0010
0000
0001
0000
0010
0000
0100
0000
,
1000
0000
0001
0000
0100
0000
0010
0000
1000
0000
0001
0000
0100
0000
0000
0000
0000
0000
0000
0000
0000
0010
0000
0000
1000
0000
0100
0000
0010
0000
0001
0000
0000
0000
0000
0000
0010
0000
0100
0000
1000
0000
0001
0000
0000
0000
0000
0000
,
0100
0000
0010
0000
1000
0000
0001
0000
0000
0000
0000
0000
1000
0000
0100
0000
0010
0000
0001
0000
0000
0000
0000
0000
1001
0000
0000
0000
0000
0000
0000
0000
0000
0100
0000
0000
0010
0000
0000
0100
0000
0000
0000
0000
0000
0010
0000
0000
,
0001
0000
1000
0000
0010
0000
0100
0000
0001
0000
1000
0000
0100
0000
0000
0000
0000
0000
0000
0000
0000
0010
0000
0000
0001
0000
0100
0000
0010
0000
1000
0000
0001
0000
0100
0000
0010
0000
1000
0000
0010
0000
0100
0000
0000
1000
0000
0000
,
0100
0000
0000
0000
0011
0000
0000
0001
1000
0000
0000
0010
0400
0000
0000
0000
,
0000
0000
0000
0000
0310
0000
0000
1000
0004
0000
0000
1003
0040
0000
0000
0130
,
0001
0000
1000
0000
0010
0000
0000
0000
1001
0000
0000
1000
0100
0000
0000
0010
,
0001
0000
0100
0000
0010
0000
1000
0000
0001
0000
0010
0000
0100
0000
0000
0000
0000
0000
0000
0000
0000
1000
0000
0000
0100
0000
0010
0000
0001
0000
0010
0000
0100
0000
1000
0000
0001
0000
0100
0000
0010
0000
1000
0000
0000
0010
0000
0000
,
1000
0000
0000
0000
0000
0000
0000
0000
0000
0000
0000
0000
1001
0000
0000
0000
0000
0000
0001
0000
0000
0100
0000
0000
0010
0000
0000
0000
0000
0000
0000
0000
0000
1000
0000
0000
0010
0000
0100
0000
0001
0000
1000
0000
0100
0000
0010
0000
,
0001
0000
0010
0000
0100
0000
1000
0000
0001
0000
0100
0000
0010
0000
0000
0000
0000
0000
0000
0000
0000
1000
0000
0000
0010
0000
0100
0000
0001
0000
1000
0000
0000
0100
0000
0000
0010
0000
0001
0000
0010
0000
0100
0000
1000
0000
0010
0000
,
0100
0000
0000
0000
0000
0000
0010
0000
0000
0000
0000
0000
1000
0000
0000
0000
0000
0000
1000
0000
0000
0000
0000
0000
0010
0000
0000
0000
0000
0000
0100
0000
0000
0001
0000
0000
0100
0000
0010
0000
1000
0000
0100
0000
0000
0010
0000
0000
,
0001
0000
0100
0000
0010
0000
1000
0000
0010
0000
0100
0000
0001
0000
0000
0000
0000
0000
0000
0000
0000
0100
0000
0000
0001
0000
0100
0000
0010
0000
1000
0000
0001
0000
0010
0000
0100
0000
1000
0000
0001
0000
0100
0000
0010
0000
1000
0000
,
0100
0000
0000
0000
1011
0000
0000
0000
0001
0000
0000
1000
0001
0100
0001
0100
,
0001
0100
0001
0100
0001
0100
0000
0010
2000
0000
0000
0000
0000
0000
0000
0000
,
0000
0000
0002
0000
,
0000
0000
0000
0000
,
3003
0000
0000
0000
1000
0010
0100
0001
1000
0000
0010
0000
M10M
0000
0010
0000
,
0100
0001
1000
0100
0010
0001
0010
0100
,
1000
0001
1000
0MM1
0001
1000
0010
0100
,
0001
1000
0100
0010
0001
1000
0001
1MM0
,
0001
0100
0010
1000
0100
0010
0001
0100
,
0010
1000
0001
0100
M0M1
0100
0001
1000
,
0100
0010
0001
0100
0010
1000
0100
0010
,
MM0F
0010
0100
1000
0001
0100
0010
0100
,
0001
1000
0100
0000
MMM1
0010
0100
1000
,
0001
0100
0001
0100
0010
1000
0100
0010
,
0001
0000
1000
0100
0010
0001
0010
0100
1000
0000
0010
0000
0100
0000
0001
0000
,
1000
0100
1000
0001
1000
0010
0100
0001
,
1000
0100
0010
0001
0100
0010
1000
0100
,
1000
0001
0100
0010
0100
0001
1000
0100
,
0010
0000
0001
0100
0010
1000
0001
0010
0100
0000
0010
0000
0100
0000
1000
0000
,
0001
0000
0000
0100
0000
0000
0010
0000
0000
1000
0000
0000
1000
0010
1000
0100
0000
0000
0010
0000
0000
0100
0000
0000
,
0010
0001
0010
0100
1000
0000
0010
0010
,
0000
0100
0100
0000
1010
0010
0000
0100
,
0000
0000
0001
0100
0010
1000
0001
0000
0000
0000
0000
0000
0100
0000
0100
0000
,
0000
0010
0010
0000
1010
1000
0000
0010
,
0000
0010
0100
0010
0000
0000
0001
0001
,
0000
0100
0100
0000
0010
0010
0000
1000
,
0000
0010
0010
0010
0000
0000
0100
0100
,
0000
0001
0001
0000
0100
0100
0000
1010
,
0000
0000
0010
0000
1000
0000
0010
0000
0000
0000
1000
0000
0100
0000
0010
0001
,
1000
0000
0010
0000
0100
0000
0001
0100
0010
0000
0001
0000
0010
0000
0100
0001
,
0100
0010
1000
0000
0010
0100
0001
1000
0100
0000
0000
0000
0011
0000
0100
0010
,
1000
0000
0010
0000
0100
0000
0001
1000
0010
0000
0100
0000
0001
0000
1000
0010
,
0100
0000
0001
0000
1000
0000
0010
0000
0100
0000
0001
0000
1000
0000
0010
0100
,
0001
0000
0100
0010
1000
0000
0100
0010
0001
0000
0100
0000
0010
0000
1000
0100
,
1000
0001
0100
0000
0010
0000
0100
0000
0000
0000
1000
0000
1010
0000
0100
0001
,
0100
0000
0010
0000
1010
0000
1000
0010
1000
0010
0100
0000
0001
0100
0010
1000
,
0100
0000
0010
0001
1000
0010
1000
0010
1000
0000
0000
0000
0000
0000
0000
0000
,
0000
0000
0000
0000
0011
0100
0100
0100
,
0011
0000
0100
1000
0100
1000
0001
0000
0110
0000
1000
0100
0010
0001
0100
0000
,
1010
0000
0100
0001
0100
0010
1000
0000
0101
0000
0010
1000
0100
1000
0001
0000
,
1010
0000
0100
0001
1000
0010
0100
0000
0011
0000
1000
0100
0010
0001
1000
0000
,
0110
0000
0001
0010
0100
1000
0001
0000
0110
0000
1000
0001
0100
0010
1000
0000
,
0110
0000
0001
0010
0100
1000
0001
0000
1100
0000
0010
0001
0100
0010
1000
0000
,
1001
0000
0100
0010
1000
0100
0010
0000
1001
0000
0010
0100
0001
1000
0100
0000
,
0011
0000
0100
1000
0001
0100
0010
0000
1001
0000
0010
0000
0010
0000
0010
0000
,
1001
0100
0100
0100
1001
0010
0010
0010
,
1001
0000
0100
0000
0100
0000
0100
0000
0011
0000
0100
1000
0100
0000
0010
0000
,
1001
0100
0010
0100
0011
0100
1000
0100
,
0011
0000
0100
0010
1000
0010
0100
0000
0001
0010
0100
1000
0001
0010
0100
1000
,
0010
0100
0001
1000
0100
0010
0100
0010
0001
0100
0010
1000
0100
0010
0001
0010
,
0100
1000
0001
0100
0010
1000
0100
0010
0001
0100
0001
0010
0100
1000
0001
0100
,
0010
1000
0100
0010
0001
0010
0100
1000
0001
0100
0010
1000
0001
0010
0100
1000
,
0010
0000
0000
0000
0100
0001
0100
0010
2000
0000
3000
0000
0000
0000
0001
0100
,
0001
0000
0000
0000
1000
0010
1000
0000
0000
0000
0001
0010
0001
0000
0000
0000
,
1000
0010
1000
0000
0000
0000
0010
0100
0001
0000
0000
0000
1001
0000
0010
0000
,
0010
0010
1100
0010
0010
0010
1001
0100
,
0100
0000
0100
0000
0010
0000
0100
0010
1000
0100
0010
0001
1000
0000
0100
0010
,
0001
0000
0000
0000
0100
0001
0100
0000
0000
0000
0001
0100
0001
0000
0000
0000
,
0100
0000
0000
0001
0000
0000
0100
0000
0000
0001
0000
0000
1000
0000
0000
0010
0000
0000
0100
0000
0000
0001
0000
0000
0100
0000
0000
0000
0000
0000
0000
0000
0000
0000
0000
0000
0010
0000
1000
0000
0100
0000
1000
0000
0001
0000
0100
0000
,
0010
0000
1000
0000
0010
0000
0100
0000
0001
0000
1000
0000
0100
0000
0000
0010
0000
0000
0101
0000
0000
0010
0000
0000
,
1000
0000
0000
0001
0000
0000
0100
0000
0000
0001
0000
0000
0100
0000
0010
0000
1000
0000
0100
0000
0010
0000
0001
0000
1000
0000
0000
0000
0000
0000
0000
0000
0000
0000
0000
0000
0000
0000
0000
0000
0000
0000
0001
0000
0000
0100
0000
0000
,
0001
0000
0000
0000
1000
0010
1000
0000
0000
0000
0001
0010
0001
0000
0000
0000
,
1000
0100
1000
0000
0002
0000
0000
0000
1003
0010
0000
0100
0000
0000
0001
1000
,
0010
0100
0001
0000
1100
0010
0110
0100
,
0001
0000
0000
0010
0000
0000
0100
0000
0000
1000
0000
0000
0001
0000
0000
0100
0000
0000
0010
0000
0000
1000
0000
0000
0100
0000
0010
0000
0001
0000
1000
0000
0000
0000
0000
0000
0000
0000
0000
0000
0000
0000
0010
0000
0000
0000
0000
0000
,
1000
0001
0000
0100
0010
0000
1000
0010
0000
0100
0001
0000
0100
0010
0000
1000
,
0400
0000
1300
0001
1000
0001
0100
0001
,
1000
0100
0000
0010
0001
0000
1000
0001
0020
0000
0000
0000
0000
0000
0000
0000
,
0000
0000
0000
0000
0031
0100
0010
1000
0001
0000
1000
0000
0010
0000
0100
0000
,
0100
0000
0000
0100
0000
0000
0001
1000
0100
0010
0000
0000
0010
0000
0000
0010
0000
0000
0001
0100
0010
1000
0000
0000
,
0001
0000
0000
0100
0000
0000
0010
1000
0100
0010
0001
0010
0100
1000
0001
0100
0010
1000
0001
0000
0000
0100
0000
0000
,
0010
0000
1000
0000
0011
0000
0100
0000
0010
0000
1000
0000
0110
0000
0001
0100
,
0010
1000
0100
0010
0001
0100
0010
1000
0001
0000
0000
0000
1001
0000
0010
0000
,
0010
0000
0000
0010
0000
0000
1000
0100
0010
0001
0000
0000
0100
0000
0000
0100
0000
0000
0010
1000
0001
0100
0000
0000
,
0010
0000
0000
1000
0000
0000
0100
0010
0001
0010
0100
1000
0001
0100
0010
1000
0100
0010
0001
0010
0100
1000
0001
0100
,
0010
0000
1000
0000
0010
0000
0100
0000
0001
0000
0100
0000
0020
0000
0000
2030
0000
0000
3020
0000
0000
0230
0000
0000
,
0301
0100
0010
0000
1000
0100
0010
0001
2000
0000
0000
0000
0000
0000
0000
0000
,
3000
0000
1001
0000
0000
0001
0100
0010
,
0010
0000
0000
0000
0000
0000
0010
0000
0000
0000
0000
0000
1000
0000
0100
0000
0010
0000
0001
0000
0010
0000
0100
0000
1000
0000
0000
0000
0000
0000
0000
0000
0000
0001
0000
0000
0100
0000
0000
0000
0000
0000
0010
0000
0000
0000
0000
0000
,
1000
0100
1000
0001
0200
0000
0310
0000
1000
0000
0010
0000
0200
0000
0301
0000
,
1000
0000
0000
0010
0000
0000
0100
0000
0000
0001
0000
0000
1000
0000
0000
0100
0000
0000
0010
0000
0000
0001
0000
0000
1000
0000
0010
0000
0100
0000
0001
0000
1000
0000
0100
0000
0010
0000
0000
0000
0000
0000
0001
0000
0000
0000
0000
0000
,
0100
0000
0000
0010
0000
0000
1000
0000
0000
0010
0000
0000
0100
0001
0100
0010
0000
0000
1000
0000
0000
0010
0000
0000
,
0100
0001
1000
0100
0010
0000
0001
1000
,
1001
0000
0010
0100
0010
0000
1000
0000
1010
0000
0100
0001
0100
0000
0010
0000
,
1000
0100
0010
0001
0100
0010
1000
0001
0200
0000
0000
0000
0310
0000
0000
0000
,
0000
0000
0000
0000
0010
0000
0000
0000
0000
0000
0010
0000
0001
0010
0100
1000
,
0010
0100
0001
1000
0100
0000
0000
0000
0010
0000
0000
0000
0001
0000
0001
0010
,
0100
1000
0001
0000
0100
0000
0000
0000
0000
0000
0010
0000
0000
0000
0000
0000
,
0000
0000
0000
0000
0000
0000
0000
0000
4004
0000
0000
0000
3003
0000
0010
0100
,
0001
1000
0100
0000
0010
0000
0000
0000
0000
0000
0001
0000
0000
0000
0000
0000
,
0100
0100
0010
0000
1000
0000
0000
0010
,
0000
0000
0010
0000
0000
0100
0000
0000
,
1000
1000
0001
0000
1001
0000
0000
0000
,
0000
0000
0100
0000
0000
0100
0000
0000
,
0001
0001
1000
0000
1001
0000
0000
1000
,
0000
0000
0100
0000
0000
0010
0000
0000
,
0001
0100
0010
1000
0001
0000
0000
0100
,
0000
0000
0001
0000
0000
1000
0000
0000
,
0001
0100
0010
0000
1000
0000
0000
0001
,
0000
0000
0100
0000
0000
0010
0000
0000
,
1000
1000
1000
1000
0000
0000
0010
0000
,
0000
0010
0000
0000
0010
0000
0000
0010
,
0000
0010
0000
0010
0000
0000
0100
0000
,
0000
0100
0000
0000
0010
0000
0000
0100
,
0000
0100
0000
0100
0000
0000
0010
0000
,
0000
1000
0000
0000
0001
0000
0000
0100
,
0000
0100
0000
0100
0000
0000
0010
0000
,
0000
1000
0000
0000
0001
0000
0000
0010
,
0000
0010
0000
0000
0010
0000
0100
0000
,
0000
1000
0000
0000
0100
0000
0000
1000
,
0000
1000
0000
1000
,
0000
1000
0000
0000
0100
0000
0000
0010
,
0000
0001
1000
0001
0000
0000
0100
0010
,
0000
0010
0100
0000
1000
0001
0000
0001
,
0000
1000
0010
1000
0000
0000
0001
0100
,
0000
0100
0010
0000
0000
1000
0000
1000
,
0000
1000
0010
1000
1010
0000
0000
0000
;

//---------------dance-single - ----------------
#NOTES:
     dance-single:
     :
     Edit:
     26:
     0.950,1.000,0.311,0.044,1.000,2272.000,113.000,16.000,30.000,3.000:

0000
0000
0000
0000
,
0010
1000
0010
0100
,
0001
0100
0010
1000
,
0001
0000
0000
0000
0000
0000
0100
0000
0000
0010
1000
0100
1000
0010
0100
0000
0001
0100
0010
1000
0000
0001
0100
0010
,
1000
0000
0001
0100
0000
0010
1000
0000
0001
0100
0000
0010
1000
0001
0100
0010
0000
1000
0100
0010
0001
0100
0010
1000
,
0001
0100
0010
1000
0000
0000
0001
0100
0010
0000
0000
0100
1000
0000
0100
0010
0000
0001
0100
0000
0000
0010
1000
0100
,
1000
0000
0000
0000
0000
0000
MMMM
0000
0000
0000
0000
0000
0001
0000
0000
0000
0000
0000
MMM0
0000
0001
0010
0000
0100
,
1000
0000
0010
0100
0000
0000
M001
0000
0100
0010
0000
0000
1000
0000
0000
0000
0001
0000
MMM0
0000
0001
0100
0000
0010
,
0000
1000
0100
0010
0000
0001
0100
0010
1000
0001
0000
1000
0100
0000
0010
0001
0000
0000
0010
0100
0010
0100
1000
0000
,
0001
0000
1000
0MM0
0001
0000
1000
0M0M
,
0010
0100
M0M1
1000
,
0100
0000
0000
0010
0000
0000
0001
0000
0000
1000
0100
0010
,
0001
0100
0010
1000
0100
0010
0001
0100
0010
1000
0100
0010
,
0001
0010
0100
1000
0001
0100
0010
0100
0001
1000
0010
0100
,
0001
1000
0100
0010
0001
0010
0100
1000
0001
0100
0010
0100
,
0001
1000
0010
0100
0001
1000
0100
0010
0100
1000
0001
0100
,
0010
1000
0100
0010
0100
1000
0001
0010
0100
1000
0001
0100
,
0010
1000
0100
0010
0001
0010
0100
1000
0001
0100
0010
0100
,
0001
1000
0100
0010
0001
1000
0010
0100
0001
1000
0100
0010
,
0001
0100
0010
1000
0001
0100
0010
1000
0100
0010
0001
0100
,
0010
1000
0001
0010
0100
1000
0001
0100
0010
0100
0001
1000
,
0100
0010
0001
0010
0000
0000
0001
0010
,
0100
1000
0010
0100
0001
1000
0010
0200
,
0000
0000
0301
1000
1001
0001
0100
0010
,
1000
0100
0010
0001
0100
0010
1000
0001
,
0010
0100
1000
0001
0100
0010
1000
0010
,
0100
0001
1000
0100
0010
0001
0010
0100
,
1000
0001
0100
0010
0100
0001
1000
0100
,
0010
0100
1000
0001
0100
0010
1000
0100
,
1000
0001
0100
0010
0100
0001
0010
0100
,
1000
0000
0000
0000
0001
0000
0000
0000
1000
0000
0000
0000
0100
0010
0001
1000
0010
0000
0100
0000
0001
0000
0000
0000
0100
0000
0010
0000
1000
0000
0010
0000
,
0100
0000
0001
0000
0000
0000
1000
0000
0100
0010
0001
0010
0100
1000
0001
0100
0010
0000
0000
0000
1000
0000
0000
0000
0100
0000
0000
0000
0010
0000
0000
0000
,
0100
1010
0100
0001
0100
0110
0010
1000
,
1001
0001
0010
0100
0110
0010
1000
0010
,
1010
0100
0001
0100
0101
0001
1000
0001
,
1001
0100
0010
0100
1001
0001
0100
0010
,
1010
0000
0100
0000
0001
0000
0000
0100
0000
0000
0010
0000
1000
0000
0000
0001
,
0000
0100
1010
0000
1001
0000
0000
0000
,
0000
0000
0000
0000
,
0000
0000
0000
0000
1000
0001
0100
0010
4000
0000
3100
0000
0010
0000
0004
0000
,
0403
0000
0000
0340
0000
0000
1030
0100
0010
0004
0000
0000
0403
0000
0000
0340
0000
0000
1030
0100
0010
0004
0000
0000
,
4003
0000
0000
3040
0000
0000
0130
0001
1000
0100
0010
0001
4000
0000
0000
0000
0000
0000
3010
0000
0000
0100
0000
0000
,
0100
0000
0100
0000
1001
0000
0010
0000
0010
0000
0010
0000
1001
0000
0100
0010
,
0100
0001
0100
0010
0100
0001
1000
0100
0040
0000
0000
0000
0031
0000
1000
0000
,
1000
0000
0000
1000
0000
0000
0001
0100
0010
1000
0000
0000
1000
0000
0000
1000
0000
0000
0001
0010
0100
0010
0000
0000
,
0010
0000
0000
0010
0000
0000
1000
0100
0010
0001
0010
0100
1000
0001
0100
0010
1000
0100
0010
0000
0000
0001
0000
0000
,
0100
0010
1000
0100
0010
0001
1000
0001
,
1000
0000
0000
0010
0000
0000
1000
0100
0010
0001
0010
0100
1000
0000
0000
0010
0000
0000
0100
0000
0000
0001
0000
0000
,
0001
0000
0000
0001
0000
0000
0010
0100
1000
0001
0000
0000
0001
0000
0000
0001
0000
0000
0010
0100
1000
0010
0000
0000
,
0100
0000
0000
0010
0100
0001
1000
0010
0100
0001
1000
0100
0010
0001
0010
0100
1000
0001
0100
0000
0000
0010
0000
0000
,
1000
0000
0010
0000
0101
0000
0010
0000
1000
0000
0010
0000
1100
0000
0010
0001
,
0100
0010
1000
0100
0010
0001
0100
0010
1000
0000
0000
0000
0000
0000
1001
0000
,
0001
0000
0000
0100
0000
0000
0010
1000
0001
0100
0010
1000
0001
0000
0000
0100
0000
0000
0010
0000
0000
1000
0000
0000
,
0001
0000
0000
0010
0000
0000
0100
1000
0100
0010
0001
0010
0100
1000
0001
0100
0010
1000
0001
0000
0000
0100
0000
0000
,
0110
0000
0010
0000
0010
0000
1000
0000
0000
0000
0101
0000
0000
0110
0000
0000
,
1010
0000
1100
0000
0000
0110
0000
0000
1010
0000
0000
0000
0101
0000
0001
0000
,
0100
0000
0000
0100
0000
0000
0010
1000
0001
0100
0000
0000
0100
0000
0000
0100
0000
0000
0010
0001
1000
0010
0000
0000
,
0010
0000
0000
0010
0000
0000
0100
0001
1000
0010
0100
0001
1000
0100
0010
0001
0010
0100
1000
0000
0000
0010
0000
0000
,
0100
0000
0001
0000
1100
0000
0001
0000
0100
0000
0010
0000
0011
0000
1000
0010
,
0100
0000
0000
0001
0000
0000
1000
0000
0000
0100
0000
0000
0010
0000
0000
0001
0000
0000
0010
0000
0000
0100
0000
0000
1000
0000
0010
0000
0100
0000
0001
0000
1000
0000
0100
0000
0010
0000
0000
0000
0000
0000
0001
0000
0000
0000
0000
0000
,
0001
0000
0000
0001
0000
0000
1000
0010
0100
0001
0000
0000
0001
0000
0000
0001
0000
0000
1000
0010
0100
0001
0000
0000
,
0001
0000
0000
0000
0000
0000
0001
0000
0000
0000
0000
0000
1000
0000
0100
0000
0010
0000
0001
0000
0010
0000
0100
0000
1000
0000
0001
0000
0100
0000
0010
0000
1000
0000
0001
0000
0010
0000
0000
0100
0000
0000
0000
0000
0000
0000
0000
0000
,
1000
0000
0000
0001
0000
0000
0100
0000
0000
0010
0000
0000
1000
0000
0000
0010
,
0000
0000
0000
0100
0000
0000
0001
1000
0100
0010
0001
0010
0100
0000
0000
0000
0000
0000
1000
0000
0000
0100
0000
0000
,
0100
0000
0000
0100
0000
0000
0010
0001
1000
0010
0000
0000
0010
0000
0000
0010
0000
0000
0100
0001
1000
0100
0000
0000
,
0010
0000
0000
0010
0000
0000
0100
1000
0001
0100
0010
1000
0100
0010
0001
0010
0100
1000
0001
0000
0000
0010
0000
0000
,
0100
0000
1000
0000
0011
0000
0100
0000
0010
0000
1000
0000
0110
0000
0001
1000
,
0010
0000
0000
0100
0000
0000
0001
0000
0000
1000
0000
0000
0100
0000
0000
0010
0000
0000
0001
0000
0000
1000
0000
0000
0010
0000
0100
0000
0001
0000
0100
0000
0010
0000
1000
0000
0001
0000
0000
0000
0000
0000
0010
0000
0000
0000
0000
0000
,
0010
0010
0100
1000
0004
0103
0010
1000
,
0100
0000
0010
0000
0001
1000
0010
0100
0001
0000
1000
0000
0010
0000
0100
0000
,
0001
0100
0040
0000
1030
0100
0010
0001
,
4000
0000
0000
3000
1001
0000
0000
0100
,
0000
0000
0000
0000
1000
0100
0010
0001
,
0010
0100
1000
0001
0100
0010
0100
0001
,
1000
0100
0010
0001
0100
0010
1000
0010
,
0100
0001
1000
0100
0010
0001
1000
0010
,
0100
0001
1000
0100
1000
0001
0010
0100
,
1000
0001
0100
0010
0100
0001
1000
0100
,
0010
0100
1000
0001
0100
0010
0100
0001
,
1000
0100
0010
0100
1000
0001
0100
0010
,
1000
0100
1000
0001
0010
0100
1000
0001
,
0100
0010
0100
0001
1000
0100
0010
0100
,
1000
0001
0100
0010
0100
0001
1000
0100
,
0010
0100
1000
0001
0100
0010
0100
0001
,
1000
0100
0010
0001
0010
0100
1000
0001
,
0100
0010
0100
0001
1000
0010
0100
0001
,
1000
0100
0010
0001
1000
0110
0110
0110
,
0001
0000
1000
0000
0001
0000
0000
0000
1001
0000
0000
1000
0100
0000
0000
0010
,
0001
0000
0010
0000
0100
0000
1000
0000
0001
0000
0100
0000
0010
0000
1000
0000
0100
0000
0010
0000
0001
0000
0010
0000
0100
0000
1000
0000
0100
0000
0010
0000
0001
1000
0000
0000
0001
0000
0000
0100
0000
0000
0000
0000
0000
0000
0000
0000
,
0001
0010
0100
1000
0001
0010
0100
1000
0001
0000
0100
0000
0010
0000
1000
0000
0001
0000
0000
0000
0000
0000
0100
0000
0020
0000
0000
0000
0030
0000
1010
0000
,
0000
0000
0000
0000
0000
0000
0000
0000
0000
0000
0000
0000
0000
0000
0000
0000
0000
0000
0000
0000
0000
0000
0000
0000
0000
0000
0000
0000
0000
0000
0000
0000
0000
0000
0000
0000
0000
0000
0000
0000
0000
0000
0000
0000
0000
0000
0000
0000
1000
0000
0000
0000
0000
0000
0100
0000
0000
0000
0000
0000
0010
0000
0000
0000
0000
0000
0001
0000
0000
0000
0000
0000
1000
0000
0000
0000
0000
0000
0100
0000
0000
0000
0000
0000
0010
0000
0000
0000
0000
0000
0001
0000
0000
0000
0000
0000
4000
0000
0000
0000
0000
0000
0000
0000
0000
0000
0000
0000
0000
0000
0000
0000
0000
0000
0000
0000
0000
0000
0000
0000
0000
0000
0000
0000
0000
0000
0000
0000
3000
0000
0000
0000
0001
0000
0000
0000
0000
0000
0000
0000
0000
0000
0000
0000
0100
0000
0000
0000
0000
0000
0000
0000
0000
0000
0000
0000
0010
0000
0000
0000
0000
0000
0000
0000
0000
0000
0000
0000
0000
0000
0000
0000
0000
0000
0000
0000
0000
0000
0000
0000
1010
0000
0000
0000
0000
0000
0000
0000
0000
0000
0000
0000
,
0000
0000
1001
0000
0004
0000
0003
0000
1001
0000
0000
0001
0100
0000
0000
0110
,
0001
0000
0000
0000
0000
0000
0010
0000
0000
0000
0000
0000
0100
0000
0000
0000
0000
0000
1000
0000
0000
0000
0000
0000
0001
0000
0000
0000
0000
0000
0010
0000
0000
0000
0000
0000
0100
0000
0000
0000
0000
0000
1000
0000
0000
0000
0000
0000
0001
0000
0000
0000
0000
0000
0000
0000
0100
0000
0000
0000
0000
0000
0000
0000
0010
0000
0000
0000
0000
0000
0000
0000
1000
0000
0000
0000
0000
0000
0000
0000
0001
0000
0000
0000
0000
0000
0000
0000
0100
0000
0000
0000
0000
0000
0000
0000
0010
0000
0000
0000
0000
0000
0000
0000
0000
0000
0000
0000
0000
0000
0000
0000
0000
0000
0000
0000
0000
0000
0000
0000
0000
0000
0000
0000
0000
0000
0000
0000
0000
0000
0000
0000
1000
0000
0000
0000
0000
0000
0000
0000
0000
0000
0000
0000
0001
0000
0000
0000
0000
0000
0000
0000
0000
0000
0000
0000
0000
0000
0000
0000
0000
0000
0000
0000
0000
0000
0000
0000
0000
0000
0000
0000
0000
0000
0000
0000
0000
0000
0000
0000
2001
0000
0000
0000
0000
0000
0000
0000
0000
0000
0000
0000
,
0000
0000
0000
0000
3000
0000
0001
0000
0100
0000
0010
0000
1000
0000
0001
0000
0100
0000
0000
0000
0010
0000
1000
0000
0100
0010
0001
1000
0010
0100
0001
1000
,
0100
0000
0000
0000
0000
0000
0010
0000
0001
1000
0100
0010
0001
1000
0100
0010
0001
1000
0010
0100
0001
1000
0100
0000
0010
0000
0000
0000
0000
0000
0001
0000
,
0000
0000
0010
0000
0200
0000
1300
0000
1001
0000
0000
0001
0100
0000
0000
0100
,
0001
0000
0010
0000
0100
0000
1000
0000
0100
0000
0010
0000
0001
0000
0000
0000
0000
0000
0000
0000
0000
1000
0000
0000
0000
0000
0000
0000
0000
0000
0000
0000
0000
0000
0000
0000
1001
0000
0000
0000
0000
0000
0100
0000
0000
0000
0000
0000
,
0040
0000
0000
0000
0031
0000
0100
0010
0100
0000
0001
0100
0010
1000
0000
1001
,
0000
0000
0000
0000
0000
0000
0000
0000
1000
0100
0010
0001
1000
0100
0010
0001
4000
0000
0000
0000
3000
0000
0001
0000
0100
0000
0010
0000
0000
0000
1000
0000
,
0000
0000
0010
0000
0100
0001
0100
0010
1010
0000
0000
0100
0001
0000
0000
1000
,
0010
0100
0001
0100
0010
1000
0100
0010
0001
0000
0000
0000
1000
0000
0100
0000
0000
0000
0011
0000
0000
0001
0000
0000
,
1000
0100
0010
0001
0010
0000
0000
0000
0001
0000
0100
0000
0010
0000
1000
0000
0001
0000
0000
0000
0000
0000
0000
0000
1001
0000
0000
0000
0000
0000
0101
0000
,
0000
0000
0000
0000
1110
0000
0000
1000
0001
0000
0000
1000
0101
0000
0000
0010
,
1000
0000
0200
0000
0310
0001
0010
0001
1000
0000
0000
0010
0100
0000
0000
0010
,
0400
0000
0000
0000
0000
0000
0000
0000
0000
0000
0000
0000
0310
0000
0000
0000
0000
0000
0000
0000
0000
0010
0000
0000
1000
0000
0100
0000
0010
0000
0001
0000
0010
0000
0100
0000
0010
0000
0000
0000
0000
0000
0000
0000
0000
0001
0000
0000
,
1000
0000
0000
0000
0000
0000
0000
0000
0000
1000
0000
0000
0010
0000
0000
0000
0000
0000
0100
0000
0000
0000
0000
0000
0101
0000
0000
0000
0000
0000
0000
0000
0000
0010
0000
0000
1000
0000
0100
0000
0010
0000
0001
0000
0010
0000
0100
0000
,
1000
0000
0001
0000
0100
0000
0010
0000
1000
0000
0001
0000
0100
0000
0000
0000
0000
0000
0000
0000
0000
0010
0000
0000
1000
0000
0100
0000
0010
0000
0001
0000
0000
0000
0000
0000
0010
0000
0100
0000
1000
0000
0001
0000
0000
0000
0000
0000
,
0100
0000
0010
0000
1000
0000
0001
0000
0000
0000
0000
0000
1000
0000
0100
0000
0010
0000
0001
0000
0000
0000
0000
0000
1001
0000
0000
0000
0000
0000
0000
0000
0000
0100
0000
0000
0010
0000
0000
0100
0000
0000
0000
0000
0000
0010
0000
0000
,
0001
0000
1000
0000
0010
0000
0100
0000
0001
0000
1000
0000
0100
0000
0000
0000
0000
0000
0000
0000
0000
0010
0000
0000
0001
0000
0100
0000
0010
0000
1000
0000
0001
0000
0100
0000
0010
0000
1000
0000
0010
0000
0100
0000
0000
1000
0000
0000
,
0100
0000
0000
0000
0011
0000
0000
0001
1000
0000
0000
0010
0400
0000
0000
0000
,
0000
0000
0000
0000
0310
0000
0000
1000
0004
0000
0000
1003
0040
0000
0000
0130
,
0001
0000
1000
0000
0010
0000
0000
0000
1001
0000
0000
1000
0100
0000
0000
0010
,
0001
0000
0100
0000
0010
0000
1000
0000
0001
0000
0010
0000
0100
0000
0000
0000
0000
0000
0000
0000
0000
1000
0000
0000
0100
0000
0010
0000
0001
0000
0010
0000
0100
0000
1000
0000
0001
0000
0100
0000
0010
0000
1000
0000
0000
0010
0000
0000
,
1000
0000
0000
0000
0000
0000
0000
0000
0000
0000
0000
0000
1001
0000
0000
0000
0000
0000
0001
0000
0000
0100
0000
0000
0010
0000
0000
0000
0000
0000
0000
0000
0000
1000
0000
0000
0010
0000
0100
0000
0001
0000
1000
0000
0100
0000
0010
0000
,
0001
0000
0010
0000
0100
0000
1000
0000
0001
0000
0100
0000
0010
0000
0000
0000
0000
0000
0000
0000
0000
1000
0000
0000
0010
0000
0100
0000
0001
0000
1000
0000
0000
0100
0000
0000
0010
0000
0001
0000
0010
0000
0100
0000
1000
0000
0010
0000
,
0100
0000
0000
0000
0000
0000
0010
0000
0000
0000
0000
0000
1000
0000
0000
0000
0000
0000
1000
0000
0000
0000
0000
0000
0010
0000
0000
0000
0000
0000
0100
0000
0000
0001
0000
0000
0100
0000
0010
0000
1000
0000
0100
0000
0000
0010
0000
0000
,
0001
0000
0100
0000
0010
0000
1000
0000
0010
0000
0100
0000
0001
0000
0000
0000
0000
0000
0000
0000
0000
0100
0000
0000
0001
0000
0100
0000
0010
0000
1000
0000
0001
0000
0010
0000
0100
0000
1000
0000
0001
0000
0100
0000
0010
0000
1000
0000
,
0100
0000
0000
0000
0000
0000
0000
0000
1011
0000
0000
0000
0000
0000
0000
0000
0001
0000
0000
0000
0000
0000
1000
0000
0001
0010
0100
1000
0001
0010
0100
1000
,
0001
0010
0100
1000
0001
0010
0100
1000
0001
0000
0100
0000
0000
0000
0010
0000
1000
0100
0010
0001
1000
0100
0010
0001
1000
0100
0010
0001
1000
0100
0010
0001
,
1000
0010
0100
0001
1000
0010
0100
0001
1000
0010
0100
0001
1000
0010
0100
0001
1000
0100
0010
0001
1000
0100
0010
0001
1000
0100
0010
0001
1000
0100
0010
0001
,
1000
0000
0000
0000
0000
0000
0001
0000
0000
0000
0000
0000
0010
0000
0000
0000
0000
0000
0001
0000
0000
0000
0000
0000
1000
0000
0000
0000
0000
0000
0100
0000
0000
0000
0000
0000
0010
0000
0000
0000
0000
0000
0001
0000
0000
0000
0000
0000
1000
0000
0000
0000
0000
0000
0010
0000
0000
0000
0000
0000
0100
0000
0000
0000
0000
0000
0001
0000
0000
0000
0000
0000
1000
0000
0000
0000
0000
0000
0100
0000
0000
0000
0000
0000
0010
0000
0000
0000
0000
0000
0001
0000
0000
0000
0000
0000
1000
0000
0000
0000
0100
0000
0000
0000
0010
0000
0000
0000
0001
0000
0000
0000
1000
0000
0000
0000
0100
0000
0000
0000
0010
0000
0000
0000
0001
0000
0000
0000
1000
0000
0000
0000
0100
0000
0000
0000
0010
0000
0000
0000
0001
0000
0000
0000
1000
0000
0000
0000
0100
0000
0000
0000
0010
0000
0000
0000
0001
0000
0000
0000
1000
0000
0000
0000
0100
0000
0000
0000
0010
0000
0000
0000
0001
0000
0000
0000
1000
0000
0000
0000
0100
0000
0000
0000
0010
0000
0000
0000
0001
0000
0000
0000
,
1000
0100
0010
0001
1000
0100
0010
0001
1000
0100
0010
0001
1000
0000
0000
0010
0000
0000
0100
0000
0000
0001
0000
0000
1000
0000
0000
0000
0000
0000
0010
0000
0000
0000
0000
0000
M10M
0000
0000
0000
0000
0000
0010
0000
0000
0000
0000
0000
,
0100
0001
1000
0100
0010
0001
0010
0100
,
1000
0001
1000
0MM1
0001
1000
0010
0100
,
0001
1000
0100
0010
0001
1000
0001
1MM0
,
0001
0100
0010
1000
0100
0010
0001
0100
,
0010
1000
0001
0100
M0M1
0100
0001
1000
,
0100
0010
0001
0100
0010
1000
0100
0010
,
MM0F
0010
0100
1000
0001
0100
0010
0100
,
0001
1000
0100
0000
MMM1
0010
0100
1000
,
0001
0100
0001
0100
0010
1000
0100
0010
,
0001
0000
1000
0100
0010
0001
0010
0100
1000
0000
0010
0000
0100
0000
0001
0000
,
1000
0000
0000
0000
0000
0000
0100
0000
0000
0000
0000
0000
1000
0100
0010
0001
1000
0100
0010
0001
1000
0100
0010
0001
1000
0000
0000
0000
0000
0000
0010
0000
0000
0000
0000
0000
0100
0000
0000
0000
0000
0000
0001
0000
0000
0000
0000
0000
,
1000
0100
0010
0001
0100
0010
1000
0100
,
1000
0001
0100
0010
0100
0001
1000
0100
,
0010
0000
0001
0100
0010
1000
0001
0010
0100
0000
0010
0000
0100
0000
1000
0000
,
0001
0000
0000
0000
0000
0000
0100
0000
0000
0000
0000
0000
0010
0000
0000
0000
0000
0000
1000
0000
0000
0000
0000
0000
1000
0100
0010
0001
1000
0100
0010
0000
0000
0000
0000
0000
0001
0000
0000
0000
0000
0000
0100
0000
0000
0000
0000
0000
,
0010
1000
0010
0100
0001
0000
0010
0010
,
0000
0100
0100
0000
1010
0010
0000
0100
,
0000
0000
0001
0100
0010
1000
0001
0000
0000
0000
0000
0000
0100
0000
0100
0000
,
0000
0010
0010
0000
1010
1000
0000
0010
,
0000
0010
0100
0010
0000
0000
0001
0001
,
0000
0100
0100
0000
0010
0010
0000
1000
,
0000
0010
0010
0010
0000
0000
0100
0100
,
0000
0001
0001
0000
0100
0100
0000
1010
,
0000
0000
0010
0000
1000
0000
0010
0000
0000
0000
1000
0000
0100
0000
0010
0001
,
1000
0000
0010
0000
0100
0000
0001
0100
0010
0000
0001
0000
0010
0000
0100
0001
,
0100
0010
1000
0000
0010
0100
0001
1000
0100
0000
0000
0000
0011
0000
0100
0010
,
1000
0000
0010
0000
0100
0000
0001
1000
0010
0000
0100
0000
0001
0000
1000
0010
,
0100
0000
0001
0000
1000
0000
0010
0000
0100
0000
0001
0000
1000
0000
0010
0100
,
0001
0000
0100
0010
1000
0000
0100
0010
0001
0000
0100
0000
0010
0000
1000
0100
,
1000
0001
0100
0000
0010
0010
0100
0000
0000
0000
1000
0000
1010
0000
0100
0001
,
0100
0000
0000
0000
0010
0000
0000
0000
1010
0000
0000
0000
1000
0100
0010
0001
1000
0000
0010
0000
0100
0000
0000
0000
0001
0000
0100
0000
0010
0000
1000
0000
,
0100
0000
0000
0000
0010
0000
0001
0000
1000
0100
0010
0001
1000
0100
0010
0001
1000
0000
0000
0000
0000
0000
0000
0000
0000
0000
0000
0000
0000
0000
0000
0000
,
0000
0000
0000
0000
0011
0100
0100
0100
,
0011
0000
0100
1000
0100
1000
0001
0000
0110
0000
1000
0100
0010
0001
0100
0000
,
1010
0000
0100
0001
0100
0010
1000
0000
0101
0000
0010
1000
0100
1000
0001
0000
,
1010
0000
0100
0001
1000
0010
0100
0000
0011
0000
1000
0100
0010
0001
1000
0000
,
0110
0000
0001
0010
0100
1000
0001
0000
0110
0000
1000
0001
0100
0010
1000
0000
,
0110
0000
0001
0010
0100
1000
0001
0000
1100
0000
0010
0001
0100
0010
1000
0000
,
1001
0000
0100
0010
1000
0100
0010
0000
1001
0000
0010
0100
0001
1000
0100
0000
,
0011
0000
0100
1000
0001
0100
0010
0000
1001
0000
0010
0000
0010
0000
0010
0000
,
1001
0100
0100
0100
1001
0010
0010
0010
,
1001
0000
0100
0000
0100
0000
0100
0000
0011
0000
0100
1000
0100
0000
0010
0000
,
1001
0100
0010
0100
0011
0100
1000
0100
,
0011
0000
0100
0010
1000
0010
0100
0000
0001
0010
0100
1000
0001
0010
0100
0100
,
1000
0010
0100
0001
1000
0100
0010
0010
0001
0100
0010
1000
0100
0010
0001
0010
,
0100
0000
1000
0000
0001
0000
0100
0000
0010
0000
1000
0000
0100
0000
0010
0000
0001
1000
0100
0010
0001
0010
0100
1000
0001
0010
0001
0100
0010
1000
0001
0010
,
0100
1000
0001
0100
0010
1000
0100
0010
0100
1000
0001
0010
0100
1000
0001
0100
0010
1000
0100
0010
0001
0010
0100
1000
0001
0100
0010
1000
0100
0010
0001
1000
,
0010
0000
0000
0000
0000
0000
0000
0000
0100
0000
0001
0000
0100
0000
0010
0000
2000
0000
0000
0000
3000
0000
0000
0000
0000
0000
0000
0000
0001
0010
0100
1000
,
0001
0000
0000
0000
0000
0000
0000
0000
1000
0100
0010
0001
1000
0000
0000
0000
0000
0000
0000
0000
0001
0100
0010
1000
0001
0000
0000
0000
0000
0000
0000
0000
,
1000
0100
0010
0001
1000
0000
0000
0000
0000
0000
0000
0000
0010
0000
0100
0000
0001
0000
0000
0000
0000
0000
0000
0000
1001
0000
0000
0000
0010
0000
0000
0000
,
0010
0010
1100
0010
0010
0010
1001
0100
,
0100
0000
0000
0000
0100
0000
0000
0000
0010
0000
0000
0000
0100
0000
0010
0000
1000
0000
0100
0000
0010
0000
0001
0000
1000
0000
0000
0000
0100
0010
0001
1000
,
0010
0000
0000
0000
0000
0000
0000
0000
0100
0001
1000
0010
0100
0000
0000
0000
0000
0000
0000
0000
0001
0010
0100
0010
0001
0000
0000
0000
0000
0000
0000
0000
,
1000
0000
0000
0000
0000
0000
0010
0000
0000
0000
0000
0000
0100
0000
0000
0000
0000
0000
0001
0000
0000
0000
0000
0000
1000
0000
0000
0000
0000
0000
0000
0000
0000
0000
0000
0000
0010
0000
0000
0000
0000
0000
0000
0000
0000
0000
0000
0000
0100
0000
0000
0000
0000
0000
0000
0000
0000
0000
0000
0000
0001
0000
0000
0000
0000
0000
0000
0000
0000
0000
0000
0000
1000
0000
0000
0000
0000
0000
0000
0000
0000
0000
0000
0000
0100
0000
0000
0000
0000
0000
0000
0000
0000
0000
0000
0000
0010
0000
0000
0000
0000
0000
0000
0000
0000
0000
0000
0000
0000
0000
0000
0000
0000
0000
0000
0000
0000
0000
0000
0000
0000
0000
0000
0000
0000
0000
0000
0000
0000
0000
0000
0000
0000
0000
0000
0000
0000
0000
0000
0000
0000
0000
0000
0000
0001
0000
0000
0000
0000
0000
0000
0000
0100
0000
0000
0000
0000
0000
0000
0000
0010
0000
0000
0000
0000
0000
0000
0000
1000
0000
0000
0000
0000
0000
0000
0000
0001
0000
0000
0000
0000
0000
0000
0000
0100
0000
0000
0000
0000
0000
0000
0000
,
0010
0000
1000
0000
0010
0000
0100
0000
0001
0000
1000
0000
0100
0000
0000
0010
0000
0000
0101
0000
0000
0010
0000
0000
,
1000
0000
0000
0000
0000
0000
0000
0000
0000
0000
0000
0000
0001
0000
0000
0000
0000
0000
0000
0000
0000
0000
0000
0000
0100
0000
0000
0000
0000
0000
0000
0000
0000
0000
0000
0000
0001
0000
0000
0000
0000
0000
0000
0000
0000
0000
0000
0000
0100
0000
0000
0000
0000
0000
0000
0000
0010
0000
0000
0000
0000
0000
0000
0000
1000
0000
0000
0000
0000
0000
0000
0000
0100
0000
0000
0000
0000
0000
0000
0000
0010
0000
0000
0000
0000
0000
0000
0000
0001
0000
0000
0000
0000
0000
0000
0000
1000
0000
0000
0000
0000
0000
0000
0000
0000
0000
0000
0000
0000
0000
0000
0000
0000
0000
0000
0000
0000
0000
0000
0000
0000
0000
0000
0000
0000
0000
0000
0000
0000
0000
0000
0000
0000
0000
0000
0000
0000
0000
0000
0000
0000
0000
0000
0000
0000
0000
0000
0000
0000
0000
0000
0000
0000
0000
0000
0000
0000
0000
0000
0000
0000
0000
0000
0000
0000
0000
0000
0000
0001
0000
0000
0000
0000
0000
0010
0000
0000
0000
0000
0000
0100
0000
0000
0000
0000
0000
1000
0000
0000
0000
0000
0000
,
0001
0000
0000
0000
0000
0000
0000
0000
1000
0100
0010
0001
1000
0000
0000
0000
0000
0000
0000
0000
0010
0100
0001
1000
0010
0000
0000
0000
0000
0000
0000
0000
,
0100
0001
1000
0010
0100
0000
0000
0000
0002
0000
0000
0000
0000
0000
0000
0000
1003
0000
0010
0000
0000
0000
0100
0000
0000
0000
0000
0000
0001
0000
1000
0000
,
0010
0100
0001
0000
1100
0010
0110
0100
,
0001
0000
0000
0010
0000
0000
0100
0000
0000
1000
0000
0000
0001
0000
0000
0100
0000
0000
0010
0000
0000
1000
0000
0000
0100
0000
0010
0000
0001
0000
1000
0000
0000
0000
0000
0000
0000
0000
0000
0000
0000
0000
0010
0000
0000
0000
0000
0000
,
1000
0001
0000
0100
0010
0000
1000
0010
0000
0100
0001
0000
0100
0010
0000
1000
,
0400
0000
1300
0001
1000
0001
0100
0001
,
1000
0100
0000
0010
0001
0000
1000
0001
0020
0000
0000
0000
0000
0000
0000
0000
,
0000
0000
0000
0000
0031
0100
0010
1000
0001
0000
1000
0000
0010
0000
0100
0000
,
0100
0000
0000
0100
0000
0000
0001
1000
0100
0010
0000
0000
0010
0000
0000
0010
0000
0000
0001
0100
0010
1000
0000
0000
,
0001
0000
0000
0100
0000
0000
0010
1000
0100
0010
0001
0010
0100
1000
0001
0100
0010
1000
0001
0000
0000
0100
0000
0000
,
0010
0000
1000
0000
0011
0000
0100
0000
0010
0000
1000
0000
0110
0000
0001
0100
,
0010
1000
0100
0010
0001
0100
0010
1000
0001
0000
0000
0000
1001
0000
0010
0000
,
0010
0000
0000
0010
0000
0000
1000
0100
0010
0001
0000
0000
0100
0000
0000
0100
0000
0000
0010
1000
0001
0100
0000
0000
,
0010
0000
0000
1000
0000
0000
0100
0010
0001
0010
0100
1000
0001
0100
0010
1000
0100
0010
0001
0010
0100
1000
0001
0100
,
0010
0000
1000
0000
0010
0000
0100
0000
0001
0000
0100
0000
0020
0000
0000
2030
0000
0000
3020
0000
0000
0230
0000
0000
,
0301
0100
0010
0000
1000
0100
0010
0001
2000
0000
0000
0000
0000
0000
0000
0000
,
3000
0000
1101
0000
0000
0001
0100
0010
,
0010
0000
0000
0000
0000
0000
0010
0000
0000
0000
0000
0000
1000
0000
0100
0000
0010
0000
0001
0000
0010
0000
0100
0000
1000
0000
0000
0000
0000
0000
0000
0000
0000
0001
0000
0000
0100
0000
0000
0000
0000
0000
0010
0000
0000
0000
0000
0000
,
1000
0100
1000
0001
0200
0000
0310
0000
1000
0000
0010
0000
0200
0000
0301
0000
,
1000
0000
0000
0010
0000
0000
0100
0000
0000
0001
0000
0000
1000
0000
0000
0100
0000
0000
0010
0000
0000
0001
0000
0000
1000
0000
0010
0000
0100
0000
0001
0000
1000
0000
0100
0000
0010
0000
0000
0000
0000
0000
0001
0000
0000
0000
0000
0000
,
0100
0000
0000
0010
0000
0000
1000
0000
0000
0010
0000
0000
0100
0001
0100
0010
0000
0000
1000
0000
0000
0010
0000
0000
,
0100
0001
1000
0100
0010
0000
0001
1000
,
1001
0000
0010
0100
0010
0000
1000
0000
1010
0000
0100
0001
0100
0000
0010
0000
,
1000
0100
0010
0001
0100
0010
1000
0001
0200
0000
0000
0000
0310
0000
0000
0000
,
0000
0000
0000
0000
0010
0000
0000
0000
0000
0000
0010
0000
0001
0010
0100
1000
,
0010
0100
0001
1000
0100
0000
0000
0000
0010
0000
0000
0000
0001
0000
0001
0010
,
0100
1000
0001
0000
0100
0000
0000
0000
0000
0000
0010
0000
0000
0000
0000
0000
,
0000
0000
0000
0000
0000
0000
0000
0000
4004
0000
0000
0000
3003
0000
0010
0100
,
0001
1000
0100
0000
0010
0000
0000
0000
0000
0000
0001
0000
0000
0000
0000
0000
,
0100
0100
0010
0000
1000
0000
0000
0010
,
0000
0000
0010
0000
0000
0100
0000
0000
,
1000
1000
0001
0000
1001
0000
0000
0000
,
0000
0000
0100
0000
0000
0100
0000
0000
,
0001
0001
1000
0000
1001
0000
0000
1000
,
0000
0000
0100
0000
0000
0010
0000
0000
,
0001
0100
0010
1000
0001
0000
0000
0100
,
0000
0000
0001
0000
0000
1000
0000
0000
,
0001
0100
0010
0000
1000
0000
0000
0001
,
0000
0000
0100
0000
0000
0010
0000
0000
,
1000
1000
1000
1000
0000
0000
0010
0000
,
0000
0010
0000
0000
0010
0000
0000
0010
,
0000
0010
0000
0010
0000
0000
0100
0000
,
0000
0100
0000
0000
0010
0000
0000
0100
,
0000
0100
0000
0100
0000
0000
0010
0000
,
0000
1000
0000
0000
0001
0000
0000
0100
,
0000
0100
0000
0100
0000
0000
0010
0000
,
0000
1000
0000
0000
0001
0000
0000
0010
,
0000
0010
0000
0000
0010
0000
0100
0000
,
0000
1000
0000
0000
0100
0000
0000
1000
,
0000
1000
0000
1000
,
0000
1000
0000
0000
0100
0000
0000
0010
,
0000
0001
1000
0001
0000
0000
0100
0010
,
0000
0010
0100
0000
1000
0001
0000
0001
,
0000
1000
0010
1000
0000
0000
0001
0100
,
0000
0100
0010
0000
0000
1000
0000
1000
,
0000
1000
0010
1000
1010
0000
0000
0000
;
