#TITLE:あめふりこねこ;
#SUBTITLE:;
#ARTIST:ねこみみ魔法使い;
#TITLETRANSLIT:;
#SUBTITLETRANSLIT:;
#ARTISTTRANSLIT:nekomimi mahoutsukai;
#CREDIT:;
#BANNER:amefuri-bn.jpg;
#BACKGROUND:amefuri-bg.png;
#LYRICSPATH:;
#CDTITLE:cdtitle.png;
#MUSIC:amefuri.mp3;
#OFFSET:-0.083;
#SAMPLESTART:100.020;
#SAMPLELENGTH:12.000;
#SELECTABLE:YES;
#BPMS:0.000=118.000;
#STOPS:;
#BGCHANGES:;
// cache tags:
#FIRSTBEAT:8.000;
#LASTBEAT:225.000;
#SONGFILENAME:Songs/Japanese Collaboration Mix/amefuri/amefuri.sm;
#HASMUSIC:1;
#HASBANNER:1;
#MUSICLENGTH:115.382;
// end cache tags

//---------------dance-single - Copied from----------------
#NOTES:
     dance-single:
     Copied from:
     Challenge:
     10:
     0.789,0.756,0.130,0.303,0.910,587.000,15.000,35.000,0.000,0.000:
0000
0000
0000
0000
,
0000
0000
0000
0000
,
1000
0000
0000
0000
0000
0100
0010
0000
0000
0001
0000
0000
0100
0000
0000
0010
0000
0000
1000
0000
0010
1000
0000
0010
,
0100
0000
0001
0100
0000
0000
0010
0000
0000
1000
0000
0100
0010
0000
0000
0001
0000
1000
0100
0000
0000
1000
0000
0100
,
0000
0000
0010
0001
0000
0000
0100
0000
0010
0100
0000
0000
0001
0000
0000
1000
0000
0010
0000
0000
0100
0010
0000
0000
,
0100
0000
0000
0000
0000
0010
1000
0000
0000
0100
0000
0000
0010
0000
0000
0001
0000
0000
0100
0000
0001
1000
0000
0010
,
0100
0000
0000
0001
0000
0010
0100
0000
1000
0001
0000
1000
0010
0000
0100
0010
0000
0000
0001
0000
0000
1000
0000
0010
,
0100
0000
0000
0001
0000
0000
0100
0000
0010
0100
0000
0000
0001
0000
0000
0010
0000
0000
0100
0000
0000
1001
0000
0000
,
0010
0000
0000
0100
0000
0001
0010
0000
0100
1000
0000
0000
0010
0000
0000
0100
0000
0001
0010
0000
0001
0000
0000
0100
,
0000
0000
0010
1000
0000
0000
0100
0000
0010
0100
0000
0001
0000
0000
0000
1000
0000
0010
0100
0000
0000
0001
0000
0000
,
0010
0000
0000
0100
0000
0010
0001
0000
1000
0001
0000
1000
0001
0000
0000
0010
0000
0000
0100
0000
0000
1000
0000
0000
,
0010
0000
0100
0000
0000
0100
0010
0000
0000
1000
0000
0000
0001
0000
0000
0100
0000
0000
0010
0000
1000
0000
0000
0100
,
0000
0000
1000
0010
0000
0000
0100
0000
0010
0100
0000
0010
0100
0000
0001
0000
0000
0000
0100
0000
0000
0010
0000
0000
,
1000
0000
0000
0001
0000
0000
0100
0000
0001
1000
0000
0010
0100
0000
0000
0010
0000
0000
1001
0000
0000
0110
0000
0000
,
1000
0010
0100
0001
1000
0010
0100
0001
,
1000
0000
0010
1000
0000
0010
1000
0000
0001
0000
0000
1000
0001
0000
0000
0010
0000
0000
0100
0000
0000
1000
0000
0100
,
1000
0000
0000
0010
0000
0000
0100
0000
0000
0001
0000
1000
0000
0000
0001
0100
0000
0001
1000
0000
0000
0001
0000
0000
,
0100
0000
0000
0010
0000
0000
1000
0000
0000
0001
0000
0010
0100
0000
0000
1000
0000
0010
0000
0000
0100
0000
0000
0100
,
0000
0000
0100
0000
0000
0100
0010
0000
0000
1000
0000
0000
0001
0000
0000
0100
0000
0000
0020
0000
0000
0000
0000
0000
,
1030
0000
0010
1000
0000
0001
0100
0000
0000
0010
0000
0000
1000
0000
0000
0100
0000
0000
1000
0000
0000
0001
0000
0000
,
0100
0000
0010
1000
0000
0010
1000
0000
0001
0000
0000
1000
0001
0000
0000
0100
0000
0000
0010
0000
0000
1000
0000
0000
,
0001
0000
0000
1000
0000
0001
0100
0000
0000
0010
0000
1000
0000
0000
0001
1000
0000
1000
0010
0000
0000
0100
0000
0000
,
0010
0000
0000
1000
0000
0000
0001
0000
0000
0010
0000
0000
0100
0000
0000
1000
0000
0100
0000
0000
0010
0000
0000
0010
,
0000
0000
0010
0000
0000
0010
0001
0000
0000
1000
0000
0001
1000
0000
0001
1000
0000
0000
0220
0000
0000
0330
0000
0000
,
1000
0000
0001
1000
0000
0001
1000
0000
0001
1000
0000
0001
0000
0000
1000
0001
0000
1000
0002
0000
0000
0000
0003
0100
,
0000
0000
1001
0000
0000
1000
0001
0000
0000
0010
0000
0000
0100
0000
0000
0010
0000
0000
1000
0000
0000
0001
0000
0000
,
0100
0010
1000
0100
0010
0001
0100
1000
,
0100
0000
0010
0100
0000
0010
0100
0000
0010
0100
0000
0010
0000
0000
0100
0010
0000
0100
0020
0000
0000
0000
0030
1000
,
0000
0000
0110
0000
0000
0100
0010
0000
0000
1000
0000
0000
0001
0000
0000
0100
0000
0000
0010
0000
0000
1000
0000
0000
,
0010
0001
0100
0010
1000
0001
0110
1001
,
0020
0000
1000
0000
0000
0000
2030
0000
0000
3002
0000
0000
0203
0000
0000
0320
0000
0000
1000
0000
0000
1000
0000
0000
,
0200
0030
0000
0001
0000
0000
0001
0000
0000
0320
0000
1000
0000
0000
0000
2030
0000
0000
3200
0000
0000
0320
0000
0000
,
0032
0100
0100
0203
0010
0010
0302
2003
,
3020
0000
0000
0230
0000
0000
0302
0000
0000
2003
0000
0000
3200
0000
0000
0010
0300
0000
0002
0000
0000
1000
0000
0000
,
2003
3020
0000
0130
1010
0011
2020
0000
,
0000
3030
0000
0022
0000
0000
0000
0000
0000
0033
0000
0000
1000
0000
0010
1000
0000
0010
1000
0000
0001
0100
0000
0001
,
0100
0000
0001
0100
0000
0010
0100
0000
0010
1000
0000
0010
1000
0000
0010
0100
0000
0010
0100
0000
0010
1000
0000
0010
,
0100
0000
0001
0000
0000
1000
0100
0000
0010
0001
0000
1000
0000
0000
0001
0010
0000
0100
1000
0000
0100
1000
0000
0100
,
1000
0000
0100
0010
0000
0001
0010
0000
0001
0020
0000
0000
0130
0000
1000
0100
0000
1000
0100
0000
0010
0100
0000
0010
,
0001
0000
0010
0001
0000
0100
0001
0000
1000
0000
0000
0001
0000
0000
1000
0100
0000
1000
0100
0000
1000
0100
0000
1000
,
0010
0000
1000
0010
0000
0000
1000
0000
0000
0010
0000
1000
0010
0000
0000
1000
0000
0000
0001
0000
0100
0001
0000
0100
,
0001
0000
0010
0100
0000
0000
1001
0000
0000
0110
0000
0000
0000
0001
0000
0010
0000
0100
0000
1000
0000
0100
0000
0000
,
0010
0000
0000
1000
0000
0000
0001
0000
0000
0100
0000
0010
0000
0100
0000
0010
0000
0100
0000
0010
0000
0100
0000
0010
,
1000
0000
0001
0000
0000
1000
0001
0000
0100
0010
0000
0100
0010
0000
1000
0100
0000
0000
0010
0000
0000
0001
0000
0000
,
0100
0000
0000
0010
0000
1000
0100
0000
0000
1000
0000
0000
0001
0000
0100
0001
0000
0000
0100
0000
0000
0010
0000
1000
,
0010
0000
0000
0100
0000
0000
0001
0000
1000
0001
0000
1000
0001
0000
0100
0010
0000
0000
1000
0000
0000
0100
0000
0000
,
0010
0000
0001
0010
0000
0100
0010
0000
0000
0100
0000
0010
0100
0000
1000
0100
0000
0000
1000
0000
0100
0010
0000
0001
,
1000
0000
0000
0001
0000
1000
0100
0000
0010
0001
0000
0000
1000
0000
0010
0100
0000
0010
0200
0000
0000
0301
0000
1000
,
0010
0000
1000
0001
0000
0100
0010
0000
0100
0010
0000
1000
0001
0000
0100
0010
0000
2000
0000
0000
0010
0000
0000
0000
,
3001
0000
0000
0100
0000
0010
1000
0000
0000
0001
0000
0010
0100
0000
1000
0001
0000
0000
1000
0000
0001
0100
0000
0010
,
1000
0000
0100
0010
0000
0000
0002
0000
0000
1003
0000
0100
0010
0000
0000
0001
0000
0100
0010
0000
0000
1000
0000
0100
,
0000
0000
0100
0001
0000
0100
1000
0000
0001
1000
0000
0001
0100
0000
0010
0100
0000
0001
0010
0000
0100
1000
0000
0010
,
0100
0000
0000
0001
0000
1000
0010
0000
1000
0010
0000
0000
0100
0000
0000
0001
0000
0000
1000
0000
0001
0100
0000
0001
,
0100
0000
0010
1000
0000
0001
0100
0000
0010
1000
0000
0100
0010
0000
0001
0100
0000
0001
0100
0000
0010
1000
0000
0010
,
0100
0000
0000
0000
0000
0000
0000
0000
0000
0000
0000
0000
0000
0000
0000
0000
0000
0000
0000
0000
1000
0001
1000
0001
,
1000
0000
0010
0100
0000
0010
0100
0000
0001
0010
0000
0100
1000
0000
0010
0100
0000
0010
1000
0000
0001
0100
0000
0000
,
0010
0000
1000
0001
0000
0000
1001
0000
0000
0000
0000
0000
0000
0000
0000
0000
0000
0000
0000
0000
0000
0000
0000
0000
;
