#TITLE:Paranoid;
#SUBTITLE:Oh Henry!;
#ARTIST:Xavi BCN, Ruboy & Oscar Elemento;
#TITLETRANSLIT:;
#SUBTITLETRANSLIT:;
#ARTISTTRANSLIT:;
#CREDIT:;
#BANNER:../Fallback-Ban.png;
#BACKGROUND:../Fallback-BG.png;
#LYRICSPATH:;
#CDTITLE:../~CDTitle-@@.png;
#MUSIC:Xavi BCN, Ruboy & Oscar Elemento - Paranoid.ogg;
#OFFSET:1.372;
#SAMPLESTART:134.067;
#SAMPLELENGTH:23.158;
#SELECTABLE:YES;
#BPMS:0.000=171.000;
#STOPS:;
#BGCHANGES:;
// cache tags:
#FIRSTBEAT:4.000;
#LASTBEAT:1236.000;
#SONGFILENAME:Songs/Oh Henry! Mad Stamina/Paranoid (16+)/Paranoid.sm;
#HASMUSIC:1;
#HASBANNER:1;
#MUSICLENGTH:432.000;
// end cache tags

//---------------dance-single - @@----------------
#NOTES:
     dance-single:
     @@:
     Challenge:
     16:
     1.000,1.000,0.005,0.185,1.000,4754.000,2.000,80.000,4.000,0.000:
0000
0000
0000
0000
,
0001
0010
0100
1000
0001
0010
0001
1000
0010
0100
0001
1000
0010
1000
0001
0100
,
0001
0010
0100
1000
0001
0010
0001
1000
0100
1000
0001
0100
0010
1000
0010
0100
,
0001
0010
0100
1000
0100
0010
0100
1000
0001
0100
0010
1000
0001
1000
0010
0100
,
0001
0010
0100
0010
0001
1000
0100
0010
0001
1000
0100
1000
0001
0010
0100
1000
,
0010
0100
0001
1000
0010
1000
0001
0100
0001
1000
0100
0010
0001
0010
0100
1000
,
0010
0100
0001
1000
0010
1000
0001
0100
0010
1000
0001
0010
0001
1000
0100
0010
,
0001
0100
0010
1000
0010
0100
0001
0100
0010
1000
0001
1000
0100
0010
0100
1000
,
0010
0100
0001
1000
0010
1000
0001
0100
0001
1000
0010
1000
0001
0100
0010
1000
,
0100
0010
0001
1000
0100
1000
0001
0010
0001
0100
0010
1000
0001
0100
0001
0010
,
0100
1000
0100
0010
0001
1000
0100
1000
0010
0100
0001
1000
0010
1000
0001
0100
,
0001
0010
0100
1000
0001
1000
0100
0010
0001
0100
0010
1000
0010
0100
0001
1000
,
0001
0010
0100
1000
0001
1000
0100
0010
0001
0010
0100
0010
0001
1000
0100
0010
,
0001
1000
0100
1000
0001
0100
0001
1000
0100
0010
0001
1000
0010
1000
0001
0010
,
0001
1000
0010
0100
0001
1000
0100
1000
0001
0100
0001
1000
0010
1000
0001
0010
,
0001
1000
0010
1000
0001
1000
0100
0010
0001
1000
0001
0100
0001
1000
0010
0100
,
0001
0000
0000
0010
0000
0000
0100
0000
0000
1000
0000
0000
0010
0000
0000
0000
0000
0000
0100
0000
0000
0000
0000
0000
0001
0000
0000
0000
0001
0000
0000
0000
1000
0000
0000
0000
0000
0000
0000
0000
0000
0000
0000
0000
0000
0000
0000
0000
,
0001
0010
0100
1000
0001
0010
0001
1000
0001
0100
0010
1000
0001
0100
0001
1000
,
0100
0010
0100
1000
0001
0010
0001
1000
0010
0100
0010
1000
0100
0010
0100
1000
,
0001
0100
0010
1000
0010
0100
0001
1000
0001
0010
0100
1000
0100
0010
0001
1000
,
0001
0100
0010
1000
0010
0100
0001
1000
0001
0010
0100
1000
0010
0100
0001
1000
,
0001
0010
0001
1000
0100
0010
0001
1000
0001
0100
0010
0100
0001
1000
0010
1000
,
0001
0010
0100
1000
0100
0010
0001
1000
0001
0100
0010
1000
0100
0010
0001
1000
,
0001
0100
0010
1000
0001
0100
0001
1000
0100
0010
0001
1000
0100
0010
0100
1000
,
0001
0100
0001
1000
0010
0100
0001
1000
0100
0010
0100
1000
0010
0100
0001
1000
,
0001
0010
0100
1000
0001
0010
0100
0010
0001
0100
0010
1000
0001
0100
0010
0100
,
0001
0010
0100
0010
0001
1000
0100
0010
0001
0100
0010
1000
0100
0010
0100
1000
,
0001
0100
0010
1000
0010
0100
0010
1000
0100
0010
0001
1000
0100
0010
0100
1000
,
0010
0100
0001
0100
0010
1000
0010
0100
0001
0010
0100
1000
0010
0100
0001
1000
,
0001
0100
0010
0100
0001
1000
0100
0010
0100
1000
0010
0100
0010
1000
0001
0100
,
0001
1000
0010
0100
0001
0010
0001
1000
0100
0010
0001
0100
0010
0100
0001
1000
,
0100
0010
0001
0100
0010
1000
0001
0010
0100
1000
0010
0100
0001
1000
0100
0010
,
0001
0000
0000
1010
0000
0000
1000
1000
0001
0000
0000
0000
,
0001
0010
0001
0100
0010
1000
0001
0100
0001
1000
0100
1000
0001
0010
0100
1000
,
0010
0100
0001
0010
0001
1000
0100
0010
0001
1000
0010
1000
0001
0100
0010
1000
,
0100
0010
0001
0100
0010
1000
0001
0100
0001
1000
0100
0010
0001
1000
0100
1000
,
0010
0100
0001
0010
0001
1000
0100
0010
0001
1000
0001
0100
0001
1000
0010
1000
,
0100
1000
0010
0100
0001
0100
0010
1000
0001
0010
0100
1000
0100
0010
0100
1000
,
0010
0100
0001
0010
0001
1000
0100
1000
0001
0100
0010
0100
0001
1000
0010
1000
,
0100
0010
0001
0100
0010
1000
0010
0100
0001
1000
0100
0010
0001
1000
0100
1000
,
0010
0100
0001
0010
0100
1000
0001
0010
0001
1000
0010
1000
0001
0100
0010
1000
,
0100
0010
0001
0100
0001
1000
0010
0100
0001
1000
0100
1000
0001
0010
0100
1000
,
0010
0100
0001
0010
0100
1000
0001
0010
0001
1000
0010
0100
0001
1000
0010
1000
,
0100
0010
0001
0100
0001
1000
0010
0100
0001
1000
0001
0010
0001
1000
0100
1000
,
0010
1000
0100
0010
0001
0010
0100
1000
0001
0100
0010
1000
0010
0100
0010
1000
,
0100
0010
0001
0100
0001
1000
0010
1000
0001
0010
0100
0010
0001
1000
0100
1000
,
0010
0100
0001
0010
0100
1000
0100
0010
0001
1000
0010
0100
0001
1000
0100
1000
,
0010
0100
0001
1000
0010
1000
0001
0100
0001
1000
0001
0010
0100
1000
0001
0010
,
0001
0000
0000
1000
0000
0000
0010
0000
0000
0100
0000
0000
0001
0000
0000
0010
0000
0000
0100
0000
0000
1000
0000
0000
0010
0000
0000
0100
0000
0000
0001
0000
0000
1000
0000
0000
0001
0000
1000
0000
0001
0000
1000
0000
0001
0000
1000
0000
,
0001
0010
0100
0010
0001
0100
0010
1000
0001
0010
0100
0010
0001
0100
0010
1000
,
0010
0100
0001
0100
0010
1000
0100
1000
0010
0100
0001
0100
0010
1000
0100
1000
,
0001
0010
0100
1000
0010
0100
0001
1000
0001
0010
0100
1000
0010
0100
0001
1000
,
0001
0000
0000
0010
0000
0000
0100
0000
1000
0000
0001
0000
0010
0000
0000
0001
0000
0000
1000
0000
0010
0000
0100
0000
0001
0000
0000
1000
0000
0000
0001
0000
0010
0000
0100
0000
1000
0000
0000
0001
0000
0000
1000
0000
0010
0000
0100
0000
,
0001
0100
0010
0100
0001
0010
0100
1000
0001
0100
0010
0100
0001
0010
0100
1000
,
0001
0100
0010
1000
0100
0010
0001
1000
0001
0100
0010
1000
0100
0010
0001
1000
,
0001
0010
0100
1000
0010
0100
0010
1000
0001
0010
0100
1000
0010
0100
0010
1000
,
0100
0000
0000
0010
0000
0000
0001
0000
0000
1000
0000
0000
0010
0000
0000
0100
0000
0000
0001
0000
1000
0000
0100
0000
0010
0000
0000
0001
0000
0000
1000
0000
0000
0100
0000
0000
1000
0000
0000
0001
0000
0000
0100
0000
0010
0000
1000
0000
,
0001
0100
0010
0100
0001
0010
0001
1000
0001
0100
0010
0100
0001
0010
0001
1000
,
0100
0010
0001
0010
0100
1000
0010
1000
0100
0010
0001
0010
0100
1000
0010
1000
,
0001
0100
0010
1000
0100
0010
0001
1000
0001
0100
0010
1000
0100
0010
0001
1000
,
0001
0010
0100
0010
0001
0100
0010
0100
0001
0010
0100
0010
0001
0100
0010
0100
,
0001
1000
0010
0100
0001
1000
0100
1000
0001
1000
0010
0100
0001
1000
0100
1000
,
0001
0010
0100
0010
0001
1000
0010
1000
0001
0010
0100
0010
0001
1000
0010
1000
,
0001
0100
0010
1000
0001
0010
0100
1000
0001
0100
0010
1000
0001
0010
0100
1000
,
0001
0000
1000
0000
0001
0000
1000
0000
0001
0000
1000
0000
0001
0000
1000
0000
0001
0000
1000
0000
0001
0000
1000
0000
0001
0000
1000
0000
0001
0000
1000
0000
0001
0000
1000
0000
0001
0000
0000
1000
0000
0000
0010
0000
0000
0100
0000
0000
,
0001
1000
0010
1000
0001
0010
0100
0010
0001
1000
0010
1000
0001
0010
0100
1000
,
0001
0100
0010
1000
0001
0010
0001
1000
0001
0100
0010
1000
0001
1000
0100
1000
,
0010
0100
0001
1000
0001
0010
0001
1000
0010
0100
0001
1000
0001
0010
0100
1000
,
0001
0100
0010
1000
0001
0010
0001
1000
0010
0100
0001
1000
0001
0010
0100
1000
,
0010
0100
0010
1000
0001
0010
0001
1000
0010
0100
0010
1000
0001
0010
0100
1000
,
0001
0100
0001
1000
0001
0010
0100
1000
0001
0100
0010
1000
0001
0010
0100
0010
,
0001
0100
0010
0100
0001
1000
0100
1000
0001
1000
0010
0100
0001
1000
0100
1000
,
0001
0100
0010
0100
0001
1000
0001
0010
0001
1000
0010
1000
0100
0010
0001
0100
,
0001
0010
0100
1000
0001
0100
0010
0100
0001
1000
0100
1000
0001
0100
0010
1000
,
0001
0010
0100
1000
0001
0100
0001
1000
0001
0010
0100
1000
0001
1000
0010
1000
,
0100
0010
0001
1000
0001
0100
0001
1000
0100
0010
0001
1000
0001
0100
0010
1000
,
0001
0010
0100
1000
0001
0100
0001
1000
0100
0010
0001
1000
0001
0100
0010
1000
,
0100
0010
0100
1000
0001
0100
0001
1000
0100
0010
0100
1000
0001
0100
0010
1000
,
0001
0010
0001
1000
0001
0100
0010
1000
0001
0010
0100
1000
0001
0100
0010
0100
,
0001
0010
0100
0010
0001
1000
0010
1000
0001
1000
0100
0010
0001
1000
0010
1000
,
0001
1000
0001
1000
0001
1000
0001
1000
0001
1000
0001
1000
0001
1000
0001
1000
0001
1000
0001
1000
0001
1000
0001
1000
,
0001
0100
0001
0100
0001
0100
0001
0100
,
0010
1000
0010
1000
0001
1000
0001
1000
,
0100
1000
0100
1000
0100
1000
0100
1000
,
0100
0010
0100
0010
0001
0010
0001
0010
,
0001
1000
0001
1000
0001
1000
0001
1000
,
0010
1000
0010
1000
0001
1000
0001
1000
,
0002
0000
0000
0000
0000
0000
0003
0000
0000
0000
0000
0000
0000
0000
0000
0000
0000
0000
0000
0000
0000
0000
0000
0000
0020
0000
0000
0000
0000
0000
0030
0000
0000
0000
0000
0000
0000
0000
0000
0000
0000
0000
0000
0000
0000
0000
0000
0000
0002
0000
0000
0000
0000
0000
0003
0000
0000
0000
0000
0000
0000
0000
0000
0000
0000
0000
0000
0000
0000
0000
0000
0000
0020
0000
0000
0000
0000
0000
0030
0000
0000
0000
0000
0000
0000
0000
0000
0000
0000
0000
0000
0000
0000
0000
0000
0000
0002
0000
0000
0000
0000
0000
0000
0000
0003
0000
0000
0000
0000
0000
0000
0000
0000
0000
0000
0000
0000
0000
0000
0000
0020
0000
0000
0000
0000
0000
0000
0000
0030
0000
0000
0000
0000
0000
0000
0000
0000
0000
0000
0000
0000
0000
0000
0000
0002
0000
0000
0000
0000
0000
0000
0000
0003
0000
0000
0000
0000
0000
0000
0000
0000
0000
0000
0000
0000
0000
0000
0000
0020
0000
0000
0000
0000
0000
0000
0000
0030
0000
0000
0000
0000
0000
0000
0000
0000
0000
0000
0000
0000
0000
0000
0000
,
0200
0000
0000
0300
0000
0000
2000
0000
0000
3000
0000
0000
0200
0000
0000
0300
0000
0000
2000
0000
0000
3000
0000
0000
0002
0000
0000
0000
0003
0000
0200
0000
0000
0000
0300
0000
0002
0000
0000
0000
0003
0000
0200
0000
0000
0000
0300
0000
,
0002
2003
3002
2003
3002
2003
3002
2003
,
3200
2300
3200
2300
3002
0023
0032
0023
,
0032
2003
3002
2003
3002
2003
3002
2003
,
3020
2030
3020
2030
3002
0203
0302
0203
,
0302
2003
3002
2003
3002
2003
3002
2003
,
3002
0023
0032
0023
0230
2300
3200
2300
,
3002
0203
0302
0203
0302
0203
0302
0203
,
0320
2030
3020
2030
3002
2003
3002
2003
,
3001
1000
0100
1000
0001
1000
0010
1000
0001
0100
0010
1000
0001
0100
0010
0100
,
0001
1000
0001
0010
0001
1000
0001
0100
0001
0010
0100
1000
0001
0010
0001
0100
,
0001
1000
0010
1000
0001
1000
0100
1000
0001
0010
0100
0010
0001
1000
0100
0010
,
0001
1000
0001
0100
0001
1000
0001
0010
0100
1000
0010
0100
0001
1000
0100
0010
,
0001
1000
0010
1000
0001
1000
0100
1000
0001
0010
0100
1000
0001
0010
0100
0010
,
0001
1000
0001
0100
0001
1000
0001
0010
0100
1000
0010
1000
0001
0100
0001
0010
,
0001
1000
0010
1000
0001
1000
0100
1000
0001
0010
0100
1000
0001
0010
0100
0010
,
0001
1000
0001
0100
0001
1000
0001
0010
0001
0100
0010
1000
0001
0100
0001
0010
,
0001
1000
0010
1000
0001
1000
0100
1000
0001
0010
0100
1000
0001
0010
0100
0010
,
0001
1000
0001
0100
0001
1000
0001
0010
0001
0100
0010
1000
0001
0100
0001
0010
,
0001
1000
0100
1000
0001
1000
0010
1000
0001
0100
0010
0100
0001
1000
0010
0100
,
0001
1000
0001
0010
0001
1000
0001
0100
0010
1000
0100
0010
0001
1000
0010
0100
,
0001
1000
0100
1000
0001
1000
0010
1000
0001
0100
0010
1000
0001
0100
0010
0100
,
0001
1000
0001
0010
0001
1000
0001
0100
0010
1000
0100
1000
0001
0010
0001
0100
,
0001
0100
0001
0100
0001
0100
0001
0100
0001
0100
0001
0100
0001
0100
0001
0100
0001
0100
0001
0100
0001
0100
0001
0100
,
0010
1000
0100
0010
0001
0100
0010
1000
0100
0010
0001
0100
0001
0000
0000
0000
,
1000
0100
0010
0001
0100
0010
1000
0100
1000
0001
0010
0100
1000
0010
0100
0001
,
0010
0001
0100
0010
1000
0100
0010
0001
0010
0100
1000
0010
0100
0001
0010
0001
,
1000
0010
1000
0100
0010
0001
0100
0001
1000
0010
0100
0001
0010
0100
1000
0010
,
0100
0001
0010
0001
0100
0010
1000
0010
0100
0001
0010
0001
0100
0010
1000
0100
,
1000
0001
0010
0100
1000
0010
0100
0001
0010
0100
0010
0001
0100
0010
1000
0100
,
1000
0010
0100
0001
0010
0001
0100
0010
1000
0100
1000
0001
0010
0100
1000
0010
,
0100
0001
0010
0100
0010
0001
0100
0010
1000
0100
0010
0100
1000
0010
0100
0001
,
1000
0100
0010
0001
0100
0010
1000
0001
1000
0100
0010
0001
0100
0010
1000
0100
,
1000
0001
0010
0100
1000
0010
0100
0001
0100
0010
1000
0100
0010
0001
0100
0001
,
1000
0100
1000
0010
0100
0001
0010
0001
1000
0100
0010
0001
0100
0010
1000
0100
,
0010
0001
0100
0001
0010
0100
1000
0100
0010
0001
0100
0001
0010
0100
1000
0010
,
1000
0001
0100
0010
1000
0100
0010
0001
0100
0010
0100
0001
0010
0100
1000
0010
,
1000
0100
0010
0100
1000
0001
0010
0100
1000
0010
0100
0001
1000
0001
0100
0010
,
1000
0100
0010
0001
1000
0001
0010
0100
1000
0010
0100
0001
0100
0010
1000
0010
,
0100
0001
0010
0001
1000
0100
1000
0010
0100
0001
0010
0001
0100
0010
1000
0001
,
1000
0000
0100
0000
1000
0000
0100
0000
1000
0000
0100
0000
1000
0000
0100
0000
1000
0000
0100
0000
1000
0000
0100
0000
1000
0000
0100
0000
1000
0000
0100
0000
1000
0000
0100
0000
1000
0000
0000
0001
0000
0000
0100
0000
0000
0001
0000
0000
,
1000
0100
0010
0100
1000
0010
0100
0001
1000
0100
0010
0100
1000
0010
0100
0001
,
1000
0100
0010
0100
1000
0010
0100
0010
1000
0100
0010
0100
1000
0010
0100
0010
,
1000
0010
0100
0001
0010
0100
1000
0001
1000
0010
0100
0001
0010
0100
1000
0001
,
1000
0100
0010
0001
0100
0001
1000
0010
1000
0100
0010
0001
0100
0001
1000
0010
,
1000
0001
0010
0001
0100
0010
0100
0001
1000
0001
0010
0001
0100
0010
0100
0001
,
1000
0001
0100
0001
0010
0100
1000
0010
1000
0001
0100
0001
0010
0100
1000
0010
,
1000
0001
1000
0100
0010
0100
1000
0010
1000
0001
1000
0100
0010
0100
1000
0010
,
1000
0001
0100
0010
0100
0001
0010
0100
1000
0001
0100
0010
0100
0001
0010
0100
,
1000
0100
0010
0100
1000
0010
0100
0010
1000
0100
0010
0100
1000
0010
0100
0010
,
1000
0010
0100
0001
0010
0100
1000
0001
1000
0010
0100
0001
0010
0100
1000
0001
,
1000
0100
0010
0001
0100
0001
1000
0010
1000
0100
0010
0001
0100
0001
1000
0010
,
1000
0001
0010
0001
0100
0010
0100
0001
1000
0001
0010
0001
0100
0010
0100
0001
,
1000
0100
0010
0100
1000
0010
0100
0001
1000
0100
0010
0100
1000
0010
0100
0001
,
1000
0001
0100
0001
0010
0100
1000
0010
1000
0001
0100
0001
0010
0100
1000
0010
,
1000
0001
1000
0100
0010
0100
1000
0010
1000
0001
1000
0100
0010
0100
1000
0010
,
0100
0001
0100
0001
0100
0001
0100
0001
0100
0001
0100
0001
0100
0001
0100
0001
0100
0001
0100
0001
0100
0001
0100
0001
,
0100
0010
0100
0001
1000
0010
1000
0001
1000
0100
0010
0001
1000
0100
1000
0001
,
0100
0010
0100
0001
1000
0010
1000
0001
0010
0100
0010
0001
0100
0010
0100
0001
,
1000
0100
0010
0001
0010
0100
1000
0001
1000
0010
0100
0001
0100
0010
1000
0001
,
1000
0100
0010
0001
0010
0100
1000
0001
1000
0010
0100
0001
0010
0100
1000
0001
,
1000
0010
1000
0001
0100
0010
1000
0001
1000
0100
0010
0100
1000
0001
0010
0001
,
1000
0010
0100
0001
0100
0010
1000
0001
1000
0100
0010
0001
0100
0010
1000
0001
,
1000
0100
0010
0001
1000
0100
1000
0001
0100
0010
1000
0001
0100
0010
0100
0001
,
1000
0100
1000
0001
0010
0100
1000
0001
0100
0010
0100
0001
0010
0100
1000
0001
,
1000
0010
0100
0001
1000
0010
0100
0010
1000
0100
0010
0001
1000
0100
0010
0100
,
1000
0010
0100
0010
1000
0001
0100
0010
1000
0100
0010
0001
0100
0010
0100
0001
,
1000
0100
0010
0001
0010
0100
0010
0001
0100
0010
1000
0001
0100
0010
0100
0001
,
0010
0100
1000
0100
0010
0001
0010
0100
1000
0010
0100
0001
0010
0100
1000
0001
,
1000
0100
0010
0100
1000
0001
0100
0010
0100
0001
0010
0100
0010
0001
1000
0100
,
1000
0001
0010
0100
1000
0010
1000
0001
0100
0010
1000
0100
0010
0100
1000
0001
,
0100
0010
1000
0100
0010
0001
1000
0010
0100
0001
0010
0100
1000
0001
0100
0010
,
1000
0100
1000
0010
0100
0001
0010
0001
0100
0010
1000
0100
0010
0001
0100
0010
,
1000
0100
1000
0001
0100
0010
1000
0001
1000
0100
0010
0001
1000
0010
1000
0001
,
0010
0100
0010
0001
1000
0010
0100
0010
1000
0001
0010
0001
1000
0010
0100
0001
,
0010
0100
1000
0001
0100
0010
0100
0001
1000
0100
1000
0001
1000
0010
0100
0001
,
1000
0100
0010
0001
1000
0010
1000
0001
0010
0100
1000
0001
0100
0010
0100
0001
,
0010
0100
1000
0001
1000
0010
0100
0010
1000
0001
0010
0001
1000
0010
0100
0001
,
1000
0100
0010
0001
1000
0010
1000
0001
0010
0100
1000
0001
0100
0010
0100
0001
,
0010
0100
0010
0001
1000
0001
0100
0010
1000
0001
0010
0001
1000
0010
0100
0001
,
1000
0100
0010
0001
0100
0010
1000
0001
1000
0100
0010
0001
0100
0010
1000
0100
,
1000
0010
1000
0001
0010
0100
1000
0001
1000
0010
0100
0001
1000
0100
1000
0001
,
0100
0010
0100
0001
1000
0100
0010
0100
1000
0001
0100
0001
1000
0100
0010
0001
,
0100
0010
1000
0001
0010
0100
0010
0001
1000
0010
1000
0001
1000
0100
0010
0001
,
1000
0010
0100
0001
1000
0100
1000
0001
0100
0010
1000
0001
0010
0100
0010
0001
,
0100
0010
1000
0001
1000
0100
0010
0100
1000
0001
0100
0001
1000
0100
0010
0001
,
1000
0010
0100
0001
1000
0100
1000
0001
0100
0010
1000
0001
0010
0100
0010
0001
,
0100
0010
0100
0001
1000
0001
0010
0100
1000
0001
0100
0001
1000
0100
0010
0001
,
1000
0001
1000
0001
1000
0001
1000
0001
1000
0001
1000
0001
1000
0001
1000
0001
1000
0001
1000
0000
0000
0000
0000
0000
,
0001
0100
0010
0100
0001
0010
0100
1000
0001
0100
0010
0100
0001
0010
0100
1000
,
0010
0100
0010
1000
0100
0010
0001
1000
0010
0100
0010
1000
0100
0010
0001
1000
,
0001
0100
0010
1000
0100
0010
0001
1000
0001
0100
0010
1000
0100
0010
0001
1000
,
0001
0100
0010
0100
0001
0010
0100
1000
0001
0100
0010
0100
0001
0010
0100
1000
,
0100
0010
0100
1000
0010
0100
0001
1000
0100
0010
0100
1000
0010
0100
0001
1000
,
0100
1000
0001
0010
0001
0100
0010
1000
0100
1000
0001
0010
0001
0100
0010
1000
,
0100
0010
0001
1000
0001
0100
0010
1000
0100
0010
0001
1000
0001
0100
0010
1000
,
0001
0010
0100
1000
0010
0100
0001
1000
0001
0010
0100
1000
0010
0100
0001
1000
,
0001
0010
0100
0010
0001
0100
0010
1000
0001
0010
0100
0010
0001
0100
0010
1000
,
0100
0010
0100
1000
0010
0100
0001
1000
0100
0010
0100
1000
0010
0100
0001
1000
,
0001
0010
0100
1000
0010
0100
0001
1000
0001
0010
0100
1000
0010
0100
0001
1000
,
0001
0010
0100
0010
0001
0100
0010
1000
0001
0010
0100
0010
0001
0100
0010
1000
,
0010
0100
0010
1000
0100
0010
0001
1000
0010
0100
0010
1000
0100
0010
0001
1000
,
0010
1000
0001
0100
0001
0010
0100
1000
0010
1000
0001
0100
0001
0010
0100
1000
,
0010
0100
0001
1000
0001
0010
0100
1000
0010
0100
0001
1000
0001
0010
0100
1000
,
0001
0000
1000
0000
0001
0000
1000
0000
0001
0000
1000
0000
0001
0000
1000
0000
0001
0000
1000
0000
0001
0000
1000
0000
0001
0000
1000
0000
0001
0000
1000
0000
0001
0000
1000
0000
0001
0000
0000
0010
0000
0000
0001
0000
0000
0100
0000
0000
,
0010
1000
0100
0010
0001
0010
0100
1000
0001
0010
0001
1000
0010
0100
0010
1000
,
0001
0010
0100
1000
0100
0010
0100
1000
0001
0010
0100
1000
0001
0100
0001
0010
,
0100
1000
0001
0100
0010
0100
0001
1000
0010
0100
0010
1000
0001
0010
0100
0010
,
0001
1000
0001
0100
0010
0100
0001
1000
0010
1000
0001
0100
0001
1000
0010
0100
,
0001
0010
0100
0010
0001
1000
0100
1000
0001
0010
0001
1000
0010
0100
0001
0100
,
0010
1000
0001
0010
0100
1000
0001
0010
0001
1000
0100
0010
0001
1000
0010
1000
,
0001
0100
0010
0100
0001
1000
0010
0100
0010
1000
0001
0010
0100
1000
0100
0010
,
0001
0100
0010
1000
0001
0100
0010
0100
0001
1000
0010
1000
0100
0010
0001
0100
,
0001
0010
0100
1000
0100
0010
0100
1000
0001
0010
0100
0010
0001
0100
0010
1000
,
0001
0010
0001
1000
0100
1000
0001
0010
0100
1000
0001
0010
0001
1000
0010
0100
,
0001
0100
0010
1000
0001
0100
0010
0100
0001
1000
0010
0100
0001
0010
0100
1000
,
0001
0100
0010
0100
0001
1000
0010
0100
0010
1000
0001
0100
0010
1000
0100
0010
,
0001
0010
0100
0010
0001
1000
0100
1000
0001
0010
0100
0010
0001
1000
0010
1000
,
0001
0010
0100
1000
0001
0010
0100
0010
0001
1000
0100
1000
0001
0100
0001
1000
,
0001
0100
0010
1000
0100
0010
0100
1000
0001
0100
0010
1000
0100
1000
0010
0100
,
0001
0010
0100
1000
0010
0100
0010
1000
0100
0010
0001
0100
0010
0100
0001
0010
,
0001
1000
0010
1000
0001
1000
0100
1000
0001
0010
0100
1000
0001
0010
0100
0010
,
0001
1000
0001
0100
0001
1000
0001
0010
0001
0100
0010
1000
0001
0100
0001
0010
,
0001
1000
0100
1000
0001
1000
0010
1000
0001
0100
0010
0100
0001
1000
0010
0100
,
0001
1000
0001
0010
0001
1000
0001
0100
0010
1000
0100
0010
0001
1000
0010
0100
,
0001
1000
0100
1000
0001
1000
0010
1000
0001
0100
0010
1000
0001
0100
0010
0100
,
0001
1000
0001
0010
0001
1000
0001
0100
0010
1000
0100
1000
0001
0010
0001
0100
,
0001
1000
0100
1000
0001
1000
0010
1000
0001
0100
0010
1000
0001
0100
0010
0100
,
0001
1000
0001
0010
0001
1000
0001
0100
0001
0010
0100
1000
0001
0010
0001
0100
,
0001
1000
0010
1000
0001
1000
0100
1000
0001
0100
0010
1000
0001
0100
0010
0100
,
0001
1000
0001
0010
0001
1000
0001
0100
0001
0010
0100
1000
0001
0100
0001
0010
,
0001
1000
0010
1000
0001
1000
0100
1000
0001
0100
0010
0100
0001
1000
0010
0100
,
0001
1000
0001
0100
0001
1000
0001
0010
0100
1000
0010
0100
0001
1000
0100
0010
,
0001
1000
0010
1000
0001
1000
0100
1000
0001
0010
0100
1000
0001
0010
0100
0010
,
0001
1000
0001
0100
0001
1000
0001
0010
0100
1000
0010
1000
0001
0100
0001
0010
,
0001
1000
0010
1000
0001
1000
0100
1000
0001
0010
0100
1000
0001
0010
0100
0010
,
0001
1000
0001
0100
0001
1000
0001
0010
0001
0100
0010
1000
0001
0100
0001
0010
,
0001
0100
0001
1000
0001
0010
0001
1000
0010
0100
0001
1000
0100
0010
0001
0100
,
0010
1000
0001
1000
0100
1000
0001
1000
0010
0100
0001
1000
0100
0010
0100
1000
,
0001
0010
0001
1000
0001
0100
0001
1000
0001
0010
0100
0010
0001
0100
0010
0100
,
0001
1000
0001
0100
0001
1000
0001
0010
0100
1000
0100
0010
0001
1000
0010
0100
,
0001
1000
0001
0100
0001
1000
0001
0010
0001
1000
0010
1000
0001
1000
0100
0010
,
0001
1000
0001
0100
0001
1000
0001
0010
0001
1000
0010
0100
0001
0010
0100
0010
,
0001
1000
0010
1000
0001
1000
0100
1000
0001
0010
0100
0010
0001
1000
0010
0100
,
0001
1000
0100
1000
0001
1000
0010
1000
0001
0100
0001
1000
0001
0010
0001
1000
,
0100
1000
0001
1000
0010
1000
0001
1000
0100
1000
0001
1000
0010
1000
0001
0010
,
0001
0100
0001
1000
0001
0010
0001
1000
0001
0100
0001
1000
0001
0010
0001
1000
,
0010
1000
0100
1000
0010
1000
0100
1000
0001
0010
0001
0100
0001
0010
0001
0100
,
0010
1000
0100
1000
0010
1000
0100
1000
0001
0100
0001
0010
0001
0100
0001
0010
,
0001
1000
0100
1000
0010
0100
0001
0010
0001
0100
0010
1000
0100
1000
0010
0100
,
0001
0010
0001
0100
0010
1000
0100
1000
0010
0100
0001
0010
0001
0100
0010
1000
,
0001
0100
0001
0100
0001
0100
0001
0100
0001
0100
0001
0100
0001
0100
0001
0100
0001
0100
0001
0100
0001
0100
0001
0100
,
0001
0000
0000
0100
0000
0000
0010
0000
0000
1000
0000
0000
0100
0000
0000
0010
0000
0000
0001
0000
0000
0100
0000
0000
0010
0000
0000
0000
0010
0000
0000
0000
1000
0000
0000
0000
0000
0000
0000
0000
0000
0000
0000
0000
0000
0000
0000
0000
,
0001
0100
0010
1000
0100
0010
0001
0100
0001
1000
0010
0100
0001
0010
0100
1000
,
0010
1000
0100
0010
0001
0100
0010
1000
0010
0100
0001
0010
0100
1000
0010
1000
,
0001
0010
0001
0100
0010
1000
0100
1000
0001
0010
0100
1000
0010
0100
0001
0010
,
0100
1000
0010
1000
0100
0010
0001
0010
0100
1000
0010
1000
0100
0010
0001
0100
,
0001
1000
0010
0100
0001
0010
0100
1000
0010
0100
0010
1000
0100
0010
0001
0100
,
0001
0010
0100
1000
0010
1000
0100
0010
0001
0100
0001
1000
0010
0100
0001
0010
,
0100
1000
0010
0100
0010
1000
0100
0010
0001
0100
0010
0100
0001
0010
0100
1000
,
0001
0100
0010
1000
0100
0010
0001
1000
0001
0100
0010
1000
0100
0010
0001
0100
,
0001
1000
0010
0100
0001
0010
0100
1000
0100
0010
0001
0100
0010
1000
0100
1000
,
0001
0100
0001
0010
0100
1000
0010
1000
0001
0100
0010
1000
0100
0010
0001
0100
,
0010
1000
0100
1000
0010
0100
0001
0100
0010
1000
0100
1000
0010
0100
0001
0010
,
0001
1000
0100
0010
0001
0100
0010
1000
0100
0010
0100
1000
0010
0100
0001
0010
,
0001
0100
0010
0100
0001
1000
0010
0100
0001
0010
0100
1000
0001
1000
0100
0010
,
0001
0100
0010
1000
0001
1000
0010
0100
0001
0010
0100
1000
0100
0010
0001
0010
,
0100
1000
0010
1000
0001
0100
0001
0010
0100
1000
0010
1000
0100
0010
0001
1000
,
0001
0000
1000
0000
0001
0000
1000
0000
0001
0000
1000
0000
0001
0000
1000
0000
0001
0000
1000
0000
0001
0000
1000
0000
0001
0000
1000
0000
0001
0000
1000
0000
0001
0000
1000
0000
0001
0000
0000
0010
0000
0000
0100
0000
0000
1000
0000
0000
,
0001
0100
0010
0100
0001
0010
0100
1000
0001
0100
0010
0100
0001
0010
0100
1000
,
0001
0100
0010
0100
0001
0010
0100
0010
0001
0100
0010
0100
0001
0010
0100
0010
,
0001
0010
0100
1000
0010
0100
0001
1000
0001
0010
0100
1000
0010
0100
0001
1000
,
0001
0100
0010
1000
0100
1000
0001
0010
0001
0100
0010
1000
0100
1000
0001
0010
,
0001
1000
0010
1000
0100
0010
0100
1000
0001
1000
0010
1000
0100
0010
0100
1000
,
0001
1000
0100
1000
0010
0100
0001
0010
0001
1000
0100
1000
0010
0100
0001
0010
,
0001
1000
0001
0100
0010
0100
0001
0010
0001
1000
0001
0100
0010
0100
0001
0010
,
0001
1000
0100
0010
0100
1000
0010
0100
0001
1000
0100
0010
0100
1000
0010
0100
,
0001
0100
0010
0100
0001
0010
0100
0010
0001
0100
0010
0100
0001
0010
0100
1000
,
0001
0010
0001
0100
0010
0100
0001
1000
0001
0010
0001
0100
0010
0100
0001
1000
,
0001
0100
0010
1000
0100
1000
0001
0010
0001
0100
0010
1000
0100
1000
0001
0010
,
0001
1000
0010
1000
0100
0010
0100
1000
0001
1000
0010
1000
0100
0010
0100
1000
,
0001
0100
0010
0100
0001
0010
0100
1000
0001
0100
0010
0100
0001
0010
0100
1000
,
0001
1000
0100
1000
0010
0100
0001
0010
0001
1000
0100
1000
0010
0100
0001
0010
,
0001
1000
0001
0100
0010
0100
0001
0010
0001
1000
0001
0100
0010
0100
0001
0010
,
0001
0010
0001
0010
0100
1000
0100
1000
,
0001
0100
0010
0100
0001
0010
0100
1000
0001
0100
0010
0100
0001
0010
0100
1000
,
0100
0010
0001
0010
0100
1000
0010
1000
0100
0010
0001
0010
0100
1000
0010
1000
,
0001
0100
0010
1000
0100
0010
0001
1000
0001
0100
0010
1000
0100
0010
0001
1000
,
0001
0100
0010
1000
0100
1000
0001
0010
0001
0100
0010
1000
0100
1000
0001
0010
,
0001
1000
0100
0010
0001
0100
0010
1000
0001
0010
0100
0010
0001
0100
0010
1000
,
0001
0010
0100
1000
0010
0100
0001
1000
0001
0010
0100
1000
0010
0100
0001
1000
,
0001
0100
0010
1000
0100
0010
0100
1000
0001
0100
0010
1000
0100
0010
0100
1000
,
0010
0100
0001
1000
0100
0010
0001
0100
0010
1000
0100
1000
0010
0100
0010
1000
,
0001
0010
0100
0010
0001
0100
0001
1000
0001
0010
0100
0010
0001
0100
0001
1000
,
0010
0100
0001
0100
0010
1000
0100
1000
0010
0100
0001
0100
0010
1000
0100
1000
,
0001
0010
0100
1000
0010
0100
0001
1000
0001
0010
0100
1000
0010
0100
0001
1000
,
0001
0100
0010
0100
0001
0010
0100
0010
0001
0100
0010
0100
0001
0010
0100
0010
,
0001
1000
0100
0010
0001
1000
0010
1000
0001
1000
0100
0010
0001
1000
0010
1000
,
0001
0100
0010
0100
0001
1000
0100
1000
0001
0100
0010
0100
0001
1000
0100
1000
,
0001
0000
0000
1000
0000
0000
0100
0000
0000
0010
0000
0000
0001
0000
0000
0000
1000
0000
0000
0000
0000
0000
0000
0000
,
0001
0000
0000
0010
0000
0000
0000
0000
0000
0001
0000
0000
0000
0000
0000
0000
0000
0000
1000
0000
0000
0000
0000
0000
0010
0000
0000
0000
0010
0000
0000
0000
0100
0000
0000
0000
0000
0000
0000
0000
0000
0000
0000
0000
0000
0000
0000
0000
,
0001
0010
0100
0010
0001
1000
0010
1000
0001
0010
0100
0010
0001
0100
0010
1000
,
0001
0010
0100
0010
0001
1000
0010
1000
0001
0010
0100
0010
0001
0100
0010
1000
,
0010
0100
0001
1000
0001
0010
0001
1000
0010
0100
0001
1000
0001
0010
0001
0100
,
0010
0100
0001
1000
0001
0010
0001
1000
0010
0100
0001
1000
0001
0010
0001
0100
,
0001
1000
0100
0010
0001
1000
0010
1000
0001
1000
0100
0010
0001
0100
0010
1000
,
0001
1000
0100
0010
0001
1000
0010
1000
0001
1000
0100
0010
0001
0100
0010
1000
,
0001
1000
0010
0100
0001
1000
0100
1000
0001
1000
0010
0100
0001
1000
0100
1000
,
0001
0100
0010
1000
0100
0010
0001
0010
0100
1000
0010
0100
0001
1000
0010
1000
,
0100
0010
0001
0100
0001
1000
0100
1000
0001
0100
0010
0100
0001
0010
0100
1000
,
0001
0100
0010
0100
0001
1000
0100
1000
0001
0100
0010
0100
0001
0010
0100
1000
,
0100
0010
0001
1000
0001
0100
0001
1000
0100
0010
0001
1000
0001
0100
0001
0010
,
0100
0010
0001
1000
0001
0100
0001
1000
0100
0010
0001
1000
0001
0100
0001
0010
,
0001
1000
0010
1000
0001
0010
0100
1000
0001
1000
0010
0100
0001
0010
0100
1000
,
0001
1000
0010
1000
0001
0010
0100
1000
0001
1000
0010
0100
0001
0010
0100
1000
,
0001
1000
0100
0010
0001
1000
0010
1000
0001
1000
0100
0010
0001
1000
0100
1000
,
0001
1000
0001
1000
0001
1000
0001
1000
0001
1000
0001
1000
0001
1000
0001
1000
0001
1000
0001
0000
0000
0000
0000
0000
,
1001
0000
0000
0000
,
M000
0000
0000
0000
,
000M
0000
0000
0000
,
0M00
0000
0000
0000
,
00M0
0000
0000
0000
;

//---------------dance-single - @@----------------
#NOTES:
     dance-single:
     @@:
     Hard:
     16:
     1.000,1.000,0.005,0.185,1.000,4684.000,2.000,80.000,4.000,0.000:
0000
0000
0000
0000
,
0001
0010
0100
1000
0001
0010
0001
1000
0010
0100
0001
1000
0010
1000
0001
0100
,
0001
0010
0100
1000
0001
0010
0001
1000
0100
1000
0001
0100
0010
1000
0010
0100
,
0001
0010
0100
1000
0100
0010
0100
1000
0001
0100
0010
1000
0001
1000
0010
0100
,
0001
0010
0100
0010
0001
1000
0100
0010
0001
1000
0100
1000
0001
0010
0100
1000
,
0010
0100
0001
1000
0010
1000
0001
0100
0001
1000
0100
0010
0001
0010
0100
1000
,
0010
0100
0001
1000
0010
1000
0001
0100
0010
1000
0001
0010
0001
1000
0100
0010
,
0001
0100
0010
1000
0010
0100
0001
0100
0010
1000
0001
1000
0100
0010
0100
1000
,
0010
0100
0001
1000
0010
1000
0001
0100
0001
1000
0010
1000
0001
0100
0010
1000
,
0100
0010
0001
1000
0100
1000
0001
0010
0001
0100
0010
1000
0001
0100
0001
0010
,
0100
1000
0100
0010
0001
1000
0100
1000
0010
0100
0001
1000
0010
1000
0001
0100
,
0001
0010
0100
1000
0001
1000
0100
0010
0001
0100
0010
1000
0010
0100
0001
1000
,
0001
0010
0100
1000
0001
1000
0100
0010
0001
0010
0100
0010
0001
1000
0100
0010
,
0001
1000
0100
1000
0001
0100
0001
1000
0100
0010
0001
1000
0010
1000
0001
0010
,
0001
1000
0010
0100
0001
1000
0100
1000
0001
0100
0001
1000
0010
1000
0001
0010
,
0001
1000
0010
1000
0001
1000
0100
0010
0001
1000
0001
0100
0001
1000
0010
0100
,
0001
0000
0000
0010
0000
0000
0100
0000
0000
1000
0000
0000
0010
0000
0000
0000
0000
0000
0100
0000
0000
0000
0000
0000
0001
0000
0000
0000
0001
0000
0000
0000
1000
0000
0000
0000
0000
0000
0000
0000
0000
0000
0000
0000
0000
0000
0000
0000
,
0001
0010
0100
1000
0001
0010
0001
1000
0001
0100
0010
1000
0001
0100
0001
1000
,
0100
0010
0100
1000
0001
0010
0001
1000
0010
0100
0010
1000
0100
0010
0100
1000
,
0001
0100
0010
1000
0010
0100
0001
1000
0001
0010
0100
1000
0100
0010
0001
1000
,
0001
0100
0010
1000
0010
0100
0001
1000
0001
0010
0100
1000
0010
0100
0001
1000
,
0001
0010
0001
1000
0100
0010
0001
1000
0001
0100
0010
0100
0001
1000
0010
1000
,
0001
0010
0100
1000
0100
0010
0001
1000
0001
0100
0010
1000
0100
0010
0001
1000
,
0001
0100
0010
1000
0001
0100
0001
1000
0100
0010
0001
1000
0100
0010
0100
1000
,
0001
0100
0001
1000
0010
0100
0001
1000
0100
0010
0100
1000
0010
0100
0001
1000
,
0001
0010
0100
1000
0001
0010
0100
0010
0001
0100
0010
1000
0001
0100
0010
0100
,
0001
0010
0100
0010
0001
1000
0100
0010
0001
0100
0010
1000
0100
0010
0100
1000
,
0001
0100
0010
1000
0010
0100
0010
1000
0100
0010
0001
1000
0100
0010
0100
1000
,
0010
0100
0001
0100
0010
1000
0010
0100
0001
0010
0100
1000
0010
0100
0001
1000
,
0001
0100
0010
0100
0001
1000
0100
0010
0100
1000
0010
0100
0010
1000
0001
0100
,
0001
1000
0010
0100
0001
0010
0001
1000
0100
0010
0001
0100
0010
0100
0001
1000
,
0100
0010
0001
0100
0010
1000
0001
0010
0100
1000
0010
0100
0001
1000
0100
0010
,
0001
0000
0000
1010
0000
0000
1000
1000
0001
0000
0000
0000
,
0001
0010
0001
0100
0010
1000
0001
0100
0001
1000
0100
1000
0001
0010
0100
1000
,
0010
0100
0001
0010
0001
1000
0100
0010
0001
1000
0010
1000
0001
0100
0010
1000
,
0100
0010
0001
0100
0010
1000
0001
0100
0001
1000
0100
0010
0001
1000
0100
1000
,
0010
0100
0001
0010
0001
1000
0100
0010
0001
1000
0001
0100
0001
1000
0010
1000
,
0100
1000
0010
0100
0001
0100
0010
1000
0001
0010
0100
1000
0100
0010
0100
1000
,
0010
0100
0001
0010
0001
1000
0100
1000
0001
0100
0010
0100
0001
1000
0010
1000
,
0100
0010
0001
0100
0010
1000
0010
0100
0001
1000
0100
0010
0001
1000
0100
1000
,
0010
0100
0001
0010
0100
1000
0001
0010
0001
1000
0010
1000
0001
0100
0010
1000
,
0100
0010
0001
0100
0001
1000
0010
0100
0001
1000
0100
1000
0001
0010
0100
1000
,
0010
0100
0001
0010
0100
1000
0001
0010
0001
1000
0010
0100
0001
1000
0010
1000
,
0100
0010
0001
0100
0001
1000
0010
0100
0001
1000
0001
0010
0001
1000
0100
1000
,
0010
1000
0100
0010
0001
0010
0100
1000
0001
0100
0010
1000
0010
0100
0010
1000
,
0100
0010
0001
0100
0001
1000
0010
1000
0001
0010
0100
0010
0001
1000
0100
1000
,
0010
0100
0001
0010
0100
1000
0100
0010
0001
1000
0010
0100
0001
1000
0100
1000
,
0010
0100
0001
1000
0010
1000
0001
0100
0001
1000
0001
0010
0100
1000
0001
0010
,
0001
1000
0010
0100
0001
0010
0100
1000
0010
0100
0001
1000
0100
0010
0001
0100
,
0001
0010
0100
0010
0001
0100
0010
1000
0001
0010
0100
0010
0001
0100
0010
1000
,
0010
0100
0001
0100
0010
1000
0100
1000
0010
0100
0001
0100
0010
1000
0100
1000
,
0001
0010
0100
1000
0010
0100
0001
1000
0001
0010
0100
1000
0010
0100
0001
1000
,
0001
0000
0000
0010
0000
0000
0100
0000
1000
0000
0001
0000
0010
0000
0000
0001
0000
0000
1000
0000
0010
0000
0100
0000
0001
0000
0000
1000
0000
0000
0001
0000
0010
0000
0100
0000
1000
0000
0000
0001
0000
0000
1000
0000
0010
0000
0100
0000
,
0001
0100
0010
0100
0001
0010
0100
1000
0001
0100
0010
0100
0001
0010
0100
1000
,
0001
0100
0010
1000
0100
0010
0001
1000
0001
0100
0010
1000
0100
0010
0001
1000
,
0001
0010
0100
1000
0010
0100
0010
1000
0001
0010
0100
1000
0010
0100
0010
1000
,
0100
0000
0000
0010
0000
0000
0001
0000
0000
1000
0000
0000
0010
0000
0000
0100
0000
0000
0001
0000
1000
0000
0100
0000
0010
0000
0000
0001
0000
0000
1000
0000
0000
0100
0000
0000
1000
0000
0000
0001
0000
0000
0100
0000
0010
0000
1000
0000
,
0001
0100
0010
0100
0001
0010
0001
1000
0001
0100
0010
0100
0001
0010
0001
1000
,
0100
0010
0001
0010
0100
1000
0010
1000
0100
0010
0001
0010
0100
1000
0010
1000
,
0001
0100
0010
1000
0100
0010
0001
1000
0001
0100
0010
1000
0100
0010
0001
1000
,
0001
0010
0100
0010
0001
0100
0010
0100
0001
0010
0100
0010
0001
0100
0010
0100
,
0001
1000
0010
0100
0001
1000
0100
1000
0001
1000
0010
0100
0001
1000
0100
1000
,
0001
0010
0100
0010
0001
1000
0010
1000
0001
0010
0100
0010
0001
1000
0010
1000
,
0001
0100
0010
1000
0001
0010
0100
1000
0001
0100
0010
1000
0001
0010
0100
1000
,
0010
0100
0001
0010
0001
0100
0010
1000
0100
1000
0010
0100
0001
0010
0001
0100
,
0001
1000
0010
1000
0001
0010
0100
0010
0001
1000
0010
1000
0001
0010
0100
1000
,
0001
0100
0010
1000
0001
0010
0001
1000
0001
0100
0010
1000
0001
1000
0100
1000
,
0010
0100
0001
1000
0001
0010
0001
1000
0010
0100
0001
1000
0001
0010
0100
1000
,
0001
0100
0010
1000
0001
0010
0001
1000
0010
0100
0001
1000
0001
0010
0100
1000
,
0010
0100
0010
1000
0001
0010
0001
1000
0010
0100
0010
1000
0001
0010
0100
1000
,
0001
0100
0001
1000
0001
0010
0100
1000
0001
0100
0010
1000
0001
0010
0100
0010
,
0001
0100
0010
0100
0001
1000
0100
1000
0001
1000
0010
0100
0001
1000
0100
1000
,
0001
0100
0010
0100
0001
1000
0001
0010
0001
1000
0010
1000
0100
0010
0001
0100
,
0001
0010
0100
1000
0001
0100
0010
0100
0001
1000
0100
1000
0001
0100
0010
1000
,
0001
0010
0100
1000
0001
0100
0001
1000
0001
0010
0100
1000
0001
1000
0010
1000
,
0100
0010
0001
1000
0001
0100
0001
1000
0100
0010
0001
1000
0001
0100
0010
1000
,
0001
0010
0100
1000
0001
0100
0001
1000
0100
0010
0001
1000
0001
0100
0010
1000
,
0100
0010
0100
1000
0001
0100
0001
1000
0100
0010
0100
1000
0001
0100
0010
1000
,
0001
0010
0001
1000
0001
0100
0010
1000
0001
0010
0100
1000
0001
0100
0010
0100
,
0001
0010
0100
0010
0001
1000
0010
1000
0001
1000
0100
0010
0001
1000
0010
1000
,
0100
1000
0010
0100
0001
0010
0001
0100
0001
0010
0100
1000
0010
0100
0001
0010
,
0001
0100
0001
0100
0001
0100
0001
0100
,
0010
1000
0010
1000
0001
1000
0001
1000
,
0100
1000
0100
1000
0100
1000
0100
1000
,
0100
0010
0100
0010
0001
0010
0001
0010
,
0001
1000
0001
1000
0001
1000
0001
1000
,
0010
1000
0010
1000
0001
1000
0001
1000
,
0002
0000
0000
0000
0000
0000
0003
0000
0000
0000
0000
0000
0000
0000
0000
0000
0000
0000
0000
0000
0000
0000
0000
0000
0020
0000
0000
0000
0000
0000
0030
0000
0000
0000
0000
0000
0000
0000
0000
0000
0000
0000
0000
0000
0000
0000
0000
0000
0002
0000
0000
0000
0000
0000
0003
0000
0000
0000
0000
0000
0000
0000
0000
0000
0000
0000
0000
0000
0000
0000
0000
0000
0020
0000
0000
0000
0000
0000
0030
0000
0000
0000
0000
0000
0000
0000
0000
0000
0000
0000
0000
0000
0000
0000
0000
0000
0002
0000
0000
0000
0000
0000
0000
0000
0003
0000
0000
0000
0000
0000
0000
0000
0000
0000
0000
0000
0000
0000
0000
0000
0020
0000
0000
0000
0000
0000
0000
0000
0030
0000
0000
0000
0000
0000
0000
0000
0000
0000
0000
0000
0000
0000
0000
0000
0002
0000
0000
0000
0000
0000
0000
0000
0003
0000
0000
0000
0000
0000
0000
0000
0000
0000
0000
0000
0000
0000
0000
0000
0020
0000
0000
0000
0000
0000
0000
0000
0030
0000
0000
0000
0000
0000
0000
0000
0000
0000
0000
0000
0000
0000
0000
0000
,
0200
0000
0000
0300
0000
0000
2000
0000
0000
3000
0000
0000
0200
0000
0000
0300
0000
0000
2000
0000
0000
3000
0000
0000
0002
0000
0000
0000
0003
0000
0200
0000
0000
0000
0300
0000
0002
0000
0000
0000
0003
0000
0200
0000
0000
0000
0300
0000
,
0002
2003
3002
2003
3002
2003
3002
2003
,
3200
2300
3200
2300
3002
0023
0032
0023
,
0032
2003
3002
2003
3002
2003
3002
2003
,
3020
2030
3020
2030
3002
0203
0302
0203
,
0302
2003
3002
2003
3002
2003
3002
2003
,
3002
0023
0032
0023
0230
2300
3200
2300
,
3002
0203
0302
0203
0302
0203
0302
0203
,
0320
2030
3020
2030
3002
2003
3002
2003
,
3001
1000
0100
1000
0001
1000
0010
1000
0001
0100
0010
1000
0001
0100
0010
0100
,
0001
1000
0001
0010
0001
1000
0001
0100
0001
0010
0100
1000
0001
0010
0001
0100
,
0001
1000
0010
1000
0001
1000
0100
1000
0001
0010
0100
0010
0001
1000
0100
0010
,
0001
1000
0001
0100
0001
1000
0001
0010
0100
1000
0010
0100
0001
1000
0100
0010
,
0001
1000
0010
1000
0001
1000
0100
1000
0001
0010
0100
1000
0001
0010
0100
0010
,
0001
1000
0001
0100
0001
1000
0001
0010
0100
1000
0010
1000
0001
0100
0001
0010
,
0001
1000
0010
1000
0001
1000
0100
1000
0001
0010
0100
1000
0001
0010
0100
0010
,
0001
1000
0001
0100
0001
1000
0001
0010
0001
0100
0010
1000
0001
0100
0001
0010
,
0001
1000
0010
1000
0001
1000
0100
1000
0001
0010
0100
1000
0001
0010
0100
0010
,
0001
1000
0001
0100
0001
1000
0001
0010
0001
0100
0010
1000
0001
0100
0001
0010
,
0001
1000
0100
1000
0001
1000
0010
1000
0001
0100
0010
0100
0001
1000
0010
0100
,
0001
1000
0001
0010
0001
1000
0001
0100
0010
1000
0100
0010
0001
1000
0010
0100
,
0001
1000
0100
1000
0001
1000
0010
1000
0001
0100
0010
1000
0001
0100
0010
0100
,
0001
1000
0001
0010
0001
1000
0001
0100
0010
1000
0100
1000
0001
0010
0001
0100
,
0001
0010
0100
1000
0010
0100
0010
1000
0100
1000
0010
0100
0001
0010
0001
0100
,
0010
1000
0100
0010
0001
0100
0010
1000
0100
0010
0001
0100
0001
0000
0000
0000
,
1000
0100
0010
0001
0100
0010
1000
0100
1000
0001
0010
0100
1000
0010
0100
0001
,
0010
0001
0100
0010
1000
0100
0010
0001
0010
0100
1000
0010
0100
0001
0010
0001
,
1000
0010
1000
0100
0010
0001
0100
0001
1000
0010
0100
0001
0010
0100
1000
0010
,
0100
0001
0010
0001
0100
0010
1000
0010
0100
0001
0010
0001
0100
0010
1000
0100
,
1000
0001
0010
0100
1000
0010
0100
0001
0010
0100
0010
0001
0100
0010
1000
0100
,
1000
0010
0100
0001
0010
0001
0100
0010
1000
0100
1000
0001
0010
0100
1000
0010
,
0100
0001
0010
0100
0010
0001
0100
0010
1000
0100
0010
0100
1000
0010
0100
0001
,
1000
0100
0010
0001
0100
0010
1000
0001
1000
0100
0010
0001
0100
0010
1000
0100
,
1000
0001
0010
0100
1000
0010
0100
0001
0100
0010
1000
0100
0010
0001
0100
0001
,
1000
0100
1000
0010
0100
0001
0010
0001
1000
0100
0010
0001
0100
0010
1000
0100
,
0010
0001
0100
0001
0010
0100
1000
0100
0010
0001
0100
0001
0010
0100
1000
0010
,
1000
0001
0100
0010
1000
0100
0010
0001
0100
0010
0100
0001
0010
0100
1000
0010
,
1000
0100
0010
0100
1000
0001
0010
0100
1000
0010
0100
0001
1000
0001
0100
0010
,
1000
0100
0010
0001
1000
0001
0010
0100
1000
0010
0100
0001
0100
0010
1000
0010
,
0100
0001
0010
0001
1000
0100
1000
0010
0100
0001
0010
0001
0100
0010
1000
0001
,
0100
0001
0010
0100
1000
0010
1000
0100
0010
0001
0100
0010
1000
0100
1000
0010
,
1000
0100
0010
0100
1000
0010
0100
0001
1000
0100
0010
0100
1000
0010
0100
0001
,
1000
0100
0010
0100
1000
0010
0100
0010
1000
0100
0010
0100
1000
0010
0100
0010
,
1000
0010
0100
0001
0010
0100
1000
0001
1000
0010
0100
0001
0010
0100
1000
0001
,
1000
0100
0010
0001
0100
0001
1000
0010
1000
0100
0010
0001
0100
0001
1000
0010
,
1000
0001
0010
0001
0100
0010
0100
0001
1000
0001
0010
0001
0100
0010
0100
0001
,
1000
0001
0100
0001
0010
0100
1000
0010
1000
0001
0100
0001
0010
0100
1000
0010
,
1000
0001
1000
0100
0010
0100
1000
0010
1000
0001
1000
0100
0010
0100
1000
0010
,
1000
0001
0100
0010
0100
0001
0010
0100
1000
0001
0100
0010
0100
0001
0010
0100
,
1000
0100
0010
0100
1000
0010
0100
0010
1000
0100
0010
0100
1000
0010
0100
0010
,
1000
0010
0100
0001
0010
0100
1000
0001
1000
0010
0100
0001
0010
0100
1000
0001
,
1000
0100
0010
0001
0100
0001
1000
0010
1000
0100
0010
0001
0100
0001
1000
0010
,
1000
0001
0010
0001
0100
0010
0100
0001
1000
0001
0010
0001
0100
0010
0100
0001
,
1000
0100
0010
0100
1000
0010
0100
0001
1000
0100
0010
0100
1000
0010
0100
0001
,
1000
0001
0100
0001
0010
0100
1000
0010
1000
0001
0100
0001
0010
0100
1000
0010
,
1000
0001
1000
0100
0010
0100
1000
0010
1000
0001
1000
0100
0010
0100
1000
0010
,
0100
0001
0010
0100
1000
0010
0100
0010
1000
0100
0010
0001
0100
0010
1000
0100
,
1000
0010
0100
0001
1000
0010
1000
0001
1000
0100
0010
0001
1000
0100
1000
0001
,
0100
0010
0100
0001
1000
0010
1000
0001
0010
0100
0010
0001
0100
0010
0100
0001
,
1000
0100
0010
0001
0010
0100
1000
0001
1000
0010
0100
0001
0100
0010
1000
0001
,
1000
0100
0010
0001
0010
0100
1000
0001
1000
0010
0100
0001
0010
0100
1000
0001
,
1000
0010
1000
0001
0100
0010
1000
0001
1000
0100
0010
0100
1000
0001
0010
0001
,
1000
0010
0100
0001
0100
0010
1000
0001
1000
0100
0010
0001
0100
0010
1000
0001
,
1000
0100
0010
0001
1000
0100
1000
0001
0100
0010
1000
0001
0100
0010
0100
0001
,
1000
0100
1000
0001
0010
0100
1000
0001
0100
0010
0100
0001
0010
0100
1000
0001
,
1000
0010
0100
0001
1000
0010
0100
0010
1000
0100
0010
0001
1000
0100
0010
0100
,
1000
0010
0100
0010
1000
0001
0100
0010
1000
0100
0010
0001
0100
0010
0100
0001
,
1000
0100
0010
0001
0010
0100
0010
0001
0100
0010
1000
0001
0100
0010
0100
0001
,
0010
0100
1000
0100
0010
0001
0010
0100
1000
0010
0100
0001
0010
0100
1000
0001
,
1000
0100
0010
0100
1000
0001
0100
0010
0100
0001
0010
0100
0010
0001
1000
0100
,
1000
0001
0010
0100
1000
0010
1000
0001
0100
0010
1000
0100
0010
0100
1000
0001
,
0100
0010
1000
0100
0010
0001
1000
0010
0100
0001
0010
0100
1000
0001
0100
0010
,
1000
0100
1000
0010
0100
0001
0010
0001
0100
0010
1000
0100
0010
0001
0100
0010
,
1000
0100
1000
0001
0100
0010
1000
0001
1000
0100
0010
0001
1000
0010
1000
0001
,
0010
0100
0010
0001
1000
0010
0100
0010
1000
0001
0010
0001
1000
0010
0100
0001
,
0010
0100
1000
0001
0100
0010
0100
0001
1000
0100
1000
0001
1000
0010
0100
0001
,
1000
0100
0010
0001
1000
0010
1000
0001
0010
0100
1000
0001
0100
0010
0100
0001
,
0010
0100
1000
0001
1000
0010
0100
0010
1000
0001
0010
0001
1000
0010
0100
0001
,
1000
0100
0010
0001
1000
0010
1000
0001
0010
0100
1000
0001
0100
0010
0100
0001
,
0010
0100
0010
0001
1000
0001
0100
0010
1000
0001
0010
0001
1000
0010
0100
0001
,
1000
0100
0010
0001
0100
0010
1000
0001
1000
0100
0010
0001
0100
0010
1000
0100
,
1000
0010
1000
0001
0010
0100
1000
0001
1000
0010
0100
0001
1000
0100
1000
0001
,
0100
0010
0100
0001
1000
0100
0010
0100
1000
0001
0100
0001
1000
0100
0010
0001
,
0100
0010
1000
0001
0010
0100
0010
0001
1000
0010
1000
0001
1000
0100
0010
0001
,
1000
0010
0100
0001
1000
0100
1000
0001
0100
0010
1000
0001
0010
0100
0010
0001
,
0100
0010
1000
0001
1000
0100
0010
0100
1000
0001
0100
0001
1000
0100
0010
0001
,
1000
0010
0100
0001
1000
0100
1000
0001
0100
0010
1000
0001
0010
0100
0010
0001
,
0100
0010
0100
0001
1000
0001
0010
0100
1000
0001
0100
0001
1000
0100
0010
0001
,
0100
0010
1000
0100
0010
0100
1000
0010
0100
0001
0010
0100
1000
0000
0000
0000
,
0001
0100
0010
0100
0001
0010
0100
1000
0001
0100
0010
0100
0001
0010
0100
1000
,
0010
0100
0010
1000
0100
0010
0001
1000
0010
0100
0010
1000
0100
0010
0001
1000
,
0001
0100
0010
1000
0100
0010
0001
1000
0001
0100
0010
1000
0100
0010
0001
1000
,
0001
0100
0010
0100
0001
0010
0100
1000
0001
0100
0010
0100
0001
0010
0100
1000
,
0100
0010
0100
1000
0010
0100
0001
1000
0100
0010
0100
1000
0010
0100
0001
1000
,
0100
1000
0001
0010
0001
0100
0010
1000
0100
1000
0001
0010
0001
0100
0010
1000
,
0100
0010
0001
1000
0001
0100
0010
1000
0100
0010
0001
1000
0001
0100
0010
1000
,
0001
0010
0100
1000
0010
0100
0001
1000
0001
0010
0100
1000
0010
0100
0001
1000
,
0001
0010
0100
0010
0001
0100
0010
1000
0001
0010
0100
0010
0001
0100
0010
1000
,
0100
0010
0100
1000
0010
0100
0001
1000
0100
0010
0100
1000
0010
0100
0001
1000
,
0001
0010
0100
1000
0010
0100
0001
1000
0001
0010
0100
1000
0010
0100
0001
1000
,
0001
0010
0100
0010
0001
0100
0010
1000
0001
0010
0100
0010
0001
0100
0010
1000
,
0010
0100
0010
1000
0100
0010
0001
1000
0010
0100
0010
1000
0100
0010
0001
1000
,
0010
1000
0001
0100
0001
0010
0100
1000
0010
1000
0001
0100
0001
0010
0100
1000
,
0010
0100
0001
1000
0001
0010
0100
1000
0010
0100
0001
1000
0001
0010
0100
1000
,
0010
0100
0001
0010
0001
0100
0010
1000
0100
1000
0010
0100
0001
0010
0001
0100
,
0010
1000
0100
0010
0001
0010
0100
1000
0001
0010
0001
1000
0010
0100
0010
1000
,
0001
0010
0100
1000
0100
0010
0100
1000
0001
0010
0100
1000
0001
0100
0001
0010
,
0100
1000
0001
0100
0010
0100
0001
1000
0010
0100
0010
1000
0001
0010
0100
0010
,
0001
1000
0001
0100
0010
0100
0001
1000
0010
1000
0001
0100
0001
1000
0010
0100
,
0001
0010
0100
0010
0001
1000
0100
1000
0001
0010
0001
1000
0010
0100
0001
0100
,
0010
1000
0001
0010
0100
1000
0001
0010
0001
1000
0100
0010
0001
1000
0010
1000
,
0001
0100
0010
0100
0001
1000
0010
0100
0010
1000
0001
0010
0100
1000
0100
0010
,
0001
0100
0010
1000
0001
0100
0010
0100
0001
1000
0010
1000
0100
0010
0001
0100
,
0001
0010
0100
1000
0100
0010
0100
1000
0001
0010
0100
0010
0001
0100
0010
1000
,
0001
0010
0001
1000
0100
1000
0001
0010
0100
1000
0001
0010
0001
1000
0010
0100
,
0001
0100
0010
1000
0001
0100
0010
0100
0001
1000
0010
0100
0001
0010
0100
1000
,
0001
0100
0010
0100
0001
1000
0010
0100
0010
1000
0001
0100
0010
1000
0100
0010
,
0001
0010
0100
0010
0001
1000
0100
1000
0001
0010
0100
0010
0001
1000
0010
1000
,
0001
0010
0100
1000
0001
0010
0100
0010
0001
1000
0100
1000
0001
0100
0001
1000
,
0001
0100
0010
1000
0100
0010
0100
1000
0001
0100
0010
1000
0100
1000
0010
0100
,
0001
0010
0100
1000
0010
0100
0010
1000
0100
0010
0001
0100
0010
0100
0001
0010
,
0001
1000
0010
1000
0001
1000
0100
1000
0001
0010
0100
1000
0001
0010
0100
0010
,
0001
1000
0001
0100
0001
1000
0001
0010
0001
0100
0010
1000
0001
0100
0001
0010
,
0001
1000
0100
1000
0001
1000
0010
1000
0001
0100
0010
0100
0001
1000
0010
0100
,
0001
1000
0001
0010
0001
1000
0001
0100
0010
1000
0100
0010
0001
1000
0010
0100
,
0001
1000
0100
1000
0001
1000
0010
1000
0001
0100
0010
1000
0001
0100
0010
0100
,
0001
1000
0001
0010
0001
1000
0001
0100
0010
1000
0100
1000
0001
0010
0001
0100
,
0001
1000
0100
1000
0001
1000
0010
1000
0001
0100
0010
1000
0001
0100
0010
0100
,
0001
1000
0001
0010
0001
1000
0001
0100
0001
0010
0100
1000
0001
0010
0001
0100
,
0001
1000
0010
1000
0001
1000
0100
1000
0001
0010
0100
1000
0001
0010
0100
0010
,
0001
1000
0001
0010
0001
1000
0001
0100
0001
0010
0100
1000
0001
0010
0001
0100
,
0001
1000
0010
1000
0001
1000
0100
1000
0001
0010
0100
0010
0001
1000
0100
0010
,
0001
1000
0001
0100
0001
1000
0001
0010
0100
1000
0010
0100
0001
1000
0100
0010
,
0001
1000
0010
1000
0001
1000
0100
1000
0001
0010
0100
1000
0001
0010
0100
0010
,
0001
1000
0001
0100
0001
1000
0001
0010
0100
1000
0010
1000
0001
0100
0001
0010
,
0001
1000
0010
1000
0001
1000
0100
1000
0001
0010
0100
1000
0001
0010
0100
0010
,
0001
1000
0001
0100
0001
1000
0001
0010
0001
0100
0010
1000
0001
0100
0001
0010
,
0001
0100
0001
1000
0001
0010
0001
1000
0010
0100
0001
1000
0100
0010
0001
0100
,
0010
1000
0001
1000
0100
1000
0001
1000
0010
0100
0001
1000
0100
0010
0100
1000
,
0001
0010
0001
1000
0001
0100
0001
1000
0001
0010
0100
0010
0001
0100
0010
0100
,
0001
1000
0001
0100
0001
1000
0001
0010
0100
1000
0100
0010
0001
1000
0010
0100
,
0001
1000
0001
0100
0001
1000
0001
0010
0001
1000
0010
1000
0001
1000
0100
0010
,
0001
1000
0001
0100
0001
1000
0001
0010
0001
1000
0010
0100
0001
0010
0100
0010
,
0001
1000
0010
1000
0001
1000
0100
1000
0001
0010
0100
0010
0001
1000
0010
0100
,
0001
1000
0100
1000
0001
1000
0010
1000
0001
0100
0001
1000
0001
0010
0001
1000
,
0100
1000
0001
1000
0010
1000
0001
1000
0100
1000
0001
1000
0010
1000
0001
0010
,
0001
0100
0001
1000
0001
0010
0001
1000
0001
0100
0001
1000
0001
0010
0001
1000
,
0010
1000
0100
1000
0010
1000
0100
1000
0001
0010
0001
0100
0001
0010
0001
0100
,
0010
1000
0100
1000
0010
1000
0100
1000
0001
0100
0001
0010
0001
0100
0001
0010
,
0001
1000
0100
1000
0010
0100
0001
0010
0001
0100
0010
1000
0100
1000
0010
0100
,
0001
0010
0001
0100
0010
1000
0100
1000
0010
0100
0001
0010
0001
0100
0010
1000
,
0100
0010
0100
1000
0010
0100
0001
0010
0100
0010
0001
0100
0010
1000
0100
0010
,
0001
0000
0000
0100
0000
0000
0010
0000
0000
1000
0000
0000
0100
0000
0000
0010
0000
0000
0001
0000
0000
0100
0000
0000
0010
0000
0000
0000
0010
0000
0000
0000
1000
0000
0000
0000
0000
0000
0000
0000
0000
0000
0000
0000
0000
0000
0000
0000
,
0001
0100
0010
1000
0100
0010
0001
0100
0001
1000
0010
0100
0001
0010
0100
1000
,
0010
1000
0100
0010
0001
0100
0010
1000
0010
0100
0001
0010
0100
1000
0010
1000
,
0001
0010
0001
0100
0010
1000
0100
1000
0001
0010
0100
1000
0010
0100
0001
0010
,
0100
1000
0010
1000
0100
0010
0001
0010
0100
1000
0010
1000
0100
0010
0001
0100
,
0001
1000
0010
0100
0001
0010
0100
1000
0010
0100
0010
1000
0100
0010
0001
0100
,
0001
0010
0100
1000
0010
1000
0100
0010
0001
0100
0001
1000
0010
0100
0001
0010
,
0100
1000
0010
0100
0010
1000
0100
0010
0001
0100
0010
0100
0001
0010
0100
1000
,
0001
0100
0010
1000
0100
0010
0001
1000
0001
0100
0010
1000
0100
0010
0001
0100
,
0001
1000
0010
0100
0001
0010
0100
1000
0100
0010
0001
0100
0010
1000
0100
1000
,
0001
0100
0001
0010
0100
1000
0010
1000
0001
0100
0010
1000
0100
0010
0001
0100
,
0010
1000
0100
1000
0010
0100
0001
0100
0010
1000
0100
1000
0010
0100
0001
0010
,
0001
1000
0100
0010
0001
0100
0010
1000
0100
0010
0100
1000
0010
0100
0001
0010
,
0001
0100
0010
0100
0001
1000
0010
0100
0001
0010
0100
1000
0001
1000
0100
0010
,
0001
0100
0010
1000
0001
1000
0010
0100
0001
0010
0100
1000
0100
0010
0001
0010
,
0100
1000
0010
1000
0001
0100
0001
0010
0100
1000
0010
1000
0100
0010
0001
1000
,
0010
1000
0100
0010
0001
0100
0001
0010
0100
1000
0010
0100
0001
0010
0100
1000
,
0001
0100
0010
0100
0001
0010
0100
1000
0001
0100
0010
0100
0001
0010
0100
1000
,
0001
0100
0010
0100
0001
0010
0100
0010
0001
0100
0010
0100
0001
0010
0100
0010
,
0001
0010
0100
1000
0010
0100
0001
1000
0001
0010
0100
1000
0010
0100
0001
1000
,
0001
0100
0010
1000
0100
1000
0001
0010
0001
0100
0010
1000
0100
1000
0001
0010
,
0001
1000
0010
1000
0100
0010
0100
1000
0001
1000
0010
1000
0100
0010
0100
1000
,
0001
1000
0100
1000
0010
0100
0001
0010
0001
1000
0100
1000
0010
0100
0001
0010
,
0001
1000
0001
0100
0010
0100
0001
0010
0001
1000
0001
0100
0010
0100
0001
0010
,
0001
1000
0100
0010
0100
1000
0010
0100
0001
1000
0100
0010
0100
1000
0010
0100
,
0001
0100
0010
0100
0001
0010
0100
0010
0001
0100
0010
0100
0001
0010
0100
1000
,
0001
0010
0001
0100
0010
0100
0001
1000
0001
0010
0001
0100
0010
0100
0001
1000
,
0001
0100
0010
1000
0100
1000
0001
0010
0001
0100
0010
1000
0100
1000
0001
0010
,
0001
1000
0010
1000
0100
0010
0100
1000
0001
1000
0010
1000
0100
0010
0100
1000
,
0001
0100
0010
0100
0001
0010
0100
1000
0001
0100
0010
0100
0001
0010
0100
1000
,
0001
1000
0100
1000
0010
0100
0001
0010
0001
1000
0100
1000
0010
0100
0001
0010
,
0001
1000
0001
0100
0010
0100
0001
0010
0001
1000
0001
0100
0010
0100
0001
0010
,
0001
0010
0001
0010
0100
1000
0100
1000
,
0001
0100
0010
0100
0001
0010
0100
1000
0001
0100
0010
0100
0001
0010
0100
1000
,
0100
0010
0001
0010
0100
1000
0010
1000
0100
0010
0001
0010
0100
1000
0010
1000
,
0001
0100
0010
1000
0100
0010
0001
1000
0001
0100
0010
1000
0100
0010
0001
1000
,
0001
0100
0010
1000
0100
1000
0001
0010
0001
0100
0010
1000
0100
1000
0001
0010
,
0001
1000
0100
0010
0001
0100
0010
1000
0001
0010
0100
0010
0001
0100
0010
1000
,
0001
0010
0100
1000
0010
0100
0001
1000
0001
0010
0100
1000
0010
0100
0001
1000
,
0001
0100
0010
1000
0100
0010
0100
1000
0001
0100
0010
1000
0100
0010
0100
1000
,
0010
0100
0001
1000
0100
0010
0001
0100
0010
1000
0100
1000
0010
0100
0010
1000
,
0001
0010
0100
0010
0001
0100
0001
1000
0001
0010
0100
0010
0001
0100
0001
1000
,
0010
0100
0001
0100
0010
1000
0100
1000
0010
0100
0001
0100
0010
1000
0100
1000
,
0001
0010
0100
1000
0010
0100
0001
1000
0001
0010
0100
1000
0010
0100
0001
1000
,
0001
0100
0010
0100
0001
0010
0100
0010
0001
0100
0010
0100
0001
0010
0100
0010
,
0001
1000
0100
0010
0001
1000
0010
1000
0001
1000
0100
0010
0001
1000
0010
1000
,
0001
0100
0010
0100
0001
1000
0100
1000
0001
0100
0010
0100
0001
1000
0100
1000
,
0001
0000
0000
1000
0000
0000
0100
0000
0000
0010
0000
0000
0001
0000
0000
0000
1000
0000
0000
0000
0000
0000
0000
0000
,
0001
0000
0000
0010
0000
0000
0000
0000
0000
0001
0000
0000
0000
0000
0000
0000
0000
0000
1000
0000
0000
0000
0000
0000
0010
0000
0000
0000
0010
0000
0000
0000
0100
0000
0000
0000
0000
0000
0000
0000
0000
0000
0000
0000
0000
0000
0000
0000
,
0001
0010
0100
0010
0001
1000
0010
1000
0001
0010
0100
0010
0001
0100
0010
1000
,
0001
0010
0100
0010
0001
1000
0010
1000
0001
0010
0100
0010
0001
0100
0010
1000
,
0010
0100
0001
1000
0001
0010
0001
1000
0010
0100
0001
1000
0001
0010
0001
0100
,
0010
0100
0001
1000
0001
0010
0001
1000
0010
0100
0001
1000
0001
0010
0001
0100
,
0001
1000
0100
0010
0001
1000
0010
1000
0001
1000
0100
0010
0001
0100
0010
1000
,
0001
1000
0100
0010
0001
1000
0010
1000
0001
1000
0100
0010
0001
0100
0010
1000
,
0001
1000
0010
0100
0001
1000
0100
1000
0001
1000
0010
0100
0001
1000
0100
1000
,
0001
0100
0010
1000
0100
0010
0001
0010
0100
1000
0010
0100
0001
1000
0010
1000
,
0100
0010
0001
0100
0001
1000
0100
1000
0001
0100
0010
0100
0001
0010
0100
1000
,
0001
0100
0010
0100
0001
1000
0100
1000
0001
0100
0010
0100
0001
0010
0100
1000
,
0100
0010
0001
1000
0001
0100
0001
1000
0100
0010
0001
1000
0001
0100
0001
0010
,
0100
0010
0001
1000
0001
0100
0001
1000
0100
0010
0001
1000
0001
0100
0001
0010
,
0001
1000
0010
1000
0001
0010
0100
1000
0001
1000
0010
0100
0001
0010
0100
1000
,
0001
1000
0010
1000
0001
0010
0100
1000
0001
1000
0010
0100
0001
0010
0100
1000
,
0001
1000
0100
0010
0001
1000
0010
1000
0001
1000
0100
0010
0001
1000
0100
1000
,
0010
0100
0001
0010
0001
0100
0010
1000
0100
1000
0010
0100
0001
0000
0000
0000
,
1001
0000
0000
0000
,
M000
0000
0000
0000
,
000M
0000
0000
0000
,
0M00
0000
0000
0000
,
00M0
0000
0000
0000
;
