#TITLE:Serious Shit;
#SUBTITLE:The BOSS Song of SpaceGorilla;
#ARTIST:The Quick Brown Fox;
#TITLETRANSLIT:;
#SUBTITLETRANSLIT:;
#ARTISTTRANSLIT:;
#CREDIT:owenviau1;
#BANNER:../owenviau1 Simfiles 6 (Science X Owen).png;
#BACKGROUND:BG.PNG;
#LYRICSPATH:;
#CDTITLE:;
#MUSIC:The Quick Brown Fox - Serious Shit.mp3;
#OFFSET:-0.278;
#SAMPLESTART:98.360;
#SAMPLELENGTH:29.999;
#SELECTABLE:YES;
#DISPLAYBPM:230.000;
#BPMS:0.000=115.000,18.000=230.000;
#STOPS:;
#BGCHANGES:;
// cache tags:
#FIRSTBEAT:17.000;
#LASTBEAT:495.500;
#SONGFILENAME:Songs/owenviau1 Simfiles 6/Serious Shit - [owenviau1] v1.0.4/Serious Shit.sm;
#HASMUSIC:1;
#HASBANNER:1;
#MUSICLENGTH:138.057;
// end cache tags

//---------------dance-single - 19- (owenviau1)----------------
#NOTES:
     dance-single:
     19- (owenviau1):
     Challenge:
     19:
     1.000,1.000,0.000,0.529,1.000,1473.000,0.000,73.000,0.000,0.000:
0000
0000
0000
0000
,
0000
0000
0000
0000
,
0000
0000
0000
0000
,
0000
0000
0000
0000
,
0000
0000
0000
0000
0002
0000
0003
0000
1000
0100
0010
0001
1000
0001
0100
0010
,
1000
0001
0100
0001
1000
0010
0100
0001
0100
0010
1000
0001
0010
0001
0100
0010
,
1000
0001
0010
0001
1000
0100
0010
0001
0100
0010
1000
0001
0100
0001
1000
0010
,
0100
0010
1000
0001
0100
0001
0010
0100
1000
0001
0010
0001
0100
0010
1000
0001
,
0100
0001
1000
0010
0100
0010
1000
0001
0010
0001
0100
0010
0100
0001
1000
0100
,
1000
0010
0100
0001
1000
0100
0010
0001
0100
0010
1000
0001
0100
0001
1000
0100
,
0010
0001
0100
0010
1000
0001
0010
0001
0100
0010
1000
0100
1000
0001
0010
0001
,
0100
0010
1000
0001
0100
0001
1000
0100
0010
0001
0100
0010
0100
0001
1000
0100
,
0010
0001
1000
0010
1000
0001
0100
0010
1000
0010
0100
0001
1000
0100
0010
0001
,
0100
0010
1000
0010
0100
0001
0010
0001
1000
0100
1000
0001
0100
0010
1000
0001
,
0010
0001
0100
0010
1000
0100
0010
0001
1000
0001
0100
0010
1000
0001
0100
0001
,
1000
0010
0100
0001
0100
0010
1000
0001
0010
0001
0100
0010
1000
0001
0010
0001
,
1000
0100
0010
0001
0100
0010
1000
0001
0100
0001
1000
0010
0100
0010
1000
0001
,
0100
0001
0010
0100
1000
0001
0010
0001
0100
0010
1000
0001
0100
0001
1000
0010
,
0100
0010
1000
0001
0010
0001
0100
0010
0100
0001
1000
0100
1000
0010
0100
0001
,
1000
0100
0010
0001
0100
0010
1000
0001
0100
0001
1000
0100
0010
0001
0100
0010
,
1000
0100
0010
0001
0010
0100
1000
0100
0010
0001
0010
0100
2000
0000
0000
0000
0000
0000
0000
0000
0000
3000
0000
0000
,
0000
0000
0000
0000
,
2000
0000
3200
0000
0320
0000
0032
0000
1003
0100
0010
0001
0100
0001
1000
0010
,
0100
0001
1000
0001
0100
0010
1000
0001
0100
0010
0100
0001
0010
0001
1000
0010
,
0100
0001
0010
0001
1000
0100
0010
0001
0100
0010
1000
0001
0100
0001
1000
0010
,
0100
0010
1000
0001
0100
0001
0010
0100
1000
0001
0010
0001
0100
0010
1000
0001
,
0100
0001
1000
0010
0100
0010
1000
0001
0010
0001
0100
0010
0100
0001
1000
0100
,
1000
0010
0100
0001
1000
0100
0010
0001
0100
0010
1000
0001
0100
0001
1000
0100
,
0010
0001
0100
0010
1000
0001
0010
0001
0100
0010
1000
0100
1000
0001
0010
0001
,
0100
0010
1000
0001
0100
0001
1000
0100
0010
0001
0100
0010
0100
0001
1000
0100
,
0010
0001
1000
0010
1000
0001
0100
0010
1000
0010
0100
0001
1000
0100
0010
0001
,
0100
0010
1000
0010
0100
0001
0010
0001
1000
0100
1000
0001
0100
0010
1000
0001
,
0010
0001
0100
0010
1000
0100
0010
0001
1000
0001
0100
0010
1000
0001
0100
0001
,
1000
0010
0100
0001
0100
0010
1000
0001
0010
0001
0100
0010
1000
0001
0010
0001
,
1000
0100
0010
0001
0100
0010
1000
0001
0100
0001
1000
0010
0100
0010
1000
0001
,
0100
0001
0010
0100
1000
0001
0010
0001
0100
0010
1000
0001
0100
0001
1000
0010
,
0100
0010
1000
0001
0010
0001
0100
0010
0100
0001
1000
0100
1000
0010
0100
0001
,
1000
0100
0010
0001
0100
0010
1000
0001
0100
0001
1000
0100
0010
0001
0100
0010
,
1000
0000
0000
0001
0000
0000
0010
0000
0000
0001
0000
0000
0100
0000
0000
0010
0000
0000
1000
0000
0000
0100
0000
0000
2000
0000
0000
0000
0000
0000
0000
0000
3001
0000
0000
0000
0100
0000
0000
0000
0000
0000
0000
0000
0100
0000
0000
0000
,
0010
0000
0010
1000
0000
1000
0001
0000
0001
0100
0000
0100
,
0010
0000
0010
1000
0000
0001
1000
0000
0010
0100
0000
0001
,
0100
0000
0010
1000
0000
0100
0010
0000
0001
0100
0000
0100
,
0010
0000
1000
0001
0000
0001
0200
0000
0310
1000
0000
0010
,
0100
0000
0100
0001
0000
1000
0001
0000
0100
0010
0000
1000
,
0010
0000
0100
0010
0000
0100
0001
0000
1000
0001
0000
0001
,
0100
0000
0100
0010
0000
1000
0001
0000
0100
0001
0000
1000
,
0010
0000
1000
0100
0000
0100
0020
0000
0031
1000
0000
0010
,
0100
0000
0001
0200
0000
0310
1000
0000
1000
0010
0000
0010
,
0200
0000
0301
1000
0000
0010
0200
0000
0301
0010
0000
0100
,
1000
0000
1000
0002
0000
0103
0010
0000
1000
0010
0000
0100
,
0002
0000
1003
0100
0000
0100
0020
0000
0031
1000
0000
1000
,
0020
0000
0130
0002
0000
1003
0010
0000
0100
0020
0000
1030
,
0200
0000
0310
0001
0000
0001
2000
0000
3010
0200
0000
0301
,
1000
0000
0100
0020
0000
0031
1000
0000
0010
0200
0000
0302
,
2003
0000
3020
0230
0000
0302
0023
0000
0000
0030
0000
0000
,
1000
0000
0000
0010
0000
0000
0100
0000
0000
0001
0000
0000
0100
0000
0000
0010
0000
0000
1000
0000
0000
0100
0000
0000
0010
0000
0000
0000
0000
0000
0000
0000
0001
0000
0000
0000
1000
0000
0000
0000
0000
0000
0000
0000
1000
0000
0000
0000
,
0010
0000
0010
0100
0000
0001
1000
0000
0010
1000
0000
0001
,
0100
0000
0100
0010
0000
0010
1000
0000
1000
0001
0000
0001
,
0100
0000
0010
0100
0000
0001
0100
0000
0100
0010
0000
1000
,
0001
0000
0100
0010
0000
1000
0010
0000
0100
0001
0000
1000
,
0100
0000
0010
0001
0000
0100
0001
0000
1000
0010
0000
0100
,
0010
0000
1000
0001
0000
0010
0001
0000
0100
0010
0000
1000
,
0010
0000
0100
0010
0000
0010
1000
0000
1000
0001
0000
0001
,
0100
0000
0100
0010
0000
0010
1000
0001
0100
0001
1000
0010
,
0100
0010
1000
0001
0010
0001
1000
0100
1000
0010
0100
0001
,
0100
0010
1000
0001
1000
0010
0100
0010
1000
0001
0010
0001
,
1000
0100
0010
0001
0100
0010
1000
0001
0100
0001
1000
0010
,
0100
0010
1000
0001
0010
0001
0100
0010
1000
0100
1000
0001
,
0100
0001
1000
0010
0100
0010
1000
0001
0010
0001
0100
0010
,
1000
0001
0010
0001
1000
0010
1000
0001
0100
0010
0100
0001
,
1000
0000
0100
0000
1000
0000
0010
0000
0100
0000
0001
0000
2000
0000
0000
3020
0000
0000
0230
0000
0000
0302
0000
0000
,
2003
3020
0230
0302
2003
0000
0000
0000
3010
0000
0100
0000
0001
0000
1000
0000
,
0010
1000
0001
0100
0010
0100
0001
1000
,
0100
1000
0010
0100
0001
1000
0001
0100
,
0010
1000
0001
0010
0001
1000
0100
1000
,
0010
0100
0001
0100
0020
1030
0001
0100
,
0010
0100
0001
1000
0100
1000
0010
0100
,
0001
1000
0001
0010
0100
1000
0001
0100
,
0001
1000
0010
1000
0001
0100
0010
0100
,
0001
1000
0100
1000
0020
0130
0001
1000
,
0200
0310
0001
1000
0002
0103
0010
1000
,
0002
0103
0010
1000
0002
0103
0010
1000
,
0200
1300
0010
0100
0002
1003
0010
0100
,
0020
1030
0001
0100
0002
1003
0020
0130
,
0020
1030
0002
0103
0002
1003
0200
1300
,
0020
0130
0002
0103
0020
1030
0002
0013
,
0002
1003
0200
0310
0002
1003
0200
1300
,
0002
0000
0103
0000
0010
1000
0001
1000
0020
0000
0000
0000
0000
0000
0030
0000
,
0000
0000
0000
0000
,
2000
0000
3200
0000
0320
0000
0032
0000
1003
0100
0010
0001
0100
0001
1000
0010
,
0100
0001
1000
0001
0100
0010
1000
0001
0100
0010
0100
0001
0010
0001
1000
0010
,
0100
0001
0010
0001
1000
0100
0010
0001
0100
0010
1000
0001
0100
0001
1000
0010
,
0100
0010
1000
0001
0100
0001
0010
0100
1000
0001
0010
0001
0100
0010
1000
0001
,
0100
0001
1000
0010
0100
0010
1000
0001
0010
0001
0100
0010
0100
0001
1000
0100
,
1000
0010
0100
0001
1000
0100
0010
0001
0100
0010
1000
0001
0100
0001
1000
0100
,
0010
0001
0100
0010
1000
0001
0010
0001
0100
0010
1000
0100
1000
0001
0010
0001
,
0100
0010
1000
0001
0100
0001
1000
0100
0010
0001
0100
0010
0100
0001
1000
0100
,
0010
0001
1000
0010
1000
0001
0100
0010
1000
0010
0100
0001
1000
0100
0010
0001
,
0100
0010
1000
0010
0100
0001
0010
0001
1000
0100
1000
0001
0100
0010
1000
0001
,
0010
0001
0100
0010
1000
0100
0010
0001
1000
0001
0100
0010
1000
0001
0100
0001
,
1000
0010
0100
0001
0100
0010
1000
0001
0010
0001
0100
0010
1000
0001
0010
0001
,
1000
0100
0010
0001
0100
0010
1000
0001
0100
0001
1000
0010
0100
0010
1000
0001
,
0100
0001
0010
0100
1000
0001
0010
0001
0100
0010
1000
0001
0100
0001
1000
0010
,
0100
0010
1000
0001
0010
0001
0100
0010
0100
0001
1000
0100
1000
0010
0100
0001
,
1000
0100
0010
0001
0100
0010
1000
0001
0100
0001
1000
0100
0010
0001
0100
0010
,
1000
0001
0010
0001
0100
0010
1000
0001
1000
0100
0010
0001
0100
0001
1000
0010
,
0100
0001
1000
0001
0100
0010
1000
0001
0100
0010
0100
0001
0010
0001
1000
0010
,
0100
0001
0010
0001
1000
0100
0010
0001
0100
0010
1000
0001
0100
0001
1000
0010
,
0100
0010
1000
0001
0100
0001
0010
0100
1000
0001
0010
0001
0100
0010
1000
0001
,
0100
0001
1000
0010
0100
0010
1000
0001
0010
0001
0100
0010
0100
0001
1000
0100
,
1000
0010
0100
0001
1000
0100
0010
0001
0100
0010
1000
0001
0100
0001
1000
0100
,
0010
0001
0100
0010
1000
0001
0010
0001
0100
0010
1000
0100
1000
0001
0010
0001
,
0100
0010
1000
0001
0100
0001
1000
0100
0010
0001
0100
0010
0100
0001
1000
0100
,
0010
0001
1000
0010
1000
0001
0100
0010
1000
0010
0100
0001
1000
0100
0010
0001
,
0100
0010
1000
0010
0100
0001
0010
0001
1000
0100
1000
0001
0100
0010
1000
0001
,
0010
0001
0100
0010
1000
0100
0010
0001
1000
0001
0100
0010
1000
0001
0100
0001
,
1000
0010
0100
0001
0100
0010
1000
0001
0010
0001
0100
0010
1000
0001
0010
0001
,
1000
0100
0010
0001
0100
0010
1000
0001
0100
0001
1000
0010
0100
0010
1000
0001
,
0100
0001
0010
0100
1000
0001
0010
0001
0100
0010
1000
0001
0100
0001
1000
0010
,
0100
0010
1000
0001
0010
0001
0100
0010
0100
0001
1000
0100
1000
0010
0100
0001
,
1000
0100
0010
0001
0100
0010
1000
0001
0100
0001
1000
0100
0010
0001
0100
0010
,
1000
0001
0100
0001
1000
0010
1000
0001
0100
0001
1000
0010
2000
0000
0000
0000
0000
0000
0000
0000
0000
3000
0000
0000
,
0000
0000
0000
0000
,
0020
0230
0302
2003
3020
0000
0000
0030
,
0000
0000
0000
0000
,
0000
0000
0000
0000
;
