#TITLE:Ah Shwe Bah;
#SUBTITLE:;
#ARTIST:Dr. Lefty feat. Admiral T;
#TITLETRANSLIT:;
#SUBTITLETRANSLIT:;
#ARTISTTRANSLIT:;
#CREDIT:;
#BANNER:Ah Shwe Bah.jpg;
#BACKGROUND:Ah Shwe Bah-Bg.jpg;
#LYRICSPATH:;
#CDTITLE:Goliath logo.png;
#MUSIC:Dr._Lefty_-_B1_Ah_Shwe_Bah_(Featuring_Admiral_T).mp3;
#OFFSET:-6.760;
#SAMPLESTART:17.760;
#SAMPLELENGTH:16.600;
#SELECTABLE:YES;
#BPMS:0.000=214.000,36.000=107.000,38.000=214.000,78.000=107.000,80.000=214.000,96.000=107.000,98.000=214.000,146.000=107.000,150.000=214.000,237.000=428.000,238.333=197.000,239.000=103.000,241.000=428.000,243.500=1010.000,247.000=214.000,351.000=107.000,353.000=214.000;
#STOPS:836.000=0.140
;
#BGCHANGES:;
// cache tags:
#FIRSTBEAT:0.000;
#LASTBEAT:895.000;
#SONGFILENAME:Songs/Essential Sim Collection/(Mad Goliath) ah shwe bah/Ah Shwe Bah.sm;
#HASMUSIC:1;
#HASBANNER:1;
#MUSICLENGTH:261.048;
// end cache tags

//---------------dance-single - ----------------
#NOTES:
     dance-single:
     :
     Hard:
     11:
     1.000,1.000,1.000,0.977,1.000,1649.000,294.000,255.000,0.000,0.000:
1100
0010
0001
0100
0001
0000
0101
0000
0011
0100
1000
0010
1000
0000
1010
0000
,
0110
0001
1000
0000
0010
0000
0100
0000
1001
0000
0000
0000
0000
0000
0000
0000
,
0011
0000
0011
0000
1001
0000
0100
0010
0100
0010
1001
0100
0020
0030
0020
0030
,
0100
0000
0001
0000
0100
0000
0001
0000
1010
0000
0000
0000
0100
0000
0002
0000
0000
0003
0000
0000
0010
0000
0100
0000
0002
0000
0003
0000
0200
0000
0300
0000
,
1001
0000
0010
1000
0010
1000
0001
0100
0010
0100
0001
0100
2002
0000
0000
3003
,
0110
0000
0110
0000
1001
0000
0100
0010
1001
0000
0010
0010
0200
0000
0000
0000
,
0320
0030
0002
0003
2000
3000
0200
0320
0032
0000
0000
0003
2000
0000
0000
3000
,
0011
0000
0011
0000
0011
0000
0011
0000
1100
0000
0010
0001
1100
0000
0002
0003
,
0110
0000
1010
0000
1001
0000
0010
0100
0001
0100
0010
0100
2000
0000
0000
3000
,
0011
0000
0000
0000
0100
0000
0100
0000
0110
0000
0000
0000
2002
0000
0000
3003
0110
0000
0000
0000
1000
0000
0000
0000
0010
0000
0000
0000
0100
0000
0001
0000
,
0100
0010
0100
0000
1000
0000
0110
0000
0011
0000
1000
0000
0100
0000
1000
0001
,
0100
0001
0010
0000
1100
0000
1001
0000
0011
0000
0100
0000
1000
0000
0010
0100
,
1000
0010
0100
0000
1001
0000
0011
0000
0101
0000
0110
0000
1001
0000
1100
0000
,
0110
0000
0000
0000
0000
0000
0110
0000
1100
0000
0010
0000
0001
0000
0100
0010
,
1000
0001
0010
0000
1100
0000
0110
0000
0101
0000
0010
0000
1000
0000
0100
0010
,
0100
0001
1000
0000
0110
0000
0101
0000
1001
0000
0100
0000
0010
0000
0001
0100
,
0001
0010
0100
0000
1100
0000
0110
0000
1001
0000
0011
0000
1100
0000
0110
0000
,
1001
0000
0000
0000
0000
0000
0110
0000
1010
0000
1010
0000
0101
0000
0010
1000
,
0010
0001
0100
0001
1000
0000
1000
0000
0110
0000
0110
0000
0001
0010
0100
1000
,
1000
0000
0100
0000
0010
0000
0001
0000
0200
0000
0000
0000
0000
0000
0300
0000
0011
0000
0000
0000
0011
0000
0000
0000
1000
0000
1000
0000
0001
0001
1000
0000
,
0110
0000
0000
0000
0000
0000
0000
0000
0000
0000
0000
0000
0000
0000
0000
0000
0000
0000
1000
0000
0000
0000
0000
0000
0000
0000
0000
0000
0000
0000
0100
0000
0000
0000
0000
0000
0010
0000
0000
0000
0000
0000
0001
0000
0000
0000
0000
0000
1000
0000
0000
0000
0000
0000
0000
0000
0100
0000
0000
0000
0000
0000
0000
0000
0010
0000
0000
0000
0000
0000
0000
0000
0001
0000
0000
0000
0000
0000
0000
0000
1000
0000
0000
0000
0000
0000
0000
0000
0100
0000
0000
0000
0000
0000
0000
0000
0010
0000
0000
0000
0000
0000
0000
0000
0001
0000
0000
0000
0000
0000
0000
0000
1000
0000
0000
0000
0000
0000
0000
0000
0100
0000
0000
0000
0000
0000
0000
0000
0010
0000
0000
0000
0000
0000
0000
0000
0001
0000
0000
0000
0000
0000
0000
0000
1000
0000
0000
0000
0000
0000
0000
0000
0000
0000
0000
0000
0000
0000
0000
0000
0010
0000
0000
0000
0000
0000
0000
0000
0000
0000
0000
0000
0000
0000
0000
0000
0001
0000
0000
0000
0000
0000
0000
0000
0000
0000
0000
0000
0000
0000
0000
0000
,
0020
0030
0002
0003
2000
3000
0200
0320
0032
0000
0000
0003
2000
0000
0000
3000
,
0011
0000
0011
0000
0011
0000
0011
0000
1100
0000
0010
0001
1100
0000
0002
0003
,
0110
0000
1010
0000
1001
0000
0010
0100
0001
0100
0010
0100
2000
0000
0000
3000
,
0011
0000
0000
0000
0100
0000
0100
0000
0110
0000
0000
0000
2002
0000
0000
3003
0010
0000
0000
0000
0010
0000
0000
0000
0002
0000
0000
0000
0013
0000
0000
0000
,
0100
0000
1000
0001
0100
0010
1000
0001
0100
0000
0002
0000
0103
0000
0002
0000
,
0013
0000
1000
0000
1000
0100
0010
0001
1000
0000
0020
0000
1030
0000
0010
0001
,
0000
0001
0020
0000
0130
0000
0020
0000
0031
0000
1100
0000
0110
0000
0001
0010
,
1000
0100
0010
0000
1001
0000
1001
0000
0100
0000
0100
0000
2000
0000
3100
0000
,
0001
0000
0010
1000
0001
0100
0010
1000
0001
0000
0200
0000
0310
0000
0200
0000
,
1300
0000
0010
0000
0010
0001
1000
0100
0010
0000
2000
0000
3010
0000
0001
1000
,
0000
1000
0002
0000
0103
0000
0002
0000
1003
0000
0110
0000
1001
0000
0010
0100
,
0001
1000
0100
0000
0011
0000
0011
0000
1100
0000
1000
0000
0101
0000
0010
0100
,
1000
0001
0010
0100
1000
0000
0020
0030
0101
0000
0001
0000
0110
0000
1000
0001
,
0100
0001
1000
0100
0020
0030
0200
0300
1001
0000
1000
0000
0011
0000
0100
1000
,
0100
0000
0000
0010
0000
0000
0100
0000
0000
0001
0000
0000
0020
0000
0000
0000
2030
0000
0000
0000
3002
0000
0000
0000
0103
0000
0000
0000
0000
0000
2000
0000
0000
3000
0000
0000
0020
0000
0000
0030
0000
0000
0002
0000
0000
0003
0000
0000
,
1000
0000
0002
0003
0002
0003
0100
0100
1001
0000
0100
0000
0110
0000
0001
1000
,
0001
0000
1000
0000
0100
0000
0010
0100
0010
0000
0000
0000
0100
0000
0000
0000
0011
0000
0000
0000
0000
0000
0000
0000
0010
0000
0000
0000
0000
0000
0000
0000
,
1010
0000
0000
0000
0010
0000
1000
0000
0001
0000
0100
0000
0010
0000
0001
1000
,
0010
0001
0010
0001
1000
0100
1000
0100
0011
0000
0000
0000
0000
0000
0000
0000
,
0000
0000
0101
0000
,
0000
0000
0000
0000
0110
0000
0000
0101
,
0000
0000
0101
0000
1010
0100
0000
0001
,
1000
0001
0100
1000
0011
0000
0000
0000
,
0000
0000
0101
0000
,
0000
0000
0000
0000
0110
0000
0000
0101
,
0000
0000
0101
0000
1010
0100
0000
0001
,
1000
0100
0001
0010
1100
0000
0001
0000
,
0101
0000
0000
0000
0010
0000
0100
0000
1010
0000
0001
0000
1000
0000
0010
0100
,
0010
1000
0110
1000
,
1010
0000
0000
0000
1000
0000
0010
0000
0101
0000
1000
0000
0100
0000
0010
0001
,
0100
1000
0100
1000
0001
0010
0001
0010
1100
0000
0010
0001
0010
0000
0100
0001
,
0100
0000
0000
1000
0000
0000
0100
0000
0000
0010
0000
0000
1000
0000
0000
0000
0000
0000
0010
0000
0000
1000
0000
0000
0010
0000
0000
0000
0000
0000
0001
0000
0000
0000
2000
0000
0000
0000
0000
0000
3200
0000
0000
0000
0000
0000
0320
0000
,
0000
0000
0000
0000
0000
0000
0000
0000
0000
0000
0000
0000
0000
0000
0000
0000
0031
0000
0000
0000
0000
0000
0000
0000
1000
0000
0000
0000
0000
0000
0100
0000
0000
0000
0000
0000
0010
0000
0000
0000
0000
0000
0001
0000
0000
0000
0000
0000
1000
0000
0000
0000
0000
0000
0000
0000
0000
0000
0000
0000
0000
0000
0000
0000
0010
0000
0000
0000
0000
0000
0000
0000
0000
0000
0000
0000
0000
0000
0000
0000
0100
0000
0000
0000
0000
0000
0000
0000
0000
0000
0000
0000
0000
0000
0000
0000
1001
0000
0000
0000
0000
0000
0000
0000
0000
0000
0000
0000
0000
0000
0000
0000
0000
0000
0000
0000
0000
0000
0000
0000
0020
0000
0000
0000
0000
0000
0000
0000
0000
0000
0000
0000
0030
0000
0000
0000
0000
0000
0000
0000
0000
0000
0000
0000
1000
0000
0000
0000
0000
0000
0000
0000
0000
0000
0000
0000
0000
0000
0000
0000
0000
0000
0000
0000
0000
0000
0000
0000
0020
0000
0000
0000
0000
0000
0000
0000
0000
0000
0000
0000
0030
0000
0000
0000
0000
0000
0000
0000
0000
0000
0000
0000
,
0100
0000
0002
0003
0020
0030
0002
0003
2000
3000
0020
0030
0200
0300
0020
0030
,
0002
0003
2000
3000
0002
0003
2000
3000
0200
0000
0300
0000
0020
0000
0000
0030
1001
0000
0000
0000
0100
0000
0000
0000
0010
0000
0000
0000
0001
0000
0100
0000
,
1000
0100
0010
1000
0100
0000
0100
0000
0011
0000
0001
0000
1000
0100
0010
0001
,
0001
0010
0100
1000
0020
0000
0000
0030
1001
0000
0000
0000
1001
0000
0000
0000
,
0010
0000
0000
0000
0000
0000
0000
0000
0000
0000
0000
0000
0000
0000
0000
0000
0000
0000
0000
0000
0000
0000
0000
0000
0010
0000
0000
0000
0000
0000
0000
0000
0000
0000
0000
0000
0000
0000
0000
0000
0000
0000
0000
0000
0000
0000
0000
0000
0100
0000
0000
0000
0000
0000
0000
0000
0000
0000
0000
0000
0100
0000
0000
0000
0000
0000
0000
0000
0000
0000
0000
0000
0010
0000
0000
0000
0000
0000
0000
0000
0000
0000
0000
0000
0000
0000
0000
0000
0000
0000
0000
0000
0000
0000
0000
0000
0100
0000
0000
0000
0000
0000
0000
0000
0000
0000
0000
0000
0000
0000
0000
0000
0000
0000
1000
0000
0000
0000
0000
0000
0000
0000
0000
0000
0000
0000
0100
0000
0000
0000
0000
0000
0010
0000
0000
0000
0000
0000
0001
0000
0000
0000
0000
0000
1000
0000
0000
0000
0000
0000
0000
0000
0100
0000
0000
0000
0000
0000
0000
0000
0010
0000
0000
0000
0000
0000
0000
0000
0001
0000
0000
0000
0000
0000
0000
0000
1000
0000
0000
0000
0000
0000
0000
0000
0100
0000
0000
0000
0000
0000
0000
0000
,
0010
0000
0001
0000
0010
0000
0100
0000
1000
0000
0100
0000
0020
0000
0000
0000
0000
0000
0000
0000
0000
0000
0000
0000
0000
0000
0000
0000
2030
0000
0000
0000
0000
0000
0000
0000
3200
0000
0000
0300
0000
0000
0200
0000
0000
0300
0000
0000
,
0200
0300
0200
0300
0020
0000
0000
0000
0000
0000
0000
0000
0000
0000
0032
0000
,
0000
0000
0000
0000
0000
0000
0000
0000
0000
0000
0000
0003
1100
0000
0000
0000
,
0000
0000
0000
0110
,
0000
0000
0000
0011
,
0000
1010
0000
0000
1010
0000
0101
0010
,
0000
1000
0100
0010
0100
0001
0110
0000
,
0000
0000
0000
1010
,
0000
0000
0000
1100
,
0000
0101
0000
0000
0101
0000
0120
0000
,
0000
0000
0000
0000
1030
0001
1000
0001
0100
0001
0010
0001
1100
0000
1000
0000
,
0110
0000
0001
1000
0001
1000
0100
0001
0100
1000
0000
1000
0100
0000
0010
1000
,
0001
0000
0010
0000
0100
0000
1000
0000
0001
0000
0010
0000
0100
0000
0000
1000
0000
0000
0010
0000
0000
0000
0000
0000
0101
0000
0000
0000
0000
0000
1000
0000
0000
0000
0000
0000
1100
0000
0000
0000
0000
0000
1000
0000
0000
0000
0000
0000
,
0011
0000
0000
0000
0000
0000
0000
0000
0100
0000
0000
0000
0000
1000
0000
0000
0100
0000
0000
0000
0000
1000
0000
0000
0100
0000
0000
0000
0000
1000
0000
0000
0022
0000
0000
0000
0000
0000
0000
0000
0000
0000
0000
0000
0033
0000
0000
0000
1001
0000
0000
0000
0000
0000
0000
0000
2020
0000
0000
0000
0000
0000
0000
0000
,
0000
3030
0101
0000
0220
0000
0000
0330
2002
3003
0200
0300
0011
0000
0010
0000
,
1010
0000
0000
0000
0100
0000
0001
0000
1000
0000
0001
0000
0010
0000
0100
0000
0001
0000
0000
0000
1000
0100
0010
0001
0100
0000
0000
0000
0010
0000
0000
0000
,
1001
0000
0110
0000
0001
0001
2000
0000
0000
0000
0000
3000
0110
0001
1000
0000
,
1100
0000
0010
0001
0010
1000
0010
0001
0010
0000
1100
0000
0110
0000
0101
0000
,
0101
0000
0000
0000
1001
0000
0000
0000
0110
0000
1000
0000
0001
0000
0000
0000
1001
0000
0000
0000
0100
0000
0001
0000
1100
0000
0000
0000
0000
0000
0000
0001
,
0000
0000
0000
0000
0000
0000
0000
0000
0100
0000
0000
0000
0000
0000
0000
0000
0000
0000
0010
0000
0000
0000
0000
0000
0000
0000
0000
0010
0000
0000
0100
0000
0000
0001
0000
0000
0000
0000
0000
1000
0000
0000
0000
0000
0000
0000
0001
0000
,
0000
0000
0000
0100
0000
0000
0000
0000
0010
0000
0000
0000
0000
0000
0000
0000
0000
0000
0110
0000
0000
0000
0000
1000
,
0000
0000
0000
0000
0000
0000
0100
0000
0000
0000
0000
0000
0000
0000
0000
0000
0010
0000
0000
0000
0000
0000
0000
0000
0000
0000
0000
0010
0000
0000
0100
0000
0000
1000
0000
0000
0000
0000
0000
0001
0000
0000
0000
0000
0000
0000
1000
0000
,
0000
0000
0000
0010
0000
0000
0000
0000
0001
0000
0000
0000
0000
0000
0000
0000
0000
0000
1100
0000
0000
0000
0000
0010
,
0000
0000
0000
0000
0000
0000
0100
0000
0000
0000
0000
0000
0000
0000
0000
0000
1000
0000
0000
0000
0000
0000
0000
0000
0000
0000
0000
0100
0000
0000
0010
0000
0000
0001
0000
0000
0000
0000
0000
1000
0000
0000
0000
0000
0000
0000
0100
0000
,
0000
0000
0000
0001
0000
0000
0000
0000
0010
0000
0000
0000
0000
0000
0000
0000
0000
0000
0110
0000
1000
0000
0001
0000
,
1000
0000
0000
0000
0000
0000
1000
0000
0000
0000
0000
0000
0010
0000
0000
0000
1000
0000
0000
0000
0001
0000
0000
0000
1000
0000
0000
0000
0000
0000
1000
0000
0000
0000
0000
0000
0011
0000
0000
0100
0000
0000
0010
0000
0000
0000
0000
0000
,
1000
0001
0100
0010
0000
0000
1001
1001
,
0100
0000
0010
0001
0100
0010
0001
0100
0010
0000
0010
0000
1100
0000
1100
0000
,
0001
0100
0010
1000
1000
0010
0100
0001
0200
0000
0000
0300
0011
0000
0011
0000
,
1000
0000
0000
0000
0000
0000
0000
0000
0000
0000
0000
0000
1000
0000
0000
0000
0000
0000
0000
0000
0000
0000
0000
0000
0001
0000
0000
0000
0000
0000
0001
0000
0000
0000
0000
0000
1000
0000
0000
0000
0000
0000
0000
0000
0000
0000
0000
0000
0010
0000
0000
0000
0000
0000
0000
0000
0000
0000
0000
0000
0000
0000
0000
0000
0000
0000
0100
0000
0000
0000
0000
0000
0000
0000
0000
0000
0000
0000
1000
0000
0000
0000
0000
0000
0001
0000
0000
0000
0000
0000
0010
0000
0000
0000
0000
0000
0100
0000
0000
0000
0000
0000
0000
0000
1000
0000
0000
0000
0000
0000
0000
0000
0001
0000
0000
0000
0000
0000
0000
0000
0010
0000
0000
0000
0000
0000
0000
0000
0100
0000
0000
0000
0000
0000
0000
0000
1000
0000
0000
0000
0000
0000
0000
0000
0001
0000
0000
0000
0000
0000
0000
0000
0010
0000
0000
0000
0000
0000
0000
0000
0100
0000
0000
0000
0000
0000
0000
0000
1000
0000
0000
0000
0000
0000
0000
0000
0001
0000
0000
0000
0000
0000
0000
0000
0010
0000
0000
0000
0000
0000
0000
0000
,
0100
0000
0000
0000
1000
0000
0000
0000
0001
0000
0000
0000
0100
0000
0000
0000
0000
0000
0100
0000
0000
0000
0000
0000
0020
0000
0000
0000
0000
0000
0130
0000
0000
0000
0000
0000
0100
0000
0000
0000
0000
0000
0010
0000
0000
0001
0000
0000
,
0010
0100
1000
0100
0010
0000
2000
0000
3001
0000
2000
0000
3100
0000
0010
0000
,
0001
0010
0100
1000
0010
0000
0200
0000
0301
0000
1000
0010
0000
0010
2000
0000
,
3100
0000
2000
0000
3010
0000
1100
0000
1001
0000
0010
0100
0001
1000
0100
0000
,
0011
0011
1100
0000
0000
0000
0000
0000
,
0000
1010
0000
0000
,
0000
0000
0110
0000
0000
0101
0000
0000
,
0101
0000
1001
0100
0000
0010
2000
0000
,
0000
3001
1100
0000
0000
0000
0000
0000
,
0000
1010
0000
0000
,
0000
0000
0110
0000
0000
1001
0000
0000
,
1001
0000
0011
1000
0000
0010
0100
0001
,
0010
0000
0100
0000
2002
0000
0000
0000
0000
3003
0000
0000
0000
0000
0000
0000
,
0000
0000
0000
0000
0000
1000
0100
0100
,
0010
0000
0000
0000
0000
0000
0000
0000
0100
0000
0000
0000
0001
0000
0000
0000
0100
0000
0000
0000
0010
0000
0000
0000
1000
0000
0000
0000
0001
0000
0000
0010
,
0000
1000
0000
0100
0000
0000
0010
0000
0000
0100
0000
0000
0001
0000
0000
0010
0000
0000
0100
0000
0000
0010
0000
0000
,
1000
0000
0000
0000
0100
0000
0000
0000
0001
0000
0000
0000
0010
0000
0100
0000
0010
0000
0000
0000
1000
0000
0000
0000
0200
0000
0000
0000
0310
0000
0000
0001
,
0000
0000
0000
0000
0000
0000
1000
0000
0000
0000
0000
0000
0000
0000
0000
0000
0000
0000
0000
0000
0000
0000
0000
0000
0000
0000
0000
0001
0000
0000
0000
0000
0000
0000
0000
0000
0000
0000
0000
0000
0000
0000
0000
0000
0000
0000
0000
0000
1000
0000
0000
0000
0000
0000
0000
0000
0000
0000
0000
0000
0000
0000
0000
0000
0000
0000
0000
0000
0000
0000
0000
0000
0001
0000
0000
0000
0000
0000
0000
0000
0010
0000
0000
0000
0000
0000
0000
0000
0100
0000
0000
0000
0000
0000
0000
0000
1000
0000
0000
0000
0000
0000
0000
0000
0001
0000
0000
0000
0000
0000
0000
0000
0010
0000
0000
0000
0000
0000
0000
0000
0100
0000
0000
0000
0000
0000
0000
0000
0000
0000
0000
0000
0000
0000
0000
0000
0000
0000
0000
0000
0000
0000
0000
0000
1000
0000
0000
0000
0000
0000
0000
0000
0000
0000
0000
0000
0000
0000
0000
0000
0000
0000
0000
0000
0000
0000
0000
0000
1000
0000
0000
0000
0000
0000
0000
0000
0000
0000
0000
0000
0000
0000
0000
0000
0000
0000
0000
0000
0000
0000
0000
0000
,
0001
0000
0010
1000
0100
0001
0010
0001
,
0200
0320
0031
2000
0000
0000
3200
0320
,
0032
0000
0000
0000
2003
0000
0000
0000
3010
0000
0000
0002
0000
0000
0000
0203
0000
0000
0000
0320
0000
0000
0000
1000
0030
0000
0000
0000
0001
0000
0000
0000
,
0100
0000
0000
0000
0010
0000
0000
0000
1000
0000
0000
0000
0000
0000
0000
0000
0000
0000
0000
0000
0010
0000
0000
0100
0000
0000
0000
0100
0000
0000
0000
0001
,
0000
0000
0000
0000
0000
0000
0000
1000
0000
0000
0000
0001
0000
0000
0000
0100
0000
0000
0000
0001
0000
0000
0000
0010
0000
1000
0000
0010
0000
1000
0000
0100
,
0000
0000
0000
0010
0000
0000
0000
0001
0000
0000
0000
0010
0000
0000
0000
1000
0000
0000
0000
0010
0000
0000
0200
0000
0000
0000
0302
0000
0000
0000
2003
0000
,
0000
0000
0000
0000
0000
0000
0000
0000
0000
0000
0000
0000
3200
0000
0000
0000
0000
0000
0000
0000
0000
0000
0000
0000
0000
0000
0000
0000
0000
0000
0000
0000
0000
0000
0000
0000
0310
0000
0000
0000
0000
0000
0000
0000
0000
0000
0000
0000
0000
0000
0000
0000
0000
0000
0000
0000
0000
0000
0000
0000
0000
0000
0000
0000
0000
0000
1000
0000
0000
0000
0000
0000
0000
0000
0000
0000
0000
0000
0000
0000
0000
0000
0000
0000
0000
0000
0000
0000
0000
0000
0100
0000
0000
0000
0000
0000
0000
0000
0000
0000
0000
0000
0000
0000
0000
0000
0000
0000
0000
0000
0000
0000
0000
0000
0010
0000
0000
0000
0000
0000
0000
0000
0000
0000
0000
0000
0000
0000
0000
0000
0000
0000
0000
0000
0000
0000
0000
0000
0001
0000
0000
0000
0000
0000
0000
0000
0000
0000
0000
0000
0000
0000
0000
0000
0000
0000
0100
0000
0000
0000
0000
0000
0000
0000
0000
0000
0000
0000
0000
0000
0000
0000
0000
0000
0000
0000
1000
0000
0000
0000
0000
0000
0000
0000
0000
0000
0000
0000
0000
0000
0000
0000
,
0000
0000
0000
0000
0000
0000
0001
0000
0000
0000
0000
0000
0000
0000
0000
0000
0000
0000
0000
0000
0000
0000
0000
0000
0100
0000
0000
0000
0000
0000
0000
0000
0000
0000
0000
0000
0000
0000
0000
0000
0220
0000
0000
0000
0000
0000
0000
0000
0000
0000
0000
0000
0000
0000
0000
0000
0000
0000
0000
0000
0000
0000
0000
0000
0000
0000
0000
0000
0000
0000
0000
0000
0330
0000
0000
0000
0000
0000
0000
0000
0000
0000
0000
0000
0000
0000
0000
0000
0000
0000
0000
0000
0000
0000
0000
0000
0000
0000
0000
0000
0000
0000
0000
0000
0000
0000
0000
0000
0000
0000
0000
0000
0000
0000
0000
0000
0000
0000
0000
0000
0010
0000
0000
0000
0000
0000
0000
0000
0000
0000
0000
0000
0000
0000
0000
0000
0000
0000
1000
0000
0000
0000
0000
0000
0000
0000
0000
0000
0000
0000
0000
0000
0000
0000
0000
0000
0000
0000
0000
0000
0000
0000
1000
0000
0000
0000
0000
0000
0000
0000
0000
0000
0000
0000
0000
0000
0000
0000
0000
0000
0000
0000
0000
0000
0000
0000
0001
0000
0000
0000
0000
0000
,
0000
0000
0000
0000
0000
0000
0000
1000
0000
0000
0000
0100
0000
0000
0000
0010
0000
0000
0000
0001
0000
0000
0000
0020
0000
0000
0000
0000
0000
0000
0030
1000
,
0000
0000
0000
0000
0000
0000
0000
0000
0000
0000
0000
0000
0000
0000
0000
0000
0000
0000
0100
0000
0000
0000
0000
0000
0000
0000
0000
0000
0000
0000
0000
0000
0000
0000
0000
0000
0000
0000
0000
0000
0010
0000
0000
0000
0000
0000
0000
0000
0000
0000
0000
0000
0000
0000
0000
0000
0000
0000
0000
0000
0000
0000
0000
0000
0000
0000
0001
0000
0000
0000
0000
0000
0000
0000
0000
0000
0000
0000
0000
0000
0000
0000
0000
0000
0020
0000
0000
0000
0000
0000
0000
0000
0000
0000
0000
0000
0000
0000
0000
0000
0000
0000
0000
0000
0000
0000
0000
0000
0000
0000
0000
0000
0000
0000
0000
0000
0000
0000
0000
0000
0000
0000
0000
0000
0000
0000
0000
0000
0000
0000
0000
0000
0000
0000
0000
0000
0000
0000
0000
0000
0000
0000
0000
0000
0000
0000
0000
0000
0000
0000
0000
0000
0000
0000
0000
0000
0000
0000
0000
0000
0000
0000
0000
0000
0000
0000
0000
0000
0000
0000
0000
0000
0000
0000
0000
0000
0000
0000
0000
0000
0000
0000
0000
0000
0000
0000
0000
0000
0000
0000
0000
0000
,
0000
0000
0030
0000
2200
0300
0000
0000
0000
0000
0000
0000
0000
0000
0000
0000
,
0000
0000
0000
3000
0200
0000
0000
0000
0000
0000
0000
0000
0000
0000
0000
0000
,
0000
0000
0000
0300
0022
0003
0000
0000
0000
0000
0000
0000
0000
0000
0000
0000
,
2000
3000
0000
0030
0002
0000
0000
0000
0000
0000
0000
0000
0000
0000
0000
0000
,
0000
0000
0000
0003
2200
0300
0000
0000
0000
0000
0000
0000
0000
0000
0000
0000
,
0000
0000
0000
3000
0002
0000
0000
0000
0000
0000
0000
0000
0000
0000
0000
0000
,
0000
0000
0000
0003
0220
0300
0000
0000
0000
0000
0000
0000
0000
0000
0000
0000
,
2000
3000
0000
0030
0200
0000
0000
0000
0000
0000
0000
0000
0000
0000
0000
0000
,
0000
0000
0000
0300
0011
0000
1000
0000
0100
0000
0010
0001
0010
0100
0010
1000
,
0100
0000
0110
0000
1001
0000
0100
0000
1000
0100
0010
0001
0001
0010
0100
1000
,
0020
0000
0000
0030
1100
0000
0000
0000
1100
0000
0000
0000
0010
0000
0010
0000
,
0100
0000
0000
0000
0000
0000
0000
0000
0000
0000
0000
0000
0100
0000
0000
0000
0000
0000
0000
0000
0000
0000
0000
0000
0010
0000
0000
0000
0000
0000
0000
0000
0000
0000
0000
0000
0000
0000
0000
0000
0000
0000
0000
0000
0000
0000
0000
0000
1000
0000
0000
0000
0000
0000
0000
0000
0000
0000
0000
0000
0000
0000
0000
0000
0000
0000
0100
0000
0000
0000
0000
0000
0000
0000
0000
0000
0000
0000
0010
0000
0000
0000
0000
0000
0001
0000
0000
0000
0000
0000
1000
0000
0000
0000
0000
0000
0100
0000
0000
0000
0000
0000
0000
0000
0010
0000
0000
0000
0000
0000
0000
0000
0001
0000
0000
0000
0000
0000
0000
0000
1000
0000
0000
0000
0000
0000
0000
0000
0100
0000
0000
0000
0000
0000
0000
0000
0010
0000
0000
0000
0000
0000
0000
0000
0001
0000
0000
0000
0000
0000
0000
0000
1000
0000
0000
0000
0000
0000
0000
0000
0100
0000
0000
0000
0000
0000
0000
0000
0010
0000
0000
0000
0000
0000
0000
0000
0001
0000
0000
0000
0000
0000
0000
0000
1000
0000
0000
0000
0000
0000
0000
0000
,
0100
0000
0000
0000
1000
0000
0000
0000
0001
0000
0000
0000
0010
0000
0000
0000
0000
0000
0100
0000
0000
0001
0000
0000
0100
0000
0000
0000
0000
0000
0010
0000
0000
1000
0000
0000
0010
0000
0000
0100
0000
0000
0010
0000
0000
0001
0000
0000
,
1000
0000
0000
0000
0000
0000
0000
0000
0000
0000
0000
0000
0000
0000
0000
0000
0000
0000
0000
0000
0000
0000
0000
0000
0001
0000
0000
0000
0000
0000
0000
0000
0000
0000
0000
0000
0010
0000
0000
0000
0000
0000
0000
0000
0000
0000
0000
0000
0001
0000
0000
0000
0000
0000
0000
0000
0000
0000
0000
0000
0000
0000
0000
0000
0000
0000
0000
0000
0000
0000
0000
0000
1000
0000
0000
0000
0000
0000
0000
0000
0000
0000
0000
0000
0000
0000
0000
0000
0002
0000
0000
0000
0000
0000
0000
0000
0000
0000
0000
0000
0000
0000
0000
0000
0000
0000
0000
0000
0000
0000
0000
0000
2003
0000
0000
0000
0000
0000
0000
0000
0000
0000
0000
0000
0000
0000
0000
0000
0000
0000
0000
0000
0000
0000
0000
0000
3020
0000
0000
0000
0000
0000
0000
0000
0000
0000
0000
0000
0000
0000
0000
0000
0000
0000
0000
0000
0000
0000
0000
0000
0130
0000
0000
0000
0000
0000
0000
0000
0001
0000
0000
0000
0000
0000
0010
0000
0000
0000
0000
0000
0100
0000
0000
0000
0000
0000
1000
0000
0000
0000
0000
0000
,
0010
0000
0000
0000
0001
0000
0000
0000
0100
0000
0000
0000
0011
0000
0000
0000
0000
0000
2000
0000
0000
3000
0000
0000
0100
0000
0000
0000
0000
0000
2000
0000
0000
3000
0000
0000
0010
0000
0000
0000
0000
0000
0002
0000
0000
0003
0000
0000
,
0200
0000
0300
0000
0020
0000
0030
0000
2000
0000
3000
0000
0200
0000
0300
0000
0020
0000
0030
0000
0002
0000
0003
0000
0200
0300
0020
0030
0200
0300
0020
0030
,
2000
3000
0002
0003
1010
0000
0100
0000
0001
0000
0010
0100
1000
0010
0100
0010
,
0001
0000
0101
0000
1010
0000
0100
0000
0001
0100
0001
1000
1000
0001
0100
0001
,
0020
0000
0000
0030
0101
0000
0000
0000
0101
0000
0000
0000
1000
0000
1000
0000
,
0001
0000
0000
0000
0000
0000
0000
0000
0000
0000
0000
0000
0001
0000
0000
0000
0000
0000
0000
0000
0000
0000
0000
0000
1000
0000
0000
0000
0000
0000
0000
0000
0000
0000
0000
0000
0000
0000
0000
0000
0000
0000
0000
0000
0000
0000
0000
0000
0001
0000
0000
0000
0000
0000
0000
0000
0000
0000
0000
0000
0000
0000
0000
0000
0000
0000
0010
0000
0000
0000
0000
0000
0000
0000
0000
0000
0000
0000
0100
0000
0000
0000
0000
0000
1000
0000
0000
0000
0000
0000
0001
0000
0000
0000
0000
0000
0010
0000
0000
0000
0000
0000
0000
0000
0100
0000
0000
0000
0000
0000
0000
0000
1000
0000
0000
0000
0000
0000
0000
0000
0001
0000
0000
0000
0000
0000
0000
0000
0010
0000
0000
0000
0000
0000
0000
0000
0100
0000
0000
0000
0000
0000
0000
0000
1000
0000
0000
0000
0000
0000
0000
0000
0001
0000
0000
0000
0000
0000
0000
0000
0010
0000
0000
0000
0000
0000
0000
0000
0100
0000
0000
0000
0000
0000
0000
0000
1000
0000
0000
0000
0000
0000
0000
0000
0001
0000
0000
0000
0000
0000
0000
0000
,
0010
0000
0000
0000
1000
0000
0000
0000
0100
0000
0000
0000
0010
0000
0000
0000
0000
0000
0010
0000
0000
0000
0000
0000
0002
0000
0000
0000
0000
0000
0013
0000
0000
0000
0000
0000
0010
0000
0000
0000
0000
0000
1000
0000
0000
0100
0000
0000
,
0001
0100
0010
1000
0001
0000
0200
0000
1300
0000
0200
0000
0310
0000
0001
0000
,
0001
0100
0010
1000
0100
0000
0020
0000
0031
0000
0100
0010
0000
0010
0200
0000
,
0301
0000
0200
0000
0310
0000
1100
0000
1001
0000
0010
0100
0001
0010
0100
0000
,
1010
0000
1010
0000
0202
0300
0000
0000
0000
0000
0000
0000
0000
0000
0000
0000
,
0000
0000
0000
0003
2000
0000
0000
0000
0000
0000
0000
0000
0000
0000
0000
0000
,
0000
0000
0000
3000
0022
0003
0000
0000
0000
0000
0000
0000
0000
0000
0000
0000
,
2000
3000
0000
0030
0200
0000
0000
0000
0000
0000
0000
0000
0000
0000
0000
0000
,
0000
0000
0000
0300
2002
0003
0000
0000
0000
0000
0000
0000
0000
0000
0000
0000
,
0000
0000
0000
3000
0020
0000
0000
0000
0000
0000
0000
0000
0000
0000
0000
0000
,
0000
0000
0000
0030
0202
0003
0000
0000
0000
0000
0000
0000
0000
0000
0000
0000
,
0020
0030
0000
0300
0002
0000
0000
0000
0000
0000
0000
0000
0000
0000
0000
0000
,
0000
0000
0000
2000
0000
0000
0000
0000
0000
0003
0000
0000
3200
0000
0000
0300
0000
0000
0000
0000
0000
0000
0010
0000
0000
0000
0000
0000
0000
0000
0000
0000
0000
0001
0000
0000
0000
0000
0000
0000
0000
0000
0000
0000
0020
0000
0000
0000
,
0000
0130
0000
0000
0000
0000
0000
0000
,
0000
0000
0000
0000
0020
0030
0000
0000
0000
0000
0000
0000
0000
0000
0000
0000
,
2000
3000
0000
0000
0000
0000
0000
0000
0000
0000
0000
0000
0000
0000
0000
0000
,
0000
0000
0000
0020
0000
0000
0000
0000
0000
0000
0000
0000
0230
0000
0000
0300
0000
0000
0000
0000
0000
0000
0001
0000
0000
0000
0000
0000
0000
0000
0000
0000
0000
1000
0000
0000
0000
0000
0000
0000
0000
0000
0000
0000
0002
0000
0000
0000
,
0000
0103
0000
0000
0000
0000
0000
0000
,
0000
0000
0000
0000
0020
0030
0000
0000
0000
0000
0000
0000
0000
0000
0000
0000
,
2000
3000
0000
0000
0000
0000
0000
0000
0000
0000
0000
0000
0000
0000
0000
0000
,
0000
0000
0000
0020
0000
0000
0000
0000
0000
0000
0000
0000
0230
0000
0000
0300
0000
0000
0000
0000
0000
0000
0010
0000
0000
0000
0000
0000
0000
0000
0000
0000
0000
0001
0000
0000
0000
0000
0000
0000
0000
0000
0000
0000
0020
0000
0000
0000
,
0000
0130
0000
0000
0000
0000
0000
0000
,
0000
0000
0000
0000
0020
0030
0000
0000
0000
0000
0000
0000
0000
0000
0000
0000
,
2000
0000
0000
0000
,
0000
3020
0000
0030
2100
3000
0000
0000
0100
0000
0000
0000
0100
0000
0000
0000
,
0100
0100
0100
0100
,
0100
0000
0000
0000
0120
0030
0000
0000
0100
0000
0000
0000
0100
0000
0000
0000
,
2100
3000
0000
0000
0100
0000
0000
0000
0100
0000
0000
0010
0100
0010
0100
0010
,
0100
0000
0000
0000
0021
0030
0000
0000
0001
0000
0000
0000
0001
0000
0000
0000
,
0001
0001
0001
0001
,
0001
0000
0000
0000
0021
0030
0000
0000
0001
0000
0000
0000
0001
0000
0000
0000
,
2001
3000
0000
0000
0001
0000
0000
0000
0001
0000
0000
0000
0001
0000
0000
0000
,
0001
1000
1000
1000
,
1000
1000
1000
1000
,
1000
1000
1000
1000
,
1000
1000
1000
1000
,
1000
0101
0010
1010
,
0100
0110
0001
1001
,
0100
1000
1100
0000
0010
0000
0011
0000
,
1000
0000
1010
0000
0100
0000
0101
0010
,
0000
0010
1001
0000
0100
0000
0110
0000
,
0001
0101
0010
1010
,
1000
0010
0110
0000
0001
0000
0011
0000
,
1000
0000
1100
0000
0010
0000
0110
0001
,
0000
0001
1100
0000
0010
0000
0110
0000
,
0001
1001
0100
1100
,
0010
0001
0101
0000
0010
0000
0110
0000
,
1000
0000
1001
0000
0010
0000
1100
0010
,
0000
0000
0000
0000
0000
0000
0010
0000
0000
0000
0000
0000
1001
0000
0000
0000
0000
0000
0000
0000
0000
0000
0100
0000
0000
0000
0000
0000
0000
0000
0000
0000
0000
0010
0000
0000
0000
0000
0000
0000
0000
0000
0000
0000
0002
0000
0000
0000
,
0000
0103
0000
0000
0000
0000
0000
0000
,
0000
0000
0000
0000
,
0000
0000
0000
0000
,
0000
0000
0000
0000
0000
0000
0000
0000
0110
0000
0000
0000
0010
0000
0000
0000
0101
0000
0000
0000
2000
3000
0000
0000
2000
3000
0000
0000
0002
0000
0003
0000
,
0010
1000
0010
1000
0101
0000
0101
0000
1010
0000
1010
0000
0100
0010
0100
1000
,
0010
0000
0000
0100
0000
0000
1000
0000
0100
0000
0010
0000
0001
0000
0000
0000
0010
0000
0000
0000
1000
0000
0000
0000
0200
0000
0000
0000
0000
0000
0000
0000
0000
0300
0000
0000
1000
0000
0000
0000
0000
0000
1000
0000
0000
0000
0000
0000
,
1000
1000
0110
0000
0010
0000
1010
0000
,
0100
0010
1000
0001
0200
0000
0000
0000
0000
0000
0300
0000
0020
0000
0030
0020
,
0000
0030
0020
0000
1030
0100
0010
0100
2000
0000
3100
0010
0002
0000
0013
0100
,
2000
3000
2000
3000
0020
0000
0000
0000
0030
0000
0001
0001
2000
0000
0000
0000
,
0000
0000
0000
0000
0000
0000
3010
0000
0000
0000
0000
0000
0200
0000
0000
0300
0000
0000
0002
0000
0000
0003
0000
0000
1000
0000
0100
0000
0010
0000
0001
0000
1000
0000
0100
0000
0020
0000
0000
0000
0000
0000
0032
0000
0000
0000
0000
0000
,
0203
0000
0310
0000
1100
0000
0001
0000
0101
0000
0010
0100
1000
0100
0010
0100
,
1001
0000
0000
0000
0000
0000
0000
0000
0010
0000
0001
0000
0200
0000
0300
0000
0010
0000
0001
0000
0200
0000
0300
0000
1000
0100
0010
0000
0001
0000
0001
0000
,
1000
0000
0002
0000
0013
1000
0100
1000
0011
0000
1000
0011
0000
0100
0010
0100
,
0010
0000
0000
0100
0000
0000
0010
0000
0000
0100
0000
0000
0010
0000
0000
0100
0000
0000
0010
0000
0000
0100
0000
0000
0010
0000
0000
0100
0000
0000
0010
0000
0000
0100
0000
0000
0001
0000
0010
0000
0100
0000
1000
0000
0001
0000
0010
0000
,
0100
1000
0001
0010
0100
1000
0001
0010
0100
0000
0000
0000
0100
0000
0000
0000
0001
0000
0010
0000
0100
0000
0001
0000
0000
0000
0001
0000
1000
0000
0100
0000
,
0010
1000
0100
0010
0001
0000
0002
0003
0100
0000
1000
0010
0000
0010
0100
0001
,
1000
0001
0100
1000
0010
0000
0010
0000
1000
0010
0100
0001
0000
0001
0100
0010
,
1000
0100
0010
1000
0001
0000
0001
0000
0010
0000
1000
0001
1000
0001
1000
0001
,
2000
3000
0002
0003
2000
3000
0002
0003
0010
0000
1100
0000
0000
0000
0010
0000
1100
0000
0000
0000
0010
0000
1100
0000
0000
0000
0001
0000
0010
0000
0100
0000
,
2002
3003
0220
0330
1000
0101
0000
0010
1001
0000
0100
0011
0000
1000
0010
0100
,
0001
0010
0200
0300
0001
0110
0000
0001
1010
0000
0001
1100
0000
0100
0010
0001
,
1000
0000
0000
0010
0000
0000
0002
0000
0000
0003
0000
0000
0010
0000
0000
1100
0000
0000
0000
0000
0000
0010
0000
0000
0202
0000
0000
0303
0000
0000
0000
0000
0000
0000
0000
0000
0020
0000
0030
0000
2200
0000
3300
0000
0020
0000
0030
0000
,
0101
0000
0110
0000
0110
0000
0110
0000
0110
0000
0001
0010
0100
0000
1000
0001
,
0100
0010
1000
0100
0020
0030
2000
3000
0001
0010
0100
1000
1000
0100
0010
0001
,
1000
0100
0010
0001
0200
0000
0000
0300
0011
0000
0001
0000
1000
0000
0002
0003
,
0002
0003
1000
0000
0010
0100
0010
0100
0011
0000
0011
0000
1000
0100
0010
0001
,
0001
0000
0000
0010
0000
0000
0100
0000
0000
1000
0000
0000
0001
0000
0000
0000
0100
0000
0000
0000
0010
0000
0000
0000
1000
0000
0000
0000
0000
0000
1000
0000
0000
0000
0000
0000
0010
0000
0000
0001
0000
0000
0010
0000
0000
0100
0000
0000
,
1000
0001
1000
0000
0000
0010
0100
0001
1000
0000
0001
0100
0001
0000
0100
1000
,
0100
0010
0100
1000
0011
0000
0011
0000
0100
0001
1000
0010
0100
0000
0010
0001
,
0100
0001
0010
0001
1000
0100
0010
0001
0110
0000
1000
0100
0000
0100
0010
0000
,
0010
0001
0000
0001
0220
0000
0000
0330
1001
0000
0001
0000
1100
0000
0001
0000
,
0010
0100
0001
0010
2000
0000
0000
3000
0100
0001
0100
0001
1010
0000
0001
1010
,
0000
0000
0000
0100
0000
0000
0001
0000
0010
0000
0100
0000
1010
0000
0000
0000
0000
0000
0101
0000
0000
0000
0000
0000
0020
0000
0000
0000
0000
0000
2030
0000
0000
0000
0000
0000
3002
0000
0000
0000
0000
0000
0203
0000
0000
0000
0000
0000
,
0320
0000
2030
0000
3200
0000
0000
0300
0011
0000
0000
0000
1000
0000
0010
0000
,
1010
0000
0000
0000
0000
0000
1010
0000
1000
0000
1000
0000
0101
0000
0000
0001
0000
0000
0001
0000
0000
0110
0000
0000
,
1000
0001
1000
0001
0200
0000
0000
0300
0011
0000
0001
0000
1001
0000
0000
1001
,
0000
0000
1001
0000
0010
0100
1000
0001
0220
0000
0000
0000
0330
0000
0000
0000
;
