#TITLE:The Fire Still Burns;
#SUBTITLE:;
#ARTIST:Dragonforce;
#TITLETRANSLIT:;
#SUBTITLETRANSLIT:;
#ARTISTTRANSLIT:;
#CREDIT:B. Abear;
#BANNER:Bn-Fire.png;
#BACKGROUND:Bg-Fire.png;
#LYRICSPATH:;
#CDTITLE:;
#MUSIC:The Fire Still Burns.ogg;
#OFFSET:-0.236;
#SAMPLESTART:82.960;
#SAMPLELENGTH:19.000;
#SELECTABLE:YES;
#DISPLAYBPM:200.000;
#BPMS:0.000=180.000,7.000=90.000,9.000=180.000,18.000=90.000,20.000=180.000,36.000=200.000,716.000=100.000,720.000=200.000,866.000=100.000,930.000=200.000;
#STOPS:348.000=2.100
,357.000=0.900
,358.500=0.600
,481.000=1.800
,554.000=0.900
,556.000=0.600
,585.000=0.300
,841.000=1.800
,1407.000=1.800
;
#BGCHANGES:;
// cache tags:
#FIRSTBEAT:0.000;
#LASTBEAT:1446.000;
#SONGFILENAME:Songs/Dragonforce/The Fire Still Burns/The Fire Still Burns.sm;
#HASMUSIC:1;
#HASBANNER:1;
#MUSICLENGTH:472.842;
// end cache tags

//---------------dance-single - B. Abear----------------
#NOTES:
     dance-single:
     B. Abear:
     Challenge:
     15:
     1.000,1.000,0.453,0.571,1.000,3426.000,214.000,270.000,187.000,1.000:



1001
0000
0000
0000
,
0000
0000
0000
2M2M
,
0000
3030
1010
1001
0011
0000
0000
0000
,
0000
0000
0000
0000
0000
0000
0220
0330
,
2200
3300
2002
3003
M00M
0000
0000
0000
,
1001
1010
0220
0000
0000
0000
0000
0000
,
0000
0000
0000
0000
0000
0000
0000
0330
,
1001
0000
0000
0000
,
0011
0000
0000
0000
0110
1100
2000
0000
,
3001
0100
0010
1000
0001
0010
0001
1000
0010
0100
0010
0100
0001
0100
0001
0100
,
0010
1000
0001
1000
0100
1000
0001
0100
0010
1000
0010
1000
0001
1000
0001
1000
,
0100
0010
0100
0000
0010
0001
0010
0000
0001
1000
0001
0000
1000
0010
1000
0000
,
0001
0010
0001
0000
1000
0100
1000
0000
0001
0010
0001
0000
0010
0100
0010
0000
,
0100
1000
0100
0000
0010
0100
0010
0000
0100
1000
0100
0000
1000
0001
1000
0000
,
0001
0100
0001
0000
0102
0000
2003
0000
3200
0000
0320
0000
M031
0000
10M0
0000
,
0001
0100
0001
0000
0100
0010
0100
0000
0010
1000
0010
0000
1000
0001
1000
0000
,
0001
0010
0001
0000
0010
0100
0010
0000
0100
1000
0100
0000
0020
0000
0032
0000
,
1003
0010
0100
0001
0100
0001
1000
0001
0010
0100
0010
0100
1000
0100
1000
0100
,
0010
0001
0010
0001
1M00
0000
1M00
0000
0010
0100
0010
0100
00M1
0000
00M1
0000
,
1000
0100
0010
0001
1000
0001
0100
0010
1000
0001
0100
0001
1000
0100
0010
0001
,
1M00
0001
01M0
0001
10M0
0100
M010
0001
M010
0100
10M0
0001
M200
0000
0320
0000
,
1030
0100
0001
0100
1000
0010
0400
0304
,
1003
0001
1000
0001
0100
0001
0100
0001
2000
0000
0000
0000
3001
0000
0010
0000
,
0100
0100
0010
4004
3003
0100
0001
0100
,
0010
1000
0001
0000
0010
0000
4400
0000
3300
0000
0001
0000
0001
0000
1000
0000
,
0010
0100
0001
1000
0010
0100
0010
0100
0001
1000
0100
1000
0001
0010
0001
0010
,
0100
1000
0100
1000
0001
1000
0001
1000
0001
0100
0001
0100
0010
0100
0010
1000
,
0MM1
M000
000M
00M0
,
M000
0M00
000M
00M0
,
0M00
000M
M000
00M0
,
0M00
0000
000M
0000
M000
0000
MM22
0033
,
11MM
000M
M000
00M0
,
0M00
000M
M000
00M0
,
M000
000M
0M00
00M0
,
M000
0000
0000
0000
0100
0010
0001
1000
0001
0000
2MM2
0000
0000
0000
3003
0000
,
2M1M
3002
0023
0230
2300
3002
0203
0320
,
2030
3002
0023
0032
2003
3020
0230
0302
,
2003
3200
0320
0032
2003
3002
0203
0320
,
2030
3002
0023
0230
2300
3001
2MM2
3003
,
M1M1
000M
M000
00M0
,
0M00
000M
00M0
0M00
,
M000
0M00
000M
M000
,
0100
0010
1000
0001
0100
0010
1000
0001
0010
0000
MM21
0000
0M00
0000
000M
0000
,
0M31
1000
0001
1000
0001
1000
0001
0010
0001
0010
0001
0010
0100
0010
0100
0010
,
0100
1000
0100
1000
0100
1000
0001
1000
0001
1000
0001
1000
0001
0100
0001
0100
,
0010
1000
0010
1000
0010
1000
0010
0100
0010
0100
0010
0100
0001
0100
0001
0100
,
0010
1000
0001
0010
0001
1000
0100
0010
0001
1000
0010
0100
0002
0000
1003
0000
,
0100
0010
0100
0010
0100
0010
0001
0010
0001
0010
0001
0010
0001
1000
0001
1000
,
0100
0010
0100
0010
0100
0010
0100
1000
0100
1000
0100
1000
0001
1000
0001
1000
,
0010
0100
0001
1000
0010
0100
0010
0100
0001
1000
0001
1000
0100
0010
0100
0010
,
0002
0103
0020
1030
0002
0043
0000
0000
,
0230
0000
1300
0000
0001
0100
0001
0000
1000
0010
1000
0000
0001
1000
0001
0000
,
0010
0001
2000
0000
3010
0000
0100
0001
2000
0000
3001
0000
0020
0000
0230
0000
,
1300
0001
1000
0000
0001
0100
0001
0000
0100
0010
0100
0000
0010
1000
0010
0000
,
2020
0000
3030
0000
2002
0000
3003
0000
0022
0000
0033
0000
0001
1000
0100
1000
,
0001
0100
0010
1000
0001
0010
0200
0000
1300
0001
0100
0010
2000
0000
3001
0010
,
0200
0000
1300
0001
0100
0001
2000
0000
3010
0100
0010
0100
0002
0000
1003
0100
,
1000
0010
0100
0001
0100
0001
1000
0010
0100
0001
0100
0001
1000
0001
1000
0000
,
1001
0001
0101
0100
0110
0010
1010
1000
,
0001
0010
0001
0000
1000
0100
1000
0000
0001
1000
0001
0000
0100
0001
0100
0000
,
0010
0100
0002
0000
1003
0000
0100
0010
0002
0000
1003
0000
0020
0000
0230
0000
,
0301
1000
0001
0000
1000
0100
1000
0000
0001
0010
0001
0000
0010
0100
0010
0000
,
0220
0000
0330
0000
2200
0000
3300
0000
2002
0000
3003
0000
1000
0001
0100
0001
,
1000
0000
M001
0100
0010
0100
0001
0010
0001
0000
100M
0010
0100
0001
1000
0001
,
0010
0000
01M0
1000
0001
0100
0001
1000
0001
0000
010M
0010
1000
0001
1000
0100
,
1000
0001
0101
0100
0110
0010
1010
1000
,
1001
0012
0000
0013
0110
0100
1000
0001
,
2000
0000
0010
0000
3010
0000
0200
0000
0001
0000
0301
0000
2000
0000
3100
0010
,
0002
0000
1000
0000
1003
0000
0020
0000
0100
0000
0130
0000
0002
0000
0013
0100
,
0020
0100
0130
2000
0001
3001
0200
0301
,
1000
0010
1000
0010
0100
0010
0100
0010
1000
0000
01M1
0000
M001
0000
10M0
0000
,
0201
0001
0301
2000
0100
3100
0020
0031
,
1002
1000
1003
0020
0100
0130
0002
1003
,
0011
0000
1000
0000
1000
0000
0101
0000
0010
0000
0010
0000
1001
0000
1000
0001
,
2000
0000
3001
0001
0010
0010
0100
0100
,
1000
0000
0001
0000
0100
0001
0100
0000
0010
0000
1000
0000
0001
0010
0001
0000
,
1000
0000
0100
0000
0010
0100
0010
0000
0100
0000
1000
0000
0001
0100
0001
0000
,
0101
0000
0100
0000
0010
1000
0010
0000
0100
0000
0001
0000
1000
0100
1000
0000
,
0002
0103
0020
1030
0002
0043
0430
4300
,
3001
0000
0100
0000
0010
0100
0010
0000
1000
0000
0001
0000
1000
0100
1000
0000
,
0001
0000
0001
0000
0100
0001
0100
0000
0010
0000
1000
0000
0001
0010
0001
0000
,
1000
0001
0100
0001
0100
0001
1000
0001
0100
0001
0100
0001
1000
0100
1000
0100
,
0010
0001
0010
0001
1000
0001
1000
0001
0100
0001
0100
0001
0100
0010
0100
0010
,
1000
0000
0001
0000
1000
0100
1000
0000
0001
0000
0010
0000
0100
0010
0100
0000
,
1000
0000
0001
0000
0100
0001
0100
0000
0010
0000
1000
0000
0M01
0000
00M1
0000
,
1000
0000
0001
0000
0010
0001
0010
0000
0100
0000
1000
0000
0001
0100
0001
0000
,
1000
0101
0101
0001
1100
0110
0010
0001
,
1MM1
0000
1200
0000
0310
0010
0001
0001
,
1000
1000
0010
0010
0100
0100
0001
0001
,
1000
1000
1M1M
0000
0110
M1M1
0000
0000
,
0001
0000
1000
0000
0001
0100
0010
0000
1000
0000
0001
0000
0010
0100
1000
0000
,
0001
0000
0100
0000
0010
1000
0001
0000
0100
0000
0001
0000
1000
0100
0010
0000
,
0011
0000
0001
0000
1000
0001
0100
0000
0010
0000
1000
0000
0001
1000
0010
0100
,
0001
1000
0001
1000
0100
1000
0100
1000
0001
0010
0001
0010
0001
1000
0001
1000
,
0100
0000
0010
0000
0001
0010
0001
0000
1000
0000
0010
0000
0100
0001
0100
0000
,
0001
0000
0010
0000
0100
1000
0100
0000
0010
0000
0001
0000
1000
0001
1000
0000
,
0001
0100
0010
1000
0010
1000
0001
1000
0010
1000
0010
1000
0001
1000
0010
1000
,
0001
0010
0100
1000
0100
1000
0001
1000
0100
1000
0100
1000
0001
1000
0100
1000
,
0001
0100
0010
1000
0001
0010
0001
1000
0100
1000
0001
0010
0100
1000
0001
0100
,
0010
0100
0001
1000
0010
0100
0001
1000
0100
1000
0001
0010
0100
1000
0001
1000
,
0100
0010
0001
1000
0001
0100
0010
1000
0001
0010
0001
1000
0010
0100
0001
1000
,
0100
0010
0001
1000
0001
0100
0010
1000
0001
0100
0001
0100
0001
0100
0001
0100
,
0020
0000
1030
0001
1000
0100
0020
0000
0031
1000
0100
1000
0001
0010
0100
1000
,
0002
0000
1003
0100
0010
0001
2000
0000
3010
0100
0001
1000
0001
0100
0010
0000
,
0110
0101
1001
1100
0000
0110
0000
0011
,
0000
1001
0000
1010
0110
0101
1001
0000
,
1100
0000
0100
0000
0010
0001
0010
0000
0001
0000
1000
0000
0001
0100
0001
0000
,
1000
0000
0010
0000
1000
0010
1000
0000
0001
0000
0010
0000
010M
0000
010M
0000
,
1100
0000
1000
0000
0001
0100
0001
0000
0100
0000
0010
0000
1000
0010
1000
0000
,
0001
0000
0010
0000
0100
1000
0100
0000
1000
0000
1000
0000
0004
0000
0403
0000
,
0310
0000
1000
0000
0001
0100
0001
0000
1000
0000
0001
0000
1000
0100
1000
0000
,
0001
0000
0010
0000
0100
1000
0100
0000
0010
0000
0001
0000
1000
0001
1000
0000
,
0001
0100
0010
1000
0010
0000
1000
0001
1000
0001
1000
0000
0001
0000
1000
0100
,
1000
0000
0001
0000
0100
0010
1000
0000
0001
0010
0100
1000
0001
1000
0010
0100
,
0001
0000
1000
0000
0001
0010
0001
0000
1000
0000
0001
0000
0100
0010
0100
0000
,
0010
0000
1000
0000
0001
1000
0001
0000
0010
0000
0100
0000
1000
0001
1000
0000
,
0001
0000
0100
0000
0010
1000
0010
0000
0100
0000
0001
0000
1000
0100
1000
0000
,
0001
0010
0100
1000
0001
0010
0100
1000
0001
0010
0100
1000
0001
0010
0100
1000
,
0001
0100
0010
1000
0001
0010
0001
1000
,
0001
0010
0001
1000
0010
1000
0001
0100
0010
1000
0001
0010
0001
1000
0100
0000
,
1100
0000
1MM1
0000
0001
0002
0000
1003
,
0100
0000
0010
0000
0100
0000
1000
0000
0010
0000
0100
0000
0001
1000
0100
0000
,
0020
0000
0000
0000
0000
0000
0000
0000
0000
0000
0000
0000
0031
1000
0001
2000
0000
0000
0000
0000
0000
3010
0000
0000
,
0100
0001
1000
0100
0020
0030
0002
0003
,
4000
0000
0000
0000
3001
0200
0000
0310
,
1000
0001
1000
0001
0010
0000
0001
0000
1000
0100
1000
0100
0010
0000
0001
0000
,
0100
0001
0100
0001
1000
0000
0001
0000
1000
0100
0010
0001
1000
0100
0010
0001
,
1000
0100
0010
0001
1000
0100
0010
0001
1000
0001
0100
0001
1000
0010
0100
0010
,
1000
0001
0100
0001
1000
0010
0100
0010
1000
0001
0010
0001
1000
0010
0100
0001
,
1000
0100
1000
0001
0010
0001
1000
0010
0100
0001
0100
0001
1000
0100
0010
0100
,
1000
0001
0010
0001
1000
0010
0100
0001
1000
0001
0010
0100
1000
0001
0010
0001
,
1000
0001
1000
0001
1000
0010
0100
0001
1000
0001
1000
0010
0100
0001
1000
0100
,
1000
0001
0010
0100
1000
0001
0010
0001
1000
0000
2000
0000
0000
0000
3010
0000
,
0100
0000
0000
0001
0000
0000
1000
0000
0000
0001
0000
0000
0100
0000
0000
0000
0000
0000
0010
0000
0000
0000
0000
0000
1000
0000
0000
0000
0000
0000
0000
0000
0001
0000
0000
0000
0000
0000
0000
0000
0010
0000
0000
0000
0000
0000
0000
0000
,
0400
0000
0000
0000
0000
0000
0000
0000
1300
0001
0100
0001
0100
0001
1000
0001
,
0100
0001
0100
0001
1000
0001
0100
0001
0010
0100
1000
0100
1000
0100
0010
0100
,
1000
0100
1000
0100
0010
0100
1000
0000
1001
0000
0000
0000
0000
0000
0000
0000
,
0101
0000
0000
0000
0000
0000
0110
0000
1010
0000
1001
0000
,
0011
0000
0000
0000
0110
0000
0000
0000
1100
0000
0000
0000
1MM1
0000
0000
0000
0000
0000
1001
0000
0000
0110
0000
0000
,
1MM1
0000
0001
0010
0200
0000
1300
0001
,
1000
0010
1000
0000
0001
0000
0010
0000
0100
1000
0100
0000
1000
0000
0001
0000
,
0100
0001
0100
0000
0010
0000
1000
0000
0010
0100
0010
0000
0100
0000
0001
0000
,
1000
0001
1000
0000
0001
0010
0001
0010
0100
0010
0100
0010
0100
1000
0100
1000
,
0001
1000
0001
1000
0010
0000
0100
0000
0001
0100
0001
0000
1000
0000
0001
0000
,
1000
0100
1000
0000
0001
0000
0010
0000
0100
0010
0100
0000
0010
0000
0001
0000
,
1000
0010
1000
0000
0001
0100
0001
0100
0010
0100
0010
0100
0010
1000
0010
1000
,
0001
1000
0001
0000
1MM1
0000
0000
0000
1001
0000
1200
0000
0000
0000
0000
0000
,
0320
0000
0031
0100
0010
1000
0001
1000
0100
0010
0001
1000
0001
0100
0001
1000
,
0020
0000
0130
0001
1000
0001
0020
0000
0130
1000
0001
1000
0002
0000
2003
0000
,
3002
0000
0013
0100
1000
0001
0100
0001
1000
0010
0100
0001
1000
0100
1000
0001
,
0010
0100
0010
0000
0001
1000
0001
1000
0001
0000
0100
0001
0100
0001
0100
0000
,
M010
0000
0010
1000
0001
1000
0100
0000
M01M
0000
0010
0001
1000
0001
0100
0000
,
M01M
0000
0100
0001
0010
0100
1000
0000
0MM1
0000
1000
0010
0100
0001
0100
0000
,
0001
0010
0001
0010
0100
0010
0100
0010
0100
1000
0100
1000
0001
1000
0001
1000
,
0020
0230
0302
2003
3200
0320
0032
2003
,
3002
0000
0010
0000
0013
0000
0200
0000
1000
0000
1300
0000
0002
0000
0013
0100
,
2000
0000
0001
0000
3001
0000
0200
0000
0010
0000
0310
0000
2000
0000
3100
0010
,
0200
0310
0002
0103
0020
1030
0002
1003
,
0001
0100
0001
0000
1000
0000
0001
0100
0001
0000
1000
0000
0001
0000
0010
0000
,
0021
0000
0001
0000
0031
0000
2000
0000
0100
0000
3100
0000
0020
0000
0031
1000
,
0002
0000
1000
0000
1003
0000
0020
0000
0100
0000
0130
0000
0002
0000
1003
0100
,
0010
0000
0001
0000
0001
0000
1010
0000
0100
0000
0100
0000
1001
0000
0001
1000
,
0002
0000
1003
1000
0100
0100
0010
0010
,
0001
0000
1000
0000
0010
1000
0010
0000
0100
0000
0001
0000
1000
0100
1000
0000
,
0001
0000
0010
0000
0100
0010
0100
0000
0010
0000
0001
0000
1000
0010
1000
0000
,
1010
0000
0010
0000
0100
0001
0100
0000
0010
0000
1000
0000
0001
0010
0001
0000
,
2000
3010
0200
0301
2000
3400
0340
0034
,
1003
0000
0010
0000
0100
0010
0100
0000
0001
0000
1000
0000
0001
0010
0001
0000
,
1000
0000
1000
0000
0010
1000
0010
0000
0100
0000
0001
0000
1000
0100
1000
0000
,
0001
1000
0010
1000
0010
1000
0001
1000
0010
1000
0010
1000
0001
0010
0001
0010
,
0100
1000
0100
1000
0001
1000
0001
1000
0010
1000
0010
1000
0010
0100
0010
0100
,
0001
0000
1000
0000
0001
0010
0001
0000
1000
0000
0100
0000
0010
0100
0010
0000
,
0001
0000
1000
0000
0010
1000
0010
0000
0100
0000
0001
0000
10M0
0000
1M00
0000
,
0001
0000
1000
0000
0100
1000
0100
0000
0010
0000
0001
0000
1000
0010
1000
0000
,
0001
0010
0100
1000
0001
0010
0100
1000
0001
0010
0100
1000
0001
0010
0100
0000
,
110M
00M0
0M00
M000
000M
00M0
0M00
M000
,
000M
00M0
0M00
M000
000M
00M0
0M00
M000
,
2002
0003
3001
0100
0010
1000
0001
0010
,
0001
1000
0100
1000
0010
0100
0001
1000
,
2MM2
0000
0000
3003
M22M
0000
0000
0330
,
1000
0000
0001
0000
1000
0010
0100
0000
0001
0000
1000
0000
0100
0010
0001
0000
,
1000
0000
0010
0000
0100
0001
1000
0000
0010
0000
1000
0000
0001
0010
0100
0000
,
1100
0000
1000
0000
0001
1000
0010
0000
0100
0000
0001
0000
1000
0001
0100
0000
,
0002
0023
0230
2300
3002
0203
0320
2030
,
3001
0000
0100
0000
0001
0010
0001
0000
1000
0000
0010
0000
0100
0001
0100
0000
,
0001
0000
0010
0000
0100
1000
0100
0000
0010
0000
0001
0000
1000
0001
1000
0000
,
0001
0100
0010
1000
0010
1000
0001
1000
0010
1000
0010
1000
0001
1000
0010
1000
,
0001
0010
0100
1000
0100
1000
0001
1000
0100
1000
0100
1000
0001
1000
0100
1000
,
0001
0000
1000
0000
0001
0010
0001
0000
1000
0000
0010
0000
0100
0001
0100
0000
,
0001
0000
1000
0000
0001
0010
0001
0000
1000
0000
0100
0000
0010
0100
0010
0000
,
0110
0000
0100
0000
1000
0001
1000
0000
0001
0000
0100
0000
0010
1000
0010
0000
,
0100
0000
0001
0000
1000
0100
1000
0000
0001
0100
0001
0100
0001
0100
0001
0100
,
0020
0000
1030
0001
1000
0100
0020
0000
0031
1000
0100
1000
0001
0010
0100
1000
,
0002
0000
1003
0100
0010
0001
2000
0000
3010
0100
0001
1000
0001
0100
0010
0000
,
0110
0101
1001
1100
0000
0110
0000
0011
,
0000
1001
0000
1010
0110
0101
1001
0000
,
1100
0000
0100
0000
0010
0001
0010
0000
0001
0000
1000
0000
0001
0100
0001
0000
,
1000
0000
0010
0000
1000
0010
1000
0000
0001
0000
0010
0000
010M
0000
010M
0000
,
1100
0000
1000
0000
0001
0100
0001
0000
0100
0000
0010
0000
1000
0010
1000
0000
,
0001
0000
0010
0000
0100
1000
0100
0000
1000
0000
1000
0000
0004
0000
0403
0000
,
0310
0000
1000
0000
0001
0100
0001
0000
1000
0000
0001
0000
1000
0100
1000
0000
,
0001
0000
0010
0000
0100
1000
0100
0000
0010
0000
0001
0000
1000
0001
1000
0000
,
0001
0100
0010
1000
0010
1000
0001
0100
0010
1000
0010
1000
0001
0000
1000
0100
,
1000
0000
0001
0000
0100
0010
1000
0000
0001
0010
0100
1000
0001
1000
0010
0100
,
0001
0000
1000
0000
0001
0010
0001
0000
1000
0000
0001
0000
0100
0010
0100
0000
,
0010
0000
1000
0000
0001
1000
0001
0000
0010
0000
0100
0000
1000
0001
1000
0000
,
0001
0000
0100
0000
0010
1000
0010
0000
0100
0000
0001
0000
1000
0100
1000
0000
,
0001
0100
0010
1000
0001
0100
0010
1000
0001
0100
0010
1000
0001
0100
0010
1000
,
0001
0100
0010
1000
0001
0010
0001
1000
,
0001
0010
0001
1000
0010
1000
0001
0100
0010
1000
0001
0010
0001
1000
0100
0000
,
1100
0000
0000
0000
1MM1
0000
0000
0000
0001
1000
0100
1000
0100
1000
0001
1000
,
0100
1000
0100
1000
0001
1000
0100
0010
0001
1000
0010
1000
0010
1000
0001
1000
,
0010
1000
0010
1000
0001
1000
0001
0000
1001
0000
00M0
0000
0M00
0000
M000
0000
,
000M
00M0
000M
M000
0M00
000M
M000
00M0
,
0M00
000M
M000
000M
00M0
000M
0M00
00M0
,
M000
000M
0M00
00M0
0M00
000M
00M0
0M00
,
00M0
M000
000M
M000
2000
0000
0000
3002
,
0203
0000
0000
0320
0000
0000
2030
0000
3004
0000
0000
0000
0000
0000
0000
0000
,
0000
0000
0000
0000
0000
0003
0000
0000
1002
0000
0000
0000
0000
0000
2003
0000
,
3200
0000
0000
0320
0000
0000
0032
0000
2003
0000
3020
0000
0430
0000
0000
0000
,
0000
0000
0300
0000
0102
0000
0000
2003
,
3002
0000
0000
0203
0000
0000
0320
0000
2030
0000
0000
3002
0000
0000
0023
0000
,
0230
0000
0000
2300
0000
0000
3002
0000
2013
0000
0000
3002
0000
0000
0023
0000
,
0230
0000
0000
2300
0000
0000
3002
0000
4003
0000
0000
0000
0000
0000
0000
0000
,
0000
0000
0000
3000
0000
0000
0000
0000
1001
1100
0000
1001
0202
0000
0000
0000
,
0000
0000
0000
0000
,
0000
0000
0000
0000
0000
0000
0303
0000
0101
0110
0000
0101
2002
0000
0000
0000
,
0000
0000
0000
0000
,
0000
0000
0000
0000
0000
0000
3003
0000
1001
1010
0000
1001
0022
0000
0000
0000
,
0000
0000
0000
0000
,
0000
0000
0000
0000
0000
0000
0033
0000
1100
0110
0000
1100
2002
0000
0000
0000
,
0000
0000
0000
0000
,
0000
0000
0000
3003
0001
0001
1000
1000
,
0100
0100
0010
0010
0001
0001
0100
0100
,
0001
0001
1000
1000
1001
0000
0000
0000
,
0000
0000
0000
0000
,
0000
0000
0202
0303
0101
0110
1010
0000
,
0000
2002
0000
0000
,
0000
3003
2200
3300
0110
0011
1001
0000
,
0000
0000
0000
0000
,
0000
0000
0000
0000
1001
0001
0001
0100
,
0010
0010
1000
0001
0010
0100
0100
1000
,
0001
0000
0001
0000
1000
0000
0001
0000
1000
0100
0010
0100
0010
0100
1000
0100
,
0010
0000
0000
0100
0000
0000
0010
0000
0000
0100
0000
0000
1000
0000
0000
0100
0000
0000
0010
0000
0000
0000
0000
0000
0011
0000
0000
0000
0000
0000
0000
0000
1001
0000
0000
0000
0000
0000
0000
0000
0101
0000
0000
0000
0000
0000
0000
0000
,
0110
0000
0000
0100
0001
1000
4004
0000
0000
0000
0000
0000
,
0000
0000
0000
0000
3003
0000
0MM0
0000
1000
0100
0010
0001
1000
0001
0100
0001
,
1000
0100
0010
0001
1000
0010
1000
0001
0100
0001
1000
0100
0010
0001
0010
0100
,
1000
0001
0100
0001
0100
0010
0100
0001
1000
0100
1000
0000
0001
0100
0001
0000
,
1000
0010
1000
0001
0010
0001
1000
0100
1000
0001
0100
0001
1000
0010
1000
0001
,
0040
0000
0000
0000
0000
0000
0000
0000
0130
1000
0001
0100
0001
1000
0010
0100
,
0001
1000
0100
1000
0001
0010
0001
1000
0100
0010
0001
1000
0001
0100
0010
1000
,
0001
0010
0100
0010
0001
0100
0001
1000
0010
0100
0001
1000
0001
1000
0001
1000
,
0001
1000
0001
1000
0010
1000
0001
1000
0010
1000
0001
1000
0001
1000
0001
1000
,
0001
0010
0100
1000
0001
0000
0100
0000
0010
0000
1000
0000
0001
0010
0001
0000
,
1000
0000
0001
0000
0010
0100
0010
0000
0100
0000
1000
0000
0001
0100
0001
0000
,
1000
0000
0010
0000
0100
0001
0100
0000
0010
0000
1000
0000
0001
0010
0001
0000
,
0010
0000
0100
0000
1000
0001
1000
0000
0001
0000
1000
0000
0001
0010
0001
0000
,
4004
0000
0000
0000
0000
0000
3003
0000
1000
0100
0010
0001
0010
0001
0010
0100
,
4000
0004
0000
0000
0000
3000
0000
0003
1000
0010
0100
0001
0100
0001
0100
0010
,
4000
0004
0000
0000
0000
3000
0000
0003
1000
0010
0100
0001
1000
0100
0010
0001
,
1000
0010
1000
0001
0100
0010
1000
0000
1001
0000
0001
0100
0010
1000
0100
0000
,
1100
0100
0110
0010
0012
2003
3020
0230
,
0301
0000
1000
0000
0010
0000
0400
0000
0000
0300
0000
0001
,
0010
0000
0100
0000
1000
0000
0004
0000
0000
0003
0000
0000
,
1000
0000
0000
0000
0000
0000
0000
0000
0010
0000
0000
0000
0000
0000
0000
0000
0100
0000
0000
0000
0000
0000
0000
0000
0001
0000
0000
0100
0000
0000
0010
0000
0000
0000
0000
0000
0100
0000
0000
0000
0000
0000
0001
0000
0000
0100
0000
0000
,
0010
0000
0100
0000
0001
0010
0100
0000
2100
0000
0000
0000
0000
0000
0000
0000
,
0000
0000
3100
0010
0014
4003
3040
0130
,
0001
0000
2000
0000
0000
0000
3001
0000
0010
0001
1000
0010
0100
0001
1000
0100
,
1000
0001
0010
0001
1000
0010
0100
0001
1000
0100
1000
0100
0010
0100
0010
0100
,
0010
0001
0010
0001
1000
0001
1000
0001
0100
0010
1000
0001
0010
0001
1000
0100
,
0010
0001
1000
0010
0100
0001
1000
0100
1000
0001
0010
0001
1000
0010
0100
0001
,
0100
0001
1000
0100
0010
0001
1000
0001
2000
0000
0000
0000
3020
0000
0230
0000
,
0000
0302
0000
2003
0000
3002
0000
0023
,
0000
0000
0000
0000
0000
0000
0000
0000
0130
1000
0001
0100
0001
1000
0010
0100
,
0001
1000
0001
1000
0100
0010
0001
1000
0100
1000
0001
0100
0010
0100
0010
1000
,
0001
0010
0001
1000
0100
0010
0001
1000
0010
0100
0001
1000
0001
1000
0010
0100
,
0001
1000
0001
1000
0100
1000
0100
1000
0001
0010
0100
1000
0001
0010
0100
1000
,
0001
0010
0100
1000
0001
0010
0100
1000
0001
0000
0100
0000
0010
0000
1000
0000
,
M000
0001
000M
0020
0000
0130
1000
0001
,
0100
0000
1000
0000
0100
0000
0001
0000
1000
0100
1000
0100
1000
0000
0001
0000
,
0010
0010
0100
1000
0001
0001
0100
0010
,
0M0M
0000
2020
0000
0000
0000
0030
0000
3010
0100
0001
1000
0001
0010
0100
1000
,
0001
0010
0001
1000
0010
0100
0010
1000
0001
0010
0100
1000
0001
0010
0100
1000
,
0001
0010
0100
1000
0001
0010
0100
1000
1001
0000
0000
0000
0101
0000
0000
0000
,
0110
1010
1001
1100
,
0110
0000
0000
0000
0011
0000
0000
0000
1001
0000
0001
0000
1000
0100
1000
0000
,
0001
0000
0100
0000
0010
0100
0010
0000
1000
0000
0001
0000
0010
0001
0010
0000
,
0100
0000
1000
0000
0001
0100
0001
0000
1000
0100
0010
0001
1000
0010
0100
0001
,
1000
0001
0010
0100
2000
0000
0000
0000
,
0004
0000
3003
2000
,
3020
0000
0230
0000
0302
0000
0000
0023
,
0000
0000
0000
0000
0230
0000
0000
0000
1300
0001
0100
0001
0100
0001
1000
0001
,
0100
0001
0100
0001
1000
0001
0100
0001
1000
0001
0010
0001
0010
0001
1000
0001
,
0010
0001
0010
0001
1000
0001
0010
0001
1000
0100
0010
0001
1000
0001
0100
0010
,
1000
0001
0010
0001
1000
0100
1000
0010
0100
0001
0100
0001
1000
0001
1000
0001
,
1000
0000
0000
0100
0000
0000
1000
0000
0000
0100
0000
0000
0010
0000
0000
0100
0000
0000
0010
0000
0000
0100
0000
0000
1000
0000
0000
0000
0000
0000
0000
0000
0001
0000
0000
0000
0000
0000
0000
0000
0100
0000
0000
0000
0000
0000
0000
0000
,
0010
0000
0000
0000
1000
0000
0000
0000
0001
0000
0000
0000
2000
0000
0000
0000
0000
0000
0002
0000
0000
3000
0000
0000
,
1003
0010
1000
0010
1000
0010
1000
0010
0200
0000
0000
0000
0301
0000
0020
0000
,
0000
0000
0000
0130
0000
0000
1000
0000
0000
0001
0000
0000
1000
0020
0000
0000
0000
0000
0130
0000
0000
0002
0000
0000
,
0000
0000
1003
0000
0100
0000
0010
0000
0001
0010
0001
0010
0100
1000
0001
0100
,
0010
1000
0001
0010
0100
1000
0001
0100
0010
1000
0010
1000
0010
0100
0010
0100
,
0001
0100
0001
0100
0001
1000
0001
1000
0100
0000
0010
0000
0001
1000
0001
0000
,
0100
0000
0010
0000
1000
0010
1000
0000
0001
0000
0010
0000
0200
0000
2300
0000
,
3200
0000
2300
0000
3004
0000
0403
0000
0310
0000
1000
0000
0001
1000
0001
0000
,
0010
0000
0100
0000
1000
0001
1000
0000
0010
0000
0400
0000
0301
0000
4000
0000
,
3002
0000
0023
0000
0230
0000
2300
0000
3001
0000
0100
0000
0010
0100
0010
0000
,
0100
0000
0001
0000
1000
0100
1000
0000
0001
0000
0010
0000
0001
0010
0001
0000
,
1000
0000
0100
0000
1000
0010
1000
0000
0001
0010
0001
1000
0100
0010
0001
1000
,
0010
0100
0001
1000
0001
1000
0010
0100
0001
1000
0100
0010
0001
1000
0001
1000
,
0100
0010
0100
1000
0001
0100
0010
1000
0001
0100
0010
1000
0100
1000
0001
0100
,
0001
0010
0100
1000
0001
0100
0001
1000
0010
0100
0010
0100
0001
1000
0100
1000
,
0001
0010
0100
1000
0001
0010
0001
1000
0100
0010
0001
1000
0001
0100
0001
0100
,
0010
1000
0001
1000
0100
1000
0001
0010
0001
0100
0010
1000
0001
0100
0010
1000
,
0001
0100
0010
1000
0001
0100
0010
1000
0001
0010
0001
0010
0100
1000
0001
0100
,
0010
0100
0010
1000
0001
1000
0100
0010
0001
0010
0100
1000
0001
0100
0010
1000
,
0010
0100
0001
1000
0001
0010
0100
1000
0001
0010
0001
0010
0001
0010
0100
0010
,
0100
0010
0100
0010
0100
1000
0100
1000
0001
0100
0010
1000
0001
0100
0001
0100
,
0010
0100
0010
0100
0010
1000
0010
1000
0M01
0000
00M0
0000
M000
0000
000M
0000
,
00M0
M000
0M00
00M0
1001
0M00
000M
M000
,
00M0
0000
000M
0000
M000
0000
00M0
0000
1100
0000
0100
0010
0001
1000
0001
0010
,
0001
1000
0001
0100
0001
1000
0010
0100
0001
1000
0100
0010
0100
0010
0001
1000
,
0100
0010
0100
0010
0001
1000
0001
1000
0001
0000
1000
0000
0001
0100
0010
0000
,
1000
0000
0001
0000
0010
0100
1000
0000
0001
0000
0100
0000
0010
1000
0001
0000
,
0100
0000
0001
0000
1000
0100
0010
0000
0011
0000
0001
0000
1000
0001
0100
0000
,
0010
0000
1000
0000
0001
1000
0010
0000
0200
0000
0302
0000
2003
0000
3200
0000
,
0320
0000
0230
0000
2300
0000
3002
0000
1003
0000
0010
0000
1000
0100
1000
0000
,
0001
0000
0100
0000
0010
1000
0010
0000
1000
0000
0100
0000
0010
0001
0010
0000
,
0100
0000
1000
0000
0001
1000
0001
0000
1000
0010
0100
0001
1000
0010
0100
0001
,
1000
0010
0100
0001
1000
0010
0100
0001
1000
0100
0010
0001
0010
0001
1000
0001
,
0010
0001
0010
0001
1000
0001
0010
0001
1000
0000
0001
0000
0100
0010
0100
0000
,
0010
0000
1000
0000
0001
0010
0001
0000
1000
0000
0100
0000
1000
0001
1000
0000
,
0001
0000
0100
0000
0010
1000
0010
0000
0100
0000
0001
0000
1000
0001
1000
0000
,
0001
0000
0010
0000
0100
1000
0100
0000
0010
0000
0001
0000
1000
0001
1000
0000
,
0001
0100
0001
0100
0001
0100
0001
0100
0020
0000
1030
0001
1000
0100
0020
0000
,
0031
1000
0100
1000
0001
0010
0100
1000
0002
0000
1003
0100
0010
0001
2000
0000
,
3010
0100
0001
1000
0001
0100
0010
0000
0110
0000
0101
0000
1001
0000
1100
0000
,
0000
0110
0000
0011
0000
1001
0000
1010
,
0110
0000
0101
0000
1001
0000
0000
0000
1100
0000
0100
0000
0010
0001
0010
0000
,
0001
0000
1000
0000
0001
0100
0001
0000
1000
0000
0010
0000
1000
0010
1000
0000
,
0001
0000
0010
0000
M001
0000
M001
0000
0101
0000
0100
0000
0001
0100
0001
0000
,
0100
0000
0010
0000
1000
0010
1000
0000
0001
0000
0010
0000
0100
1000
0100
0000
,
1000
0000
1000
0000
0004
0000
0403
0000
0310
0000
1000
0000
0001
0100
0001
0000
,
1000
0000
0001
0000
1000
0100
1000
0000
0001
0000
0010
0000
0100
1000
0100
0000
,
0010
0000
0001
0000
1000
0001
1000
0000
0001
0100
0010
1000
0010
1000
0001
0010
,
0100
1000
0001
1000
0001
0010
0001
0010
0001
1000
0010
0100
0010
0100
0001
1000
,
0001
0010
0100
1000
0001
1000
0010
0100
0001
0000
1000
0000
0001
0010
0001
0000
,
1000
0000
0001
0000
0100
0010
0100
0000
0010
0000
1000
0000
0001
1000
0001
0000
,
0010
0000
0100
0000
1000
0001
1000
0000
0001
0000
0100
0000
0010
1000
0010
0000
,
0100
0000
0001
0000
1000
0100
1000
0000
0001
0010
0100
1000
0001
0010
0100
1000
,
0001
0010
0100
1000
0001
0010
0100
1000
0001
0000
0100
0000
0010
1000
0010
0000
,
0100
0000
0001
0000
1000
0100
1000
0000
0001
0010
0100
1000
0100
1000
0001
0010
,
0100
1000
0100
1000
0001
1000
0001
0000
1001
0000
0000
0000
1MM1
0000
0000
0000
,
1000
0010
0100
0001
1000
0010
0100
0001
1000
0010
0100
0001
1000
0010
0100
0001
,
1000
0000
0001
0010
0001
0000
1000
0000
0001
0010
0001
0000
1000
0001
1000
0000
,
1001
0110
2002
0000
0000
0000
0000
0000
,
0040
0000
0000
3033
,
1001
0001
0100
0110
0000
1010
0000
1001
,
0000
0011
0000
0110
0000
1100
0100
1000
,
1001
0000
0000
0101
0000
0000
0220
0000
,
0000
0000
0000
0000
0000
0000
0000
0330
,
4004
0000
0000
0000
0000
3003
1001
0110
,
2002
0000
3003
0000
;
