#TITLE:Crank That Soulja Boy;
#SUBTITLE:;
#ARTIST:Soulja Boy;
#TITLETRANSLIT:;
#SUBTITLETRANSLIT:;
#ARTISTTRANSLIT:;
#CREDIT:Steps & Cut by C Jota;
#BANNER:;
#BACKGROUND:;
#LYRICSPATH:;
#CDTITLE:;
#MUSIC:crank_that_(soulja_boy).ogg;
#OFFSET:0.325;
#SAMPLESTART:31.330;
#SAMPLELENGTH:15.000;
#SELECTABLE:YES;
#DISPLAYBPM:140.000;
#BPMS:0.000=139.990;
#STOPS:121.000=6.440
;
#BGCHANGES:;
// cache tags:
#FIRSTBEAT:9.000;
#LASTBEAT:329.500;
#SONGFILENAME:Songs/lvsb tourney pack/Crank That Soulja Boy/Crank That Soulja Boy.sm;
#HASMUSIC:1;
#HASBANNER:0;
#MUSICLENGTH:105.000;
// end cache tags

//---------------dance-single - ----------------
#NOTES:
     dance-single:
     :
     Challenge:
     10:
     1.000,0.981,1.000,0.543,0.319,610.000,109.000,57.000,0.000,0.000:

0000
0000
0000
0000
,
0000
0000
0000
0000
,
0000
0000
2001
3001
0100
0010
1000
0100
,
0011
0000
0001
0010
0001
0100
0010
1000
,
1010
0000
0010
1000
0010
0100
0001
1000
,
0001
0000
0010
0000
0100
0000
1000
0200
0000
0300
0011
0000
1002
0000
1003
0000
,
0010
0100
0210
0000
0310
1000
0001
0010
,
0100
1000
2100
0000
3010
1000
0001
0100
,
0010
1000
2001
0000
3100
1000
0001
1000
,
0100
0010
0021
0000
0130
0010
0001
1000
,
0010
0100
0110
0010
1000
0001
0010
0100
,
1100
0000
0000
0000
1001
0000
0001
0000
0100
0001
0100
0010
1000
0001
1000
0100
,
1000
0100
0010
0001
0010
0000
0100
0000
1000
0000
0001
0000
0100
0000
0010
0000
,
0110
0000
0100
0000
0010
0000
1000
0020
0000
0030
0110
0000
0101
0000
1001
0000
,
1000
0010
0120
0000
1030
0100
0010
0001
,
1000
0000
0010
0000
1020
0000
0000
0000
0130
0010
0100
0001
1000
0010
1000
0001
,
1000
0100
0010
0001
0020
0000
0000
0000
1030
0000
0010
0000
0001
0000
0100
0000
,
0010
0000
1000
0000
2001
0000
0000
0000
3010
1000
0001
0100
0010
1000
0100
0010
,
0001
1000
0100
0010
0100
0000
1000
0000
0010
0000
0100
0000
0001
0000
1000
0000
,
1001
0000
0010
1000
0100
0001
0100
1000
,
1100
0000
0100
0000
0011
0000
0001
0200
0000
0300
0010
0000
0110
0000
0000
0000
,
1020
0000
0130
0010
0001
0010
1000
0001
,
1001
1000
2100
3100
0010
0001
0100
0010
,
0110
0000
0100
0010
1000
0100
1100
0100
,
0110
0000
0010
0001
0100
0010
1000
1000
,
0001
0000
0010
0000
0100
0000
1000
0010
0000
0000
0110
0000
0100
0000
0001
0000
,
1001
1000
0220
0000
0000
0000
0330
0000
,
0000
0010
1000
0100
0010
0001
0100
0020
,
0000
0000
0030
1000
0001
0000
0100
0000
0010
0000
1000
0000
1010
0000
0000
0000
,
0101
0001
1000
0100
0010
0100
1100
2001
,
0000
3001
0101
0000
0100
0010
1000
0001
,
0010
0100
1100
0000
1001
0001
0100
1000
,
0100
0001
0101
0000
1010
1000
0010
0100
,
0001
0000
1000
0000
0100
0000
0001
0000
0100
0000
1000
0200
0000
0300
0011
0000
,
1001
1010
0110
0100
0201
0000
0310
1000
,
0001
0100
0010
1000
2010
0000
3100
0010
,
0001
1000
0100
1000
2100
0000
3001
0100
,
0010
1000
0001
0010
0021
0000
0130
0001
,
0100
1000
0010
0100
0110
0010
0100
0001
,
0010
0000
0100
0000
1100
0000
0000
0000
1010
0000
0010
0000
0100
0010
1000
0001
,
1000
0100
0010
0001
0100
0010
1000
0010
0100
0000
0010
0000
1000
0000
0100
0000
,
0010
0000
0001
0000
1000
0000
0010
0000
0100
0000
0001
2000
0000
3000
1010
0000
,
0110
0101
1001
1000
2100
0000
3100
0010
,
0001
0000
0100
0000
0010
0000
1000
0000
2010
0000
0000
0000
3001
1000
0010
0100
,
0010
1000
0001
1000
0100
0010
0100
1000
0200
0000
0000
0000
0310
0000
1000
0000
,
0010
0000
0001
0000
0100
0000
0010
0000
1020
0000
0000
0030
0001
0100
0010
1000
,
0010
0100
0001
0010
0100
1000
0010
0000
0001
0000
1000
0000
0010
0000
0100
0000
,
0110
0000
0000
0000
0101
0000
0001
0000
1000
0000
0010
0200
0000
0300
0101
0000
,
0021
0000
0000
0000
0130
0000
1000
0000
0100
0000
0010
0002
0000
0003
1001
0000
,
0101
0000
0100
0000
0010
0000
1000
0000
1010
0000
0000
0110
0000
0000
0101
0000
,
1004
0000
1003
0100
0110
0010
0001
1000
,
0010
0100
0001
1000
0200
0300
0011
0001
,
0200
0000
1300
0100
0001
1000
0100
0010
,
0011
0000
1010
0010
0100
0001
0010
0100
,
0200
0000
0000
0300
0022
0000
0030
0000
,
0203
0000
1000
1000
0320
0000
1000
1030
,
0200
0000
0320
0000
,
2030
0000
3010
0020
0002
0030
1000
1003
,
0020
0000
0000
0130
0101
0000
0110
0100
,
0010
1000
1001
0000
0011
0000
1100
1000
,
0010
0000
0100
0000
0001
0000
0000
0000
0101
0000
0000
0001
0100
0000
0010
0000
,
1000
0100
1100
0000
0010
0001
0100
0010
,
2000
0000
3100
0000
1001
0001
0100
0010
,
1000
0100
0011
0000
0001
0100
0010
1000
,
0001
0010
0110
0000
0100
1000
0100
0001
,
0100
0000
1000
0000
0010
0000
0100
0000
1000
0000
0100
0002
0000
0003
0101
0000
,
0110
1010
1100
0011
1002
0000
0103
0010
,
1000
0100
0010
0100
1200
0000
0310
0001
,
1000
0010
0100
0001
0102
0000
0013
0100
,
0001
0100
1000
0010
0120
0000
0031
0010
,
1000
0100
1000
0010
1010
1000
0100
0010
,
0001
0000
1000
0000
1001
0000
0000
0000
0001
0000
1000
0000
0010
1000
0001
1000
,
0100
0010
0001
0010
0001
1000
0010
0100
0010
0000
0100
0000
0001
0000
1000
0000
,
0100
0000
0010
0000
0001
0000
1000
0000
0010
0000
0100
0002
0000
0003
1010
0000
,
1100
0011
0101
0110
1002
0000
0103
0010
,
1000
0000
0100
0000
0010
0000
0001
0000
0102
0000
0000
0000
1003
0001
1000
0010
,
0100
0001
1000
0100
0010
0100
1000
0100
0020
0000
0000
0000
0031
0000
0100
0000
,
0010
0000
1000
0000
0001
0000
0100
0000
0210
0000
0000
0300
0001
0100
0010
0100
,
0001
1000
0100
0010
0001
0010
0001
1000
0010
0000
1000
0000
0100
0000
0010
0000
,
0001
1000
1010
0000
0101
0001
1000
0100
,
0010
0100
4100
0000
3010
0100
0001
0010
,
1100
0000
1000
0000
1010
0000
0010
0000
0100
0000
0001
1000
0000
0000
1001
0000
,
4020
0000
0000
3030
0000
0000
0000
0000
;
