#TITLE:Blood Sugar;
#SUBTITLE:;
#ARTIST:Pendulum;
#TITLETRANSLIT:;
#SUBTITLETRANSLIT:;
#ARTISTTRANSLIT:;
#CREDIT:;
#BANNER:bloodsugarbn.png;
#BACKGROUND:bloodsugarbg.png;
#LYRICSPATH:;
#CDTITLE:;
#MUSIC:bloodsugar.ogg;
#OFFSET:1.373;
#SAMPLESTART:190.905;
#SAMPLELENGTH:21.820;
#SELECTABLE:YES;
#DISPLAYBPM:176.000;
#BPMS:0.000=176.000,804.000=173.600,805.000=170.000,806.000=168.000,807.000=164.000,808.000=159.300,809.000=155.000,810.000=151.800,811.000=147.000,812.000=140.700,813.000=136.000,814.000=129.000,815.000=124.000,816.000=117.000,817.000=110.000,818.000=103.000,819.000=95.000;
#STOPS:;
#BGCHANGES:;
// cache tags:
#FIRSTBEAT:52.000;
#LASTBEAT:827.500;
#SONGFILENAME:Songs/Pendulum/Blood Sugar/bloodsugar.sm;
#HASMUSIC:1;
#HASBANNER:1;
#MUSICLENGTH:286.000;
// end cache tags

//---------------dance-single - I. Pyles----------------
#NOTES:
     dance-single:
     I. Pyles:
     Beginner:
     1:
     0.024,0.036,0.000,0.000,0.000,49.000,0.000,0.000,0.000,0.000:
0000
0000
0000
0000
,
0000
0000
0000
0000
,
0000
0000
0000
0000
,
0000
0000
0000
0000
,
0000
0000
0000
0000
,
0000
0000
0000
0000
,
0000
0000
0000
0000
,
0000
0000
0000
0000
,
0000
0000
0000
0000
,
0000
0000
0000
0000
,
0000
0000
0000
0000
,
0000
0000
0000
0000
,
0000
0000
0000
0000
,
0100
0000
0000
0000
,
0000
0000
0000
0000
,
0000
0000
0000
0000
,
0000
0000
0000
0000
,
0010
0000
0000
0000
,
0000
0000
0000
0000
,
0000
0000
0000
0000
,
0000
0000
0000
0000
,
0100
0000
0000
0000
,
0000
0000
0000
0000
,
0000
0000
0000
0000
,
0000
0000
0000
0000
,
1000
0000
0000
0000
,
0000
0000
0000
0000
,
0000
0000
0000
0000
,
0000
0000
0000
0000
,
0001
0000
0000
0000
,
0000
0000
0000
0000
,
0000
0000
0000
0000
,
0000
0000
0000
0000
,
0001
0000
0000
0000
,
0000
0000
0000
0000
,
0000
0000
0000
0000
,
0000
0000
0000
0000
,
0100
0000
0000
0000
,
0000
0000
0000
0000
,
0000
0000
0000
0000
,
0000
0000
0000
0000
,
0100
0000
0000
0000
,
0000
0000
0000
0000
,
0000
0000
0000
0000
,
0000
0000
0000
0000
,
0001
0000
0000
0000
,
0000
0000
0000
0000
,
0000
0000
0000
0000
,
0000
0000
0000
0000
,
0010
0000
0000
0000
,
0000
0000
0000
0000
,
0000
0000
0000
0000
,
0000
0000
0000
0000
,
0010
0000
0000
0000
,
0000
0000
0000
0000
,
0000
0000
0000
0000
,
0000
0000
0000
0000
,
0100
0000
0000
0000
,
0000
0000
0000
0000
,
0000
0000
0000
0000
,
0000
0000
0000
0000
,
0001
0000
0000
0000
,
0000
0000
0000
0000
,
0000
0000
0000
0000
,
0000
0000
0000
0000
,
0010
0000
0000
0000
,
0000
0000
0000
0000
,
0000
0000
0000
0000
,
0000
0000
0000
0000
,
1000
0000
0000
0000
,
0000
0000
0000
0000
,
0000
0000
0000
0000
,
0000
0000
0000
0000
,
0010
0000
0000
0000
,
0000
0000
0000
0000
,
0000
0000
0000
0000
,
0000
0000
0000
0000
,
1000
0000
0000
0000
,
0000
0000
0000
0000
,
0000
0000
0000
0000
,
0000
0000
0000
0000
,
0001
0000
0000
0000
,
0000
0000
0000
0000
,
0000
0000
0000
0000
,
0000
0000
0000
0000
,
0100
0000
0000
0000
,
0000
0000
0000
0000
,
0000
0000
0000
0000
,
0000
0000
0000
0000
,
1000
0000
0000
0000
,
0000
0000
0000
0000
,
0000
0000
0000
0000
,
0000
0000
0000
0000
,
0001
0000
0000
0000
,
0000
0000
0000
0000
,
0000
0000
0000
0000
,
0000
0000
0000
0000
,
0001
0000
0000
0000
,
0000
0000
0000
0000
,
0000
0000
0000
0000
,
0000
0000
0000
0000
,
0001
0000
0000
0000
,
0000
0000
0000
0000
,
0000
0000
0000
0000
,
0000
0000
0000
0000
,
1000
0000
0000
0000
,
0000
0000
0000
0000
,
0000
0000
0000
0000
,
0000
0000
0000
0000
,
0100
0000
0000
0000
,
0000
0000
0000
0000
,
0000
0000
0000
0000
,
0000
0000
0000
0000
,
0100
0000
0000
0000
,
0000
0000
0000
0000
,
0000
0000
0000
0000
,
0000
0000
0000
0000
,
0001
0000
0000
0000
,
0000
0000
0000
0000
,
0000
0000
0000
0000
,
0000
0000
0000
0000
,
0001
0000
0000
0000
,
0000
0000
0000
0000
,
0000
0000
0000
0000
,
0000
0000
0000
0000
,
0100
0000
0000
0000
,
0000
0000
0000
0000
,
0000
0000
0000
0000
,
0000
0000
0000
0000
,
1000
0000
0000
0000
,
0000
0000
0000
0000
,
0000
0000
0000
0000
,
0000
0000
0000
0000
,
1000
0000
0000
0000
,
0000
0000
0000
0000
,
0000
0000
0000
0000
,
0000
0000
0000
0000
,
1000
0000
0000
0000
,
0000
0000
0000
0000
,
0000
0000
0000
0000
,
0000
0000
0000
0000
,
1000
0000
0000
0000
,
0000
0000
0000
0000
,
0000
0000
0000
0000
,
0000
0000
0000
0000
,
1000
0000
0000
0000
,
0000
0000
0000
0000
,
0000
0000
0000
0000
,
0000
0000
0000
0000
,
0010
0000
0000
0000
,
0000
0000
0000
0000
,
0000
0000
0000
0000
,
0000
0000
0000
0000
,
1000
0000
0000
0000
,
0000
0000
0000
0000
,
0000
0000
0000
0000
,
0000
0000
0000
0000
,
0010
0000
0000
0000
,
0000
0000
0000
0000
,
0000
0000
0000
0000
,
0000
0000
0000
0000
,
0100
0000
0000
0000
,
0000
0000
0000
0000
,
0000
0000
0000
0000
,
0000
0000
0000
0000
,
1000
0000
0000
0000
,
0000
0000
0000
0000
,
0000
0000
0000
0000
,
0000
0000
0000
0000
,
0100
0000
0000
0000
,
0000
0000
0000
0000
,
0000
0000
0000
0000
,
0000
0000
0000
0000
,
1000
0000
0000
0000
,
0000
0000
0000
0000
,
0000
0000
0000
0000
,
0000
0000
0000
0000
,
0100
0000
0000
0000
,
0000
0000
0000
0000
,
0000
0000
0000
0000
,
0000
0000
0000
0000
,
1000
0000
0000
0000
,
0000
0000
0000
0000
,
0000
0000
0000
0000
,
0000
0000
0000
0000
,
1000
0000
0000
0000
,
0000
0000
0000
0000
,
0000
0000
0000
0000
,
0000
0000
0000
0000
,
0010
0000
0000
0000
,
0000
0000
0000
0000
,
0000
0000
0000
0000
,
0000
0000
0000
0000
,
1000
0000
0000
0000
,
0000
0000
0000
0000
,
0000
0000
0000
0000
,
0000
0000
0000
0000
,
0100
0000
0000
0000
,
0000
0000
0000
0000
,
0000
0000
0000
0000
,
0000
0000
0000
0000
,
0100
0000
0000
0000
,
0000
0000
0000
0000
,
0000
0000
0000
0000
,
0000
0000
0000
0000
,
1000
0000
0000
0000
;

//---------------dance-single - I. Pyles----------------
#NOTES:
     dance-single:
     I. Pyles:
     Easy:
     9:
     0.612,0.760,0.343,0.549,0.290,971.000,98.000,157.000,307.000,1.000:
0000
0000
0000
0000
,
0000
0000
0000
0000
,
0000
0000
0000
0000
,
0000
0000
0000
0000
,
0000
0000
0000
0000
,
0000
0000
0000
0000
,
0000
0000
0000
0000
,
0000
0000
0000
0000
,
0000
0000
0000
0000
,
0000
0000
0000
0000
,
0000
0000
0000
0000
,
0000
0000
0000
0000
,
0000
0000
0000
0000
,
0201
00M0
00M0
00M0
00M0
00M0
00M1
00M0
00M0
00M0
00M0
00M0
00M1
00M0
00M0
00M0
00M0
00M0
00M1
00M0
00M0
00M0
00M0
00M0
,
00M1
0000
00M0
0000
00M0
0000
00M0
0000
00M0
0000
00M0
0000
00M1
0000
00M0
0000
00M0
0000
00M0
0000
00M0
0000
00M0
0000
00M1
0000
00M0
0000
00M0
0000
00M0
0000
00M0
0300
0000
0000
1020
0000
0000
0000
0000
0000
0000
0000
0000
0030
0000
0000
,
0201
00M0
00M0
00M0
00M0
00M0
00M1
00M0
00M0
00M0
00M0
00M0
00M1
00M0
00M0
00M0
00M0
00M0
00M1
00M0
00M0
00M0
00M0
00M0
,
0301
0100
0100
0010
0000
1000
0020
0030
,
0021
0M00
0M00
0M00
0M00
0M00
0M01
0M00
0M00
0M00
0M00
0M00
0M01
0M00
0M00
0M00
0M00
0M00
0M01
0M00
0M00
0M00
0M00
0M00
,
0M01
0000
0M00
0000
0M00
0000
0M00
0000
0M00
0000
0M00
0000
0M01
0000
0M00
0000
0M00
0000
0M00
0000
0M00
0000
0M00
0000
0M01
0000
0M00
0000
0M00
0000
0M00
0000
0M00
0030
0000
0000
1200
0000
0000
0000
0000
0000
0000
0000
0000
0300
0000
0000
,
0021
0M00
0M00
0M00
0M00
0M00
0M01
0M00
0M00
0M00
0M00
0M00
0M01
0M00
0M00
0M00
0M00
0M00
0M01
0M00
0M00
0M00
0M00
0M00
,
0031
1000
0000
1000
1000
0001
0200
0300
,
1020
0M00
0M00
0M00
0M00
0M00
1M00
0M00
0M00
0M00
0M00
0M00
1M00
0M00
0M00
0M00
0M00
0M00
1M00
0M00
0M00
0M00
0M00
0M00
,
1M00
0000
0M00
0000
0M00
0000
0M00
0000
0M00
0000
0M00
0000
1M00
0000
0M00
0000
0M00
0000
0M00
0000
0M00
0000
0M00
0000
1M00
0000
0M00
0000
0M00
0000
0M00
0000
0M00
0030
0000
0000
0201
0000
0000
0000
0000
0000
0000
0000
0000
0300
0000
0000
,
1020
0M00
0M00
0M00
0M00
0M00
1M00
0M00
0M00
0M00
0M00
0M00
1M00
0M00
0M00
0M00
0M00
0M00
1M00
0M00
0M00
0M00
0M00
0M00
,
1030
0010
0010
0100
0000
0001
0200
0300
,
1200
0000
00M0
0000
00M0
0000
00M0
0000
00M0
0000
00M0
0000
10M0
0000
00M0
0000
00M0
0000
00M0
0000
00M0
0000
00M0
0000
10M0
0000
00M0
0000
00M0
0000
00M0
0000
00M0
0300
0000
0000
0021
0000
0000
0000
0000
0000
0000
0000
0000
0030
0000
0000
,
1020
0000
0M00
0000
0M00
0000
0M00
0000
0M00
0000
0M00
0000
1M00
0000
0M00
0000
0M00
0000
0M00
0000
0M00
0000
0M00
0000
1M00
0000
0M00
0000
0M00
0000
0M00
0000
0M00
0030
0000
0000
0201
0000
0000
0000
0000
0000
0000
0000
0000
0300
0000
0000
,
1020
0000
0000
0030
0021
0000
0000
0030
1200
0000
0000
0300
0201
0000
0000
0300
,
0001
0100
0010
0100
0001
0010
0100
1000
,
1002
0000
1000
0003
0001
0000
0000
0000
0010
0000
0000
0000
0100
0000
0000
0000
,
0010
0000
0010
0000
0001
0000
0100
0000
0010
0000
0000
0000
0120
0000
0000
0030
,
2010
0000
0000
3000
0001
0000
0010
0000
0100
0000
0000
0000
0000
0000
0000
0000
,
0010
0000
0010
0000
0001
0000
0010
0000
0100
0000
0000
0000
0210
0000
0000
0300
,
0021
0000
0001
0030
1000
0000
0000
0000
0010
0000
0000
0000
0100
0000
0000
0000
,
0010
0000
0010
0000
1000
0000
0100
0000
0010
0000
0000
0000
0210
0000
0000
0300
,
1002
0000
0000
0003
1000
0000
0010
0000
0100
0000
0000
0000
0000
0000
0000
0000
,
0010
0000
0010
0000
1000
0000
0100
0000
0010
0000
0000
0000
0120
0000
0000
0030
,
1200
0000
1000
0300
0001
0000
0000
0000
0100
0000
0000
0000
0010
0000
0000
0000
,
0100
0000
0100
0000
0001
0000
0010
0000
0100
0000
0000
0000
0120
0000
0000
0030
,
2100
0000
0000
3000
0001
0000
0100
0000
0010
0000
0000
0000
0000
0000
0000
0000
,
0100
0000
0100
0000
0001
0000
0100
0000
0010
0000
0000
0000
0210
0000
0000
0300
,
1002
0000
0000
0003
0000
0000
1000
0000
0000
0000
0001
0000
0010
0000
0100
0000
,
0010
0000
0100
0010
0000
0001
1000
1000
,
0001
0010
0001
0010
0001
0010
0001
0010
,
010M
100M
010M
100M
010M
100M
0100
0000
,
1000
1000
0001
0000
0010
0000
0100
0000
,
0010
0010
0001
1000
0010
0100
0001
0000
,
0002
0000
1003
0001
0010
0001
1000
0000
,
0001
0001
1000
0001
0100
0001
1000
0000
,
1000
1000
0001
0000
0100
0000
0010
0000
,
0100
0100
0001
1000
0100
0010
0001
0000
,
0002
0000
1003
0001
0100
0001
1000
0000
,
0001
0010
0100
0010
0100
1000
0001
1000
,
0001
0001
1000
0000
0100
0000
0010
0000
,
0100
0100
1000
0001
0100
0010
1000
0000
,
2000
0000
3001
1000
0100
1000
0001
0000
,
1000
1000
0001
1000
0010
1000
0001
0000
,
1000
1000
0001
0000
0010
0000
0100
0000
,
1000
0010
0100
0001
,
0100
0010
1000
0010
,
1000
0001
1000
0000
0001
0010
0001
0000
1000
0010
1000
0000
0100
0000
0000
0000
,
1000
0001
0101
0100
0000
0010
0110
0100
,
0002
2003
3002
2003
,
3001
1000
1100
0100
0000
0010
0110
0100
,
2000
3020
2030
3200
,
1300
0001
0101
0100
0000
0010
0110
0100
,
0002
2003
3002
2003
,
3001
1000
1010
0010
0000
0100
0110
0010
,
0100
0010
00M0
0010
1000
0100
0020
0030
,
0001
1000
1010
0010
0000
0100
0110
0010
,
2000
3002
2003
3002
,
1003
0001
0011
0010
0000
0100
0110
0010
,
0002
0203
0302
0023
,
0031
1000
1010
0010
0000
0100
0110
0010
,
2000
0000
3002
0000
0013
MMM0
0000
0000
,
0002
2003
3002
0203
,
0310
1000
0010
1000
0010
1000
0010
0000
,
1000
1000
0001
0000
0010
0000
0100
0000
,
0010
0010
0001
1000
0010
0100
0001
0000
,
0002
0000
1003
0001
0010
0001
1000
0000
,
0001
0001
1000
0001
0100
0001
1000
0000
,
1000
1000
0001
0000
0100
0000
0010
0000
,
0100
0100
0001
1000
0100
0010
0001
0000
,
0002
0000
1003
0001
0100
0001
1000
0000
,
0100
0010
00M0
0010
0001
0100
0020
0030
,
1000
1000
0001
0000
0010
0000
0100
0000
,
0010
0010
0001
1000
0010
0100
0001
0000
,
0002
0000
1003
0001
0010
0001
1000
0000
,
0001
0001
1000
0001
0100
0001
1000
0000
,
0001
0001
1000
0000
0010
0000
0100
0000
,
0001
0010
0001
0010
,
0001
0010
0100
1000
,
0010
1000
0010
1000
0010
1000
0010
1000
,
0001
1000
1010
0010
0000
0100
0110
0010
,
2000
3002
2003
3002
,
1003
0001
0011
0010
0000
0100
0110
0010
,
0002
0203
0302
0023
,
0031
1000
1010
0010
0000
0100
0110
0010
,
2000
3002
2003
3002
,
1003
0001
0101
0100
0000
0010
0110
0100
,
0010
0100
0M00
0100
0001
0010
0200
0300
,
1000
0001
0101
0100
0000
0010
0110
0100
,
0002
2003
3002
2003
,
3001
1000
1100
0100
0000
0010
0110
0100
,
2000
3020
2030
3200
,
1300
0001
0101
0100
0000
0010
0110
0100
,
0002
2003
3002
2003
,
3002
0023
0032
0203
,
0320
0000
0030
1020
0000
0030
2002
0000
,
0000
3003
0000
0000
0000
0000
000M
00M0
,
0M00
00M0
000M
0000
0000
0000
M000
00M0
,
0M00
0000
00M0
0000
0000
0000
000M
00M0
,
0M00
00M0
000M
0000
0000
0000
M000
00M0
,
0M00
0000
00M0
0000
0000
0000
000M
00M0
,
0M00
00M0
000M
0000
0000
0000
M000
00M0
,
0M00
0000
00M0
0000
0000
0000
000M
00M0
,
0M00
00M0
000M
0000
0000
0000
M000
00M0
,
0M00
0000
00M0
0000
0000
0000
000M
00M0
,
0M00
00M0
000M
0000
0000
0000
M000
00M0
,
0M00
0000
00M0
0000
0000
0000
000M
00M0
,
0M00
00M0
000M
0000
0000
0000
M000
00M0
,
0M00
0000
00M0
0000
0000
0000
000M
00M0
,
0M00
00M0
000M
0000
0000
0000
M000
00M0
,
0M00
0000
00M0
0000
0000
0000
000M
00M0
,
0M00
00M0
000M
0000
0000
0000
0000
0000
,
1001
1001
0000
0000
0000
0000
0000
0000
,
0000
0000
0000
0000
,
1001
1001
0000
0000
0000
0000
0000
0000
,
0000
0000
0000
0000
,
1001
1001
0000
0000
0000
0000
0000
0000
,
0000
0000
0000
0000
,
1001
1001
0000
0000
0000
0000
0000
0000
,
0000
0000
0000
0000
,
1001
1001
0000
0001
0000
0001
0000
0001
,
0001
0001
0100
0010
2000
0000
3001
1000
,
1001
1001
0000
1000
0000
1000
0000
1000
,
1000
1000
0100
0010
0002
0000
1003
0001
,
1001
1001
0000
0001
0000
0001
0000
0001
,
0001
0001
0010
0100
2000
0000
3001
1000
,
1001
0000
0001
0010
0001
0000
0100
0010
0100
0000
0001
0010
0001
0000
1000
0000
,
0001
0100
0001
0000
1000
0010
1000
0000
0001
0100
0001
0000
0010
0000
0000
0000
,
1001
1000
0000
1000
0000
1000
0000
1000
,
1000
1000
0010
0100
0002
0000
1003
0001
,
1001
0001
0000
0001
0000
0001
0000
0001
,
0001
0001
0010
0100
2000
0000
3001
1000
,
1001
1000
0000
1000
0000
1000
0000
1000
,
1000
1000
0100
0010
0002
0000
1003
0001
,
1001
0001
0000
0001
0000
0001
0000
0001
,
0020
0032
0203
0320
,
1031
0001
0000
0001
0000
0001
0000
0001
,
0001
0001
0100
0010
2000
0000
3001
1000
,
1001
1000
0000
1000
0000
1000
0000
1000
,
1000
1000
0100
0010
0002
0000
1003
0001
,
1001
0001
0000
0001
0000
0001
0000
0001
,
0001
0001
0010
0100
2000
0000
3001
1000
,
1001
0001
0000
0001
0000
0001
0000
0001
,
1000
0100
1000
0000
0001
0010
0001
0000
1000
0100
1000
0000
0010
0000
0000
0000
,
1000
1000
0001
0000
0010
0000
0100
0000
,
0010
0010
0001
1000
0010
0100
0001
0000
,
0002
0000
1003
0001
0010
0001
1000
0000
,
0001
0001
1000
0001
0100
0001
1000
0000
,
1000
1000
0001
0000
0100
0000
0010
0000
,
0100
0100
0001
1000
0100
0010
0001
0000
,
0002
0000
1003
0001
0100
0001
1000
0000
,
0001
0010
00M0
0010
0001
0100
0010
1000
,
0001
0001
1000
0000
0100
0000
0010
0000
,
0100
0100
1000
0001
0100
0010
1000
0000
,
2000
0000
3001
1000
0100
1000
0001
0000
,
1000
1000
0001
1000
0010
1000
0001
0000
,
1000
1000
0001
0000
0010
0000
0100
0000
,
1000
0010
0100
0001
,
0100
0010
1000
0010
,
1000
0001
1000
0000
0001
0010
0001
0000
1000
0010
1000
0000
0100
0000
0000
0000
,
1000
0001
0101
0100
0000
0010
0110
0100
,
0002
2003
3002
2003
,
3001
1000
1100
0100
0000
0010
0110
0100
,
2000
3020
2030
3200
,
1300
0001
0101
0100
0000
0010
0110
0100
,
0002
2003
3002
2003
,
3001
1000
1010
0010
0000
0100
0110
0010
,
0100
0010
00M0
0010
1000
0100
0020
0030
,
0001
1000
1010
0010
0000
0100
0110
0010
,
2000
3002
2003
3002
,
1003
0001
0011
0010
0000
0100
0110
0010
,
0002
0203
0302
0023
,
0031
1000
1010
0010
0000
0100
0110
0010
,
2000
0000
3002
0000
0013
MMM0
0000
0000
,
0002
2003
3002
0203
,
0310
1000
0010
1000
0010
1000
0010
0000
,
1000
1000
0001
0000
0010
0000
0100
0000
,
0010
0010
0001
1000
0010
0100
0001
0000
,
0002
0000
1003
0001
0010
0001
1000
0000
,
0001
0001
1000
0001
0100
0001
1000
0000
,
1000
1000
0001
0000
0100
0000
0010
0000
,
0100
0100
0001
1000
0100
0010
0001
0000
,
0002
0000
1003
0001
0100
0001
1000
0000
,
0100
0010
00M0
0010
0001
0100
0020
0030
,
1000
1000
0001
0000
0010
0000
0100
0000
,
0010
0010
0001
1000
0010
0100
0001
0000
,
0002
0000
1003
0001
0010
0001
1000
0000
,
0001
0001
1000
0001
0100
0001
1000
0000
,
0001
0010
0001
0100
,
0010
1000
0010
0100
,
0002
0003
0000
0000
0000
0000
0000
0000
0000
0000
0000
0000
0000
0000
0000
0000
0020
0000
0030
0000
0000
0000
0000
0000
0000
0000
0000
0000
0000
0000
0000
0000
0002
0000
0000
0000
0003
0000
0000
0000
0000
0000
0000
0000
0000
0000
0000
0000
2000
0000
0000
0000
0000
0000
3000
0000
0000
0000
0000
0000
0000
0000
0000
0000
,
0200
0000
0000
0000
0300
0000
0000
0000
0020
0000
0000
0000
0000
0030
0000
0000
0002
0000
0000
0000
0000
0000
0003
0000
0200
0000
0000
0000
0000
0000
0000
0300
,
2002
0000
0000
0000
,
0000
0000
0000
0000
0000
0000
0000
3003
;

//---------------dance-single - I. Pyles----------------
#NOTES:
     dance-single:
     I. Pyles:
     Medium:
     12:
     0.745,1.000,0.402,0.528,0.663,1225.000,115.000,151.000,307.000,2.000:
0000
0000
0000
0000
,
0000
0000
0000
0000
,
0000
0000
0000
0000
,
0000
0000
0000
0000
,
0000
0000
0000
0000
,
0000
0000
0000
0000
,
0000
0000
0000
0000
,
0000
0000
0000
0000
,
0000
0000
0000
0000
,
0000
0000
0000
0000
,
0000
0000
0000
0000
,
0000
0000
0000
0000
,
0000
0000
0000
0000
,
0201
00M0
00M0
00M0
00M0
00M0
00M1
00M0
00M0
00M0
00M0
00M0
00M1
00M0
00M0
00M0
00M0
00M0
00M1
00M0
00M0
00M0
00M0
00M0
,
00M1
0000
00M0
0000
00M0
0000
00M0
0000
00M0
0000
00M0
0000
00M1
0000
00M0
0000
00M0
0000
00M0
0000
00M0
0000
00M0
0000
00M1
0000
00M0
0000
00M0
0000
00M0
0000
00M0
0300
0000
0000
1020
0000
0000
0000
0000
0000
0000
0000
0000
0030
0000
0000
,
0201
00M0
00M0
00M0
00M0
00M0
00M1
00M0
00M0
00M0
00M0
00M0
00M1
00M0
00M0
00M0
00M0
00M0
00M1
00M0
00M0
00M0
00M0
00M0
,
0301
0100
0100
0010
0000
1000
0020
0030
,
0021
0M00
0M00
0M00
0M00
0M00
0M01
0M00
0M00
0M00
0M00
0M00
0M01
0M00
0M00
0M00
0M00
0M00
0M01
0M00
0M00
0M00
0M00
0M00
,
0M01
0000
0M00
0000
0M00
0000
0M00
0000
0M00
0000
0M00
0000
0M01
0000
0M00
0000
0M00
0000
0M00
0000
0M00
0000
0M00
0000
0M01
0000
0M00
0000
0M00
0000
0M00
0000
0M00
0030
0000
0000
1200
0000
0000
0000
0000
0000
0000
0000
0000
0300
0000
0000
,
0021
0M00
0M00
0M00
0M00
0M00
0M01
0M00
0M00
0M00
0M00
0M00
0M01
0M00
0M00
0M00
0M00
0M00
0M01
0M00
0M00
0M00
0M00
0M00
,
0031
1000
0000
1000
1000
0001
0200
0300
,
1020
0M00
0M00
0M00
0M00
0M00
1M00
0M00
0M00
0M00
0M00
0M00
1M00
0M00
0M00
0M00
0M00
0M00
1M00
0M00
0M00
0M00
0M00
0M00
,
1M00
0000
0M00
0000
0M00
0000
0M00
0000
0M00
0000
0M00
0000
1M00
0000
0M00
0000
0M00
0000
0M00
0000
0M00
0000
0M00
0000
1M00
0000
0M00
0000
0M00
0000
0M00
0000
0M00
0030
0000
0000
0201
0000
0000
0000
0000
0000
0000
0000
0000
0300
0000
0000
,
1020
0M00
0M00
0M00
0M00
0M00
1M00
0M00
0M00
0M00
0M00
0M00
1M00
0M00
0M00
0M00
0M00
0M00
1M00
0M00
0M00
0M00
0M00
0M00
,
1030
0010
0010
0100
0000
0001
0200
0300
,
1200
0000
00M0
0000
00M0
0000
00M0
0000
00M0
0000
00M0
0000
10M0
0000
00M0
0000
00M0
0000
00M0
0000
00M0
0000
00M0
0000
10M0
0000
00M0
0000
00M0
0000
00M0
0000
00M0
0300
0000
0000
0021
0000
0000
0000
0000
0000
0000
0000
0000
0030
0000
0000
,
1020
0000
0M00
0000
0M00
0000
0M00
0000
0M00
0000
0M00
0000
1M00
0000
0M00
0000
0M00
0000
0M00
0000
0M00
0000
0M00
0000
1M00
0000
0M00
0000
0M00
0000
0M00
0000
0M00
0030
0000
0000
0201
0000
0000
0000
0000
0000
0000
0000
0000
0300
0000
0000
,
1020
0000
0000
0030
0021
0000
0000
0030
1200
0000
0000
0300
0201
0000
0000
0300
,
1010
1000
1001
1000
1010
0010
0110
0010
,
1002
0000
1000
0003
0001
0000
0000
0000
0010
0000
0000
0000
0100
0000
0000
0000
,
0010
0000
0010
0000
0001
0000
0100
0000
0010
0000
0000
0000
0120
0000
0000
0030
,
2010
0000
0000
3000
0001
0000
0010
0000
0100
0000
0000
0000
0000
0000
0000
0000
,
0010
0000
0010
0000
0001
0000
0010
0000
0100
0000
0000
0000
0210
0000
0000
0300
,
0021
0000
0001
0030
1000
0000
0000
0000
0010
0000
0000
0000
0100
0000
0000
0000
,
0010
0000
0010
0000
1000
0000
0100
0000
0010
0000
0000
0000
0210
0000
0000
0300
,
1002
0000
0000
0003
1000
0000
0010
0000
0100
0000
0000
0000
0000
0000
0000
0000
,
0010
0000
0010
0000
1000
0000
0100
0000
0010
0000
0000
0000
0120
0000
0000
0030
,
1200
0000
1000
0300
0001
0000
0000
0000
0100
0000
0000
0000
0010
0000
0000
0000
,
0100
0000
0100
0000
0001
0000
0010
0000
0100
0000
0000
0000
0120
0000
0000
0030
,
2100
0000
0000
3000
0001
0000
0100
0000
0010
0000
0000
0000
0000
0000
0000
0000
,
0100
0000
0100
0000
0001
0000
0100
0000
0010
0000
0000
0000
0210
0000
0000
0300
,
1002
0000
0000
0003
0000
0000
1000
0000
0000
0000
0001
0000
0010
0000
0100
0000
,
0010
0000
0100
0010
0000
0001
1000
1000
,
0001
0010
0001
0010
0001
0010
0001
0010
,
0100
100M
010M
100M
010M
100M
0100
0000
,
1000
0100
1000
0100
0010
0100
1000
0010
0100
0010
0100
0010
1000
0010
0100
0010
,
1000
0001
1000
0001
0010
0100
1000
0010
0100
0001
0100
0001
0010
0100
1000
0001
,
0100
0001
0100
0010
1000
0001
0010
0001
1000
0010
1000
0010
0100
0001
1000
0001
,
0100
0010
0100
0010
1000
0001
0010
0001
1000
0010
0100
0001
0010
0100
0010
0001
,
1000
0010
1000
0010
0100
0010
1000
0100
0010
0100
0010
0100
1000
0100
0010
0100
,
1000
0001
1000
0001
0100
0010
1000
0100
0010
0001
0010
0001
0100
0010
1000
0001
,
0010
0001
0010
0100
1000
0001
0100
0001
1000
0100
1000
0100
0010
0001
1000
0001
,
0010
0100
0M00
0100
1000
0010
0200
0300
,
0001
0001
1000
0000
0100
0000
0010
0000
,
0100
0100
1000
0001
0100
0010
1010
0000
,
2000
0000
3001
1000
0100
1000
1001
0000
,
1000
1000
0001
1000
0100
1000
1001
0000
,
0001
0001
1000
0000
0100
0000
0010
0000
,
0001
0100
0010
1000
,
0010
0100
0001
0100
,
0010
1000
0001
0010
0100
1000
0001
0100
0010
1000
0001
0010
0100
0000
0000
0000
,
1000
0001
0101
0100
0000
0010
0110
0100
,
0002
2003
3002
2003
,
3001
1000
1100
0100
0000
0010
0110
0100
,
2000
3020
2030
3200
,
1300
0001
0101
0100
0000
0010
0110
0100
,
0002
2003
3002
2003
,
3001
1000
1010
0010
0000
0100
0110
0010
,
0100
0010
00M0
0010
1000
0100
0020
0030
,
0001
1000
1010
0010
0000
0100
0110
0010
,
2000
3002
2003
3002
,
1003
0001
0011
0010
0000
0100
0110
0010
,
0002
0203
0302
0023
,
0031
1000
1010
0010
0000
0100
0110
0010
,
2000
0000
3002
0000
0013
MMM0
0000
0000
,
0002
2003
3002
0203
,
0310
1000
0010
1000
0010
1000
0010
0000
,
1000
1000
0010
0100
2001
3000
0001
0000
,
1000
0001
1000
0001
0100
0010
1000
0100
0010
0001
0010
0001
0100
0010
1000
0001
,
0010
0001
0010
0100
1000
0001
0100
0001
1000
0100
1000
0100
0010
0001
1000
0001
,
0010
0100
0010
0100
1000
0001
0100
0001
1000
0100
0010
0001
0100
0010
0100
0001
,
1000
0100
1000
0100
0010
0100
1000
0010
0100
0010
0100
0010
1000
0010
0100
0010
,
1000
0001
1000
0001
0010
0100
1000
0010
0100
0001
0100
0001
0010
0100
1000
0001
,
0100
0001
0100
0010
1000
0001
0010
0001
1000
0010
1000
0010
0100
0001
1000
0001
,
0100
0010
00M0
0010
1000
0100
0020
0030
,
0001
0001
1000
0000
0100
0000
0010
0000
,
0100
0100
1000
0001
0100
0010
1010
0000
,
2000
0000
3001
1000
0100
1000
1001
0000
,
1000
1000
0001
1000
0100
1000
1001
0000
,
0001
0001
1000
0000
0100
0000
0010
0000
,
0001
0100
0001
0100
,
0010
1000
0001
0010
,
0100
1000
0100
1000
0100
1000
0100
1000
,
0001
1000
1010
0010
0000
0100
0110
0010
,
2000
3002
2003
3002
,
1003
0001
0011
0010
0000
0100
0110
0010
,
0002
0203
0302
0023
,
0031
1000
1010
0010
0000
0100
0110
0010
,
2000
3002
2003
3002
,
1003
0001
0101
0100
0000
0010
0110
0100
,
0010
0100
0M00
0100
0001
0010
0200
0300
,
1000
0001
0101
0100
0000
0010
0110
0100
,
0002
2003
3002
2003
,
3001
1000
1100
0100
0000
0010
0110
0100
,
2000
3020
2030
3200
,
1300
0001
0101
0100
0000
0010
0110
0100
,
0002
2003
3002
2003
,
3002
0023
0032
0203
,
0320
0000
0030
1020
0000
0030
1021
0000
,
0000
0030
0000
0000
0000
0000
000M
00M0
,
0M00
00M0
000M
0000
0000
0000
M000
00M0
,
0M00
0000
00M0
0000
0000
0000
000M
00M0
,
0M00
00M0
000M
0000
0000
0000
M000
00M0
,
0M00
0000
00M0
0000
0000
0000
000M
00M0
,
0M00
00M0
000M
0000
0000
0000
M000
00M0
,
0M00
0000
00M0
0000
0000
0000
000M
00M0
,
0M00
00M0
000M
0000
0000
0000
M000
00M0
,
0M00
0000
00M0
0000
0000
0000
000M
00M0
,
0M00
00M0
000M
0000
0000
0000
M000
00M0
,
0M00
0000
00M0
0000
0000
0000
000M
00M0
,
0M00
00M0
000M
0000
0000
0000
M000
00M0
,
0M00
0000
00M0
0000
0000
0000
000M
00M0
,
0M00
00M0
000M
0000
0000
0000
M000
00M0
,
0M00
0000
00M0
0000
0000
0000
000M
00M0
,
0M00
00M0
000M
0000
0000
0000
0000
0000
,
1001
1001
0000
0000
0000
0000
0000
0000
,
0000
0000
0000
0000
,
1001
1001
0000
0000
0000
0000
0000
0000
,
0000
0000
0000
0000
,
1001
1001
0000
0000
0000
0000
0000
0000
,
0000
0000
0000
0000
,
1001
1001
0000
0000
0000
0000
0000
0000
,
0000
0000
0000
0000
,
1001
1001
0000
0001
0000
0001
0000
0001
,
0001
0001
0100
0010
2000
0000
3001
1000
,
1001
1001
0000
1000
0000
1000
0000
1000
,
1000
1000
0100
0010
0002
0000
1003
0001
,
1001
1001
0000
0001
0000
0001
0000
0001
,
0001
0001
0010
0100
2000
0000
3001
1000
,
1001
0000
0001
0010
0001
0000
0100
0010
0100
0000
0001
0010
0001
0000
1000
0010
,
0100
0001
1000
0100
0010
0001
1000
0010
0100
0001
1000
0100
0010
0000
0000
0000
,
1001
1000
0000
1000
0000
1000
0000
1000
,
1000
1000
0010
0100
0002
0000
1003
0001
,
1001
0001
0000
0001
0000
0001
0000
0001
,
0001
0001
0010
0100
2000
0000
3001
1000
,
1001
1000
0000
1000
0000
1000
0000
1000
,
1000
1000
0100
0010
0002
0000
1003
0001
,
1001
0001
0000
0001
0000
0001
0000
0001
,
0020
0032
0203
0320
,
1031
0001
0000
0001
0000
0001
0000
0001
,
0001
0001
0100
0010
2000
0000
3001
1000
,
1001
1000
0000
1000
0000
1000
0000
1000
,
1000
1000
0100
0010
0002
0000
1003
0001
,
1001
0001
0000
0001
0000
0001
0000
0001
,
0001
0001
0010
0100
2000
0000
3001
1000
,
1001
1000
0000
1000
0000
1000
0000
1000
,
0010
1000
0001
0010
0100
1000
0001
0100
0010
1000
0001
0010
0100
0000
0000
0000
,
1000
1000
0001
0000
0100
0000
0010
0000
,
1000
0001
1000
0001
0010
0100
1000
0010
0100
0001
0100
0001
0010
0100
1000
0001
,
0100
0001
0100
0010
1000
0001
0010
0001
1000
0010
1000
0010
0100
0001
1000
0001
,
0100
0010
0100
0010
1000
0001
0010
0001
1000
0010
0100
0001
0010
0100
0010
0001
,
1000
0010
1000
0010
0100
0010
1000
0100
0010
0100
0010
0100
1000
0100
0010
0100
,
1000
0001
1000
0001
0100
0010
1000
0100
0010
0001
0010
0001
0100
0010
1000
0001
,
0010
0001
0010
0100
1000
0001
0100
0001
1000
0100
1000
0100
0010
0001
1000
0001
,
0010
0100
0M00
0100
1000
0010
0200
0300
,
0001
0001
1000
0000
0100
0000
0010
0000
,
0100
0100
1000
0001
0100
0010
1010
0000
,
2000
0000
3001
1000
0100
1000
1001
0000
,
1000
1000
0001
1000
0100
1000
1001
0000
,
0001
0001
1000
0000
0100
0000
0010
0000
,
0001
0100
0010
1000
,
0010
0100
0001
0100
,
0010
1000
0001
0010
0100
1000
0001
0100
0010
1000
0001
0010
0100
0000
0000
0000
,
1000
0001
0101
0100
0000
0010
0110
0100
,
0002
2003
3002
2003
,
3001
1000
1100
0100
0000
0010
0110
0100
,
2000
3020
2030
3200
,
1300
0001
0101
0100
0000
0010
0110
0100
,
0002
2003
3002
2003
,
3001
1000
1010
0010
0000
0100
0110
0010
,
0100
0010
00M0
0010
1000
0100
0020
0030
,
0001
1000
1010
0010
0000
0100
0110
0010
,
2000
3002
2003
3002
,
1003
0001
0011
0010
0000
0100
0110
0010
,
0002
0203
0302
0023
,
0031
1000
1010
0010
0000
0100
0110
0010
,
2000
0000
3002
0000
0013
MMM0
0000
0000
,
0002
2003
3002
0203
,
0310
1000
0010
1000
0010
1000
0010
0000
,
1000
1000
0001
0000
0010
0000
0100
0000
,
1000
0001
1000
0001
0100
0010
1000
0100
0010
0001
0010
0001
0100
0010
1000
0001
,
0010
0001
0010
0100
1000
0001
0100
0001
1000
0100
1000
0100
0010
0001
1000
0001
,
0010
0100
0010
0100
1000
0001
0100
0001
1000
0100
0010
0001
0100
0010
0100
0001
,
1000
0100
1000
0100
0010
0100
1000
0010
0100
0010
0100
0010
1000
0010
0100
0010
,
1000
0001
1000
0001
0010
0100
1000
0010
0100
0001
0100
0001
0010
0100
1000
0001
,
0100
0001
0100
0010
1000
0001
0010
0001
1000
0010
1000
0010
0100
0001
1000
0001
,
0100
0010
00M0
0010
1000
0100
0020
0030
,
0001
0001
1000
0000
0100
0000
0010
0000
,
0100
0100
1000
0001
0100
0010
1010
0000
,
2000
0000
3001
1000
0100
1000
1001
0000
,
1000
1000
0001
1000
0100
1000
1001
0000
,
0001
0010
0001
0100
,
0010
1000
0010
0100
,
0002
0003
0000
0000
0000
0000
0000
0000
0000
0000
0000
0000
0000
0000
0000
0000
0020
0000
0030
0000
0000
0000
0000
0000
0000
0000
0000
0000
0000
0000
0000
0000
0002
0000
0000
0000
0003
0000
0000
0000
0000
0000
0000
0000
0000
0000
0000
0000
2000
0000
0000
0000
0000
0000
3000
0000
0000
0000
0000
0000
0000
0000
0000
0000
,
0200
0000
0000
0000
0300
0000
0000
0000
0020
0000
0000
0000
0000
0030
0000
0000
0002
0000
0000
0000
0000
0000
0003
0000
0200
0000
0000
0000
0000
0000
0000
0300
,
2002
0000
0000
0000
,
0000
0000
0000
0000
0000
0000
0000
3003
;

//---------------dance-single - I. Pyles----------------
#NOTES:
     dance-single:
     I. Pyles:
     Hard:
     13:
     0.940,1.000,0.332,0.479,1.000,1648.000,95.000,137.000,307.000,1.000:
0000
0000
0000
0000
,
0000
0000
0000
0000
,
0000
0000
0000
0000
,
0000
0000
0000
0000
,
0000
0000
0000
0000
,
0000
0000
0000
0000
,
0000
0000
0000
0000
,
0000
0000
0000
0000
,
0000
0000
0000
0000
,
0000
0000
0000
0000
,
0000
0000
0000
0000
,
0000
0000
0000
0000
,
0000
0000
0000
0000
,
0201
00M0
00M0
00M0
00M0
00M0
00M1
00M0
00M0
00M0
00M0
00M0
00M1
00M0
00M0
00M0
00M0
00M0
00M1
00M0
00M0
00M0
00M0
00M0
,
00M1
0000
00M0
0000
00M0
0000
00M0
0000
00M0
0000
00M0
0000
00M1
0000
00M0
0000
00M0
0000
00M0
0000
00M0
0000
00M0
0000
00M1
0000
00M0
0000
00M0
0000
00M0
0000
00M0
0300
0000
0000
1020
0000
0000
0000
0000
0000
0000
0000
0000
0030
0000
0000
,
0201
00M0
00M0
00M0
00M0
00M0
00M1
00M0
00M0
00M0
00M0
00M0
00M1
00M0
00M0
00M0
00M0
00M0
00M1
00M0
00M0
00M0
00M0
00M0
,
0301
0100
0100
0010
0000
1000
0020
0030
,
0021
0M00
0M00
0M00
0M00
0M00
0M01
0M00
0M00
0M00
0M00
0M00
0M01
0M00
0M00
0M00
0M00
0M00
0M01
0M00
0M00
0M00
0M00
0M00
,
0M01
0000
0M00
0000
0M00
0000
0M00
0000
0M00
0000
0M00
0000
0M01
0000
0M00
0000
0M00
0000
0M00
0000
0M00
0000
0M00
0000
0M01
0000
0M00
0000
0M00
0000
0M00
0000
0M00
0030
0000
0000
1200
0000
0000
0000
0000
0000
0000
0000
0000
0300
0000
0000
,
0021
0M00
0M00
0M00
0M00
0M00
0M01
0M00
0M00
0M00
0M00
0M00
0M01
0M00
0M00
0M00
0M00
0M00
0M01
0M00
0M00
0M00
0M00
0M00
,
0031
1000
0000
1000
1000
0001
0200
0300
,
1020
0M00
0M00
0M00
0M00
0M00
1M00
0M00
0M00
0M00
0M00
0M00
1M00
0M00
0M00
0M00
0M00
0M00
1M00
0M00
0M00
0M00
0M00
0M00
,
1M00
0000
0M00
0000
0M00
0000
0M00
0000
0M00
0000
0M00
0000
1M00
0000
0M00
0000
0M00
0000
0M00
0000
0M00
0000
0M00
0000
1M00
0000
0M00
0000
0M00
0000
0M00
0000
0M00
0030
0000
0000
0201
0000
0000
0000
0000
0000
0000
0000
0000
0300
0000
0000
,
1020
0M00
0M00
0M00
0M00
0M00
1M00
0M00
0M00
0M00
0M00
0M00
1M00
0M00
0M00
0M00
0M00
0M00
1M00
0M00
0M00
0M00
0M00
0M00
,
1030
0010
0010
0100
0000
0001
0200
0300
,
1200
0000
00M0
0000
00M0
0000
00M0
0000
00M0
0000
00M0
0000
10M0
0000
00M0
0000
00M0
0000
00M0
0000
00M0
0000
00M0
0000
10M0
0000
00M0
0000
00M0
0000
00M0
0000
00M0
0300
0000
0000
0021
0000
0000
0000
0000
0000
0000
0000
0000
0030
0000
0000
,
1020
0000
0M00
0000
0M00
0000
0M00
0000
0M00
0000
0M00
0000
1M00
0000
0M00
0000
0M00
0000
0M00
0000
0M00
0000
0M00
0000
1M00
0000
0M00
0000
0M00
0000
0M00
0000
0M00
0030
0000
0000
0201
0000
0000
0000
0000
0000
0000
0000
0000
0300
0000
0000
,
1020
0000
0000
0030
0021
0000
0000
0030
1200
0000
0000
0300
0201
0000
0000
0300
,
1010
1000
1001
1000
1010
0010
0110
0010
,
1002
0000
1000
0003
0001
0000
0000
0000
0010
0000
0000
0000
0100
0000
0000
0000
,
0010
0000
0010
0000
0001
0000
0100
0000
0010
0000
0000
0000
0120
0000
0000
0030
,
2010
0000
0000
3000
0001
0000
0010
0000
0100
0000
0000
0000
0000
0000
0000
0000
,
0010
0000
0010
0000
0001
0000
0010
0000
0100
0000
0000
0000
0210
0000
0000
0300
,
0021
0000
0001
0030
1000
0000
0000
0000
0010
0000
0000
0000
0100
0000
0000
0000
,
0010
0000
0010
0000
1000
0000
0100
0000
0010
0000
0000
0000
0210
0000
0000
0300
,
1002
0000
0000
0003
1000
0000
0010
0000
0100
0000
0000
0000
0000
0000
0000
0000
,
0010
0000
0010
0000
1000
0000
0100
0000
0010
0000
0000
0000
0120
0000
0000
0030
,
1200
0000
1000
0300
0001
0000
0000
0000
0100
0000
0000
0000
0010
0000
0000
0000
,
0100
0000
0100
0000
0001
0000
0010
0000
0100
0000
0000
0000
0120
0000
0000
0030
,
2100
0000
0000
3000
0001
0000
0100
0000
0010
0000
0000
0000
0000
0000
0000
0000
,
0100
0000
0100
0000
0001
0000
0100
0000
0010
0000
0000
0000
0210
0000
0000
0300
,
1002
0000
0000
0003
0000
0000
1000
0000
0000
0000
0001
0000
0010
0000
0100
0000
,
0010
0000
0100
0010
0000
0001
1000
1000
,
0001
0010
0100
0010
0100
0010
0100
0010
,
0100
100M
010M
100M
010M
100M
0100
0000
,
1000
0100
1000
0100
0010
0100
1000
0010
0100
0010
0100
0010
1000
0010
0100
0010
,
1000
0001
1000
0001
0010
0100
1000
0010
0100
0001
0100
0001
0010
0100
1000
0001
,
0100
0001
0100
0010
1000
0001
0010
0001
1000
0010
1000
0010
0100
0001
1000
0001
,
0100
0010
0100
0010
1000
0001
0010
0001
1000
0010
0100
0001
0010
0100
0010
0001
,
1000
0010
1000
0010
0100
0010
1000
0100
0010
0100
0010
0100
1000
0100
0010
0100
,
1000
0001
1000
0001
0100
0010
1000
0100
0010
0001
0010
0001
0100
0010
1000
0001
,
0010
0001
0010
0100
1000
0001
0100
0001
1000
0100
1000
0100
0010
0001
1000
0001
,
0010
0100
0M00
0100
1000
0010
0200
0300
,
0001
0100
0001
0100
0010
0100
0001
0010
0100
0010
0100
0010
0001
0010
0100
0010
,
0001
1000
0001
1000
0010
0100
0001
0010
0100
1000
0100
1000
0010
0100
0001
1000
,
0100
1000
0100
0010
0001
1000
0010
1000
0001
0010
0001
0010
0100
1000
0001
1000
,
0100
0010
0100
0010
0001
1000
0010
1000
0001
0010
0100
1000
0010
0100
0010
1000
,
0001
0010
0001
0010
0100
0010
0100
0010
0001
0100
0001
0100
0010
1000
0010
1000
,
0100
0010
0100
0010
0001
0010
0001
0010
0100
0010
0100
0010
0001
0100
0001
0100
,
0010
1000
0010
1000
0001
1000
0001
1000
0010
0100
0010
0100
0001
0100
0001
0100
,
0010
1000
0001
0010
0100
1000
0001
0100
0010
1000
0001
0010
0100
0000
0000
0000
,
1000
0001
0101
0100
0000
0010
0110
0100
,
0002
2003
3002
2003
,
3001
1000
1100
0100
0000
0010
0110
0100
,
2000
3020
2030
3200
,
1300
0001
0101
0100
0000
0010
0110
0100
,
0002
2003
3002
2003
,
3001
1000
1010
0010
0000
0100
0110
0010
,
0100
0010
00M0
0010
1000
0100
0020
0030
,
0001
1000
1010
0010
0000
0100
0110
0010
,
2000
3002
2003
3002
,
1003
0001
0011
0010
0000
0100
0110
0010
,
0002
0203
0302
0023
,
0031
1000
1010
0010
0000
0100
0110
0010
,
2000
0000
3002
0000
0013
MMM0
0000
0000
,
0002
2003
3002
0203
,
0310
1000
0010
1000
0010
1000
0010
0000
,
1000
1000
0010
0100
2001
3000
0001
0000
,
1000
0001
1000
0001
0100
0010
1000
0100
0010
0001
0010
0001
0100
0010
1000
0001
,
0010
0001
0010
0100
1000
0001
0100
0001
1000
0100
1000
0100
0010
0001
1000
0001
,
0010
0100
0010
0100
1000
0001
0100
0001
1000
0100
0010
0001
0100
0010
0100
0001
,
1000
0100
1000
0100
0010
0100
1000
0010
0100
0010
0100
0010
1000
0010
0100
0010
,
1000
0001
1000
0001
0010
0100
1000
0010
0100
0001
0100
0001
0010
0100
1000
0001
,
0100
0001
0100
0010
1000
0001
0010
0001
1000
0010
1000
0010
0100
0001
1000
0001
,
0100
0010
00M0
0010
1000
0100
0020
0030
,
0001
0010
0001
0010
0100
0010
0001
0100
0010
0100
0010
0100
0001
0100
0010
0100
,
0001
1000
0001
1000
0100
0010
0001
0100
0010
1000
0010
1000
0100
0010
0001
1000
,
0010
1000
0010
0100
0001
1000
0100
1000
0001
0100
0001
0100
0010
1000
0001
1000
,
0010
0100
0010
0100
0001
1000
0100
1000
0001
0100
0010
1000
0100
0010
0100
1000
,
0001
0100
0001
0100
0010
0100
0010
0100
0001
0010
0001
0010
0100
1000
0100
1000
,
0010
0100
0001
0100
0010
1000
0001
1000
0010
0100
0001
0100
0010
1000
0001
1000
,
0100
1000
0100
1000
0001
1000
0001
1000
0100
0010
0100
0010
0001
0010
0001
0010
,
0100
1000
0010
1000
0100
1000
0001
1000
0100
1000
0010
1000
0100
1000
0010
0100
,
0001
1000
1010
0010
0000
0100
0110
0010
,
2000
3002
2003
3002
,
1003
0001
0011
0010
0000
0100
0110
0010
,
0002
0203
0302
0023
,
0031
1000
1010
0010
0000
0100
0110
0010
,
2000
3002
2003
3002
,
1003
0001
0101
0100
0000
0010
0110
0100
,
0010
0100
0M00
0100
0001
0010
0200
0300
,
1000
0001
0101
0100
0000
0010
0110
0100
,
0002
2003
3002
2003
,
3001
1000
1100
0100
0000
0010
0110
0100
,
2000
3020
2030
3200
,
1300
0001
0101
0100
0000
0010
0110
0100
,
0002
2003
3002
2003
,
3002
0023
0032
0203
,
0320
0000
0030
1020
0000
0030
1021
0000
,
0000
0030
0000
0000
0000
0000
000M
00M0
,
0M00
00M0
000M
0000
0000
0000
M000
00M0
,
0M00
0000
00M0
0000
0000
0000
000M
00M0
,
0M00
00M0
000M
0000
0000
0000
M000
00M0
,
0M00
0000
00M0
0000
0000
0000
000M
00M0
,
0M00
00M0
000M
0000
0000
0000
M000
00M0
,
0M00
0000
00M0
0000
0000
0000
000M
00M0
,
0M00
00M0
000M
0000
0000
0000
M000
00M0
,
0M00
0000
00M0
0000
0000
0000
000M
00M0
,
0M00
00M0
000M
0000
0000
0000
M000
00M0
,
0M00
0000
00M0
0000
0000
0000
000M
00M0
,
0M00
00M0
000M
0000
0000
0000
M000
00M0
,
0M00
0000
00M0
0000
0000
0000
000M
00M0
,
0M00
00M0
000M
0000
0000
0000
M000
00M0
,
0M00
0000
00M0
0000
0000
0000
000M
00M0
,
0M00
00M0
000M
0000
0000
0000
0000
0000
,
1001
1001
0000
0000
0000
0000
0000
0000
,
0000
0000
0000
0000
,
1001
1001
0000
0000
0000
0000
0000
0000
,
0000
0000
0000
0000
,
1001
1001
0000
0000
0000
0000
0000
0000
,
0000
0000
0000
0000
,
1001
1001
0000
0000
0000
0000
0000
0000
,
0000
0000
0000
0000
,
1001
1001
0000
0001
0000
0001
0000
0001
,
0001
0001
0100
0010
2000
0000
3001
1000
,
1001
1001
0000
1000
0000
1000
0000
1000
,
1000
1000
0100
0010
0002
0000
1003
0001
,
1001
1001
0000
0001
0000
0001
0000
0001
,
0001
0001
0010
0100
2000
0000
3001
1000
,
1001
0000
0001
0010
0001
0000
0100
0010
0100
0000
0001
0010
0001
0000
1000
0010
,
0100
0001
1000
0100
0010
0001
1000
0010
0100
0001
1000
0100
0010
0000
0000
0000
,
0001
1000
0100
1000
0100
1000
0010
1000
0100
1000
0001
0100
0010
0100
0001
1000
,
0100
0010
0100
0010
0001
0010
0100
1000
0010
0100
0001
0010
0100
1000
0010
0100
,
0001
1000
0100
1000
0100
1000
0010
1000
0100
1000
0001
0100
0010
0100
0001
1000
,
0100
0010
0100
0010
0001
0010
0100
1000
0010
0100
0001
0010
0100
1000
0010
0100
,
0001
1000
0100
1000
0100
1000
0010
1000
0100
1000
0001
0100
0010
0100
0001
1000
,
0100
0010
0100
0010
0001
0010
0100
1000
0010
0100
0001
0010
0100
1000
0001
0100
,
0001
1000
0100
1000
0100
1000
0010
1000
0100
1000
0001
0100
0010
0100
0001
1000
,
0100
0010
0001
0010
0100
1000
0010
0100
0010
1000
0100
0010
0001
0100
0010
0100
,
0001
1000
0010
1000
0010
1000
0100
1000
0010
1000
0001
0010
0100
0010
0001
1000
,
0010
0100
0010
0100
0001
0100
0010
1000
0100
0010
0001
0100
0010
1000
0100
0010
,
0001
1000
0010
1000
0010
1000
0100
1000
0010
1000
0001
0010
0100
0010
0001
1000
,
0010
0100
0010
0100
0001
0100
0010
1000
0100
0010
0001
0100
0010
1000
0100
0010
,
0001
1000
0010
1000
0010
1000
0100
1000
0010
1000
0001
0010
0100
0010
0001
1000
,
0010
0100
0010
0100
0001
0100
0010
1000
0100
0010
0001
0100
0010
1000
0001
0010
,
0001
1000
0010
1000
0010
1000
0100
1000
0010
1000
0001
0010
0100
0010
0001
1000
,
0010
1000
0001
0010
0100
1000
0001
0100
0010
1000
0001
0010
0100
0000
0000
0000
,
1000
1000
0001
0000
0100
0000
0010
0000
,
1000
0001
1000
0001
0010
0100
1000
0010
0100
0001
0100
0001
0010
0100
1000
0001
,
0100
0001
0100
0010
1000
0001
0010
0001
1000
0010
1000
0010
0100
0001
1000
0001
,
0100
0010
0100
0010
1000
0001
0010
0001
1000
0010
0100
0001
0010
0100
0010
0001
,
1000
0010
1000
0010
0100
0010
1000
0100
0010
0100
0010
0100
1000
0100
0010
0100
,
1000
0001
1000
0001
0100
0010
1000
0100
0010
0001
0010
0001
0100
0010
1000
0001
,
0010
0001
0010
0100
1000
0001
0100
0001
1000
0100
1000
0100
0010
0001
1000
0001
,
0010
0100
0M00
0100
1000
0010
0200
0300
,
0001
0100
0001
0100
0010
0100
0001
0010
0100
0010
0100
0010
0001
0010
0100
0010
,
0001
1000
0001
1000
0010
0100
0001
0010
0100
1000
0100
1000
0010
0100
0001
1000
,
0100
1000
0100
0010
0001
1000
0010
1000
0001
0010
0001
0010
0100
1000
0001
1000
,
0100
0010
0100
0010
0001
1000
0010
1000
0001
0010
0100
1000
0010
0100
0010
1000
,
0001
0010
0001
0010
0100
0010
0100
0010
0001
0100
0001
0100
0010
1000
0010
1000
,
0100
0010
0100
0010
0001
0010
0001
0010
0100
0010
0100
0010
0001
0100
0001
0100
,
0010
1000
0010
1000
0001
1000
0001
1000
0010
0100
0010
0100
0001
0100
0001
0100
,
0010
1000
0001
0010
0100
1000
0001
0100
0010
1000
0001
0010
0100
0000
0000
0000
,
1000
0001
0101
0100
0000
0010
0110
0100
,
0002
2003
3002
2003
,
3001
1000
1100
0100
0000
0010
0110
0100
,
2000
3020
2030
3200
,
1300
0001
0101
0100
0000
0010
0110
0100
,
0002
2003
3002
2003
,
3001
1000
1010
0010
0000
0100
0110
0010
,
0100
0010
00M0
0010
1000
0100
0020
0030
,
0001
1000
1010
0010
0000
0100
0110
0010
,
2000
3002
2003
3002
,
1003
0001
0011
0010
0000
0100
0110
0010
,
0002
0203
0302
0023
,
0031
1000
1010
0010
0000
0100
0110
0010
,
2000
0000
3002
0000
0013
MMM0
0000
0000
,
0002
2003
3002
0203
,
0310
1000
0010
1000
0010
1000
0010
0000
,
1000
1000
0001
0000
0010
0000
0100
0000
,
1000
0001
1000
0001
0100
0010
1000
0100
0010
0001
0010
0001
0100
0010
1000
0001
,
0010
0001
0010
0100
1000
0001
0100
0001
1000
0100
1000
0100
0010
0001
1000
0001
,
0010
0100
0010
0100
1000
0001
0100
0001
1000
0100
0010
0001
0100
0010
0100
0001
,
1000
0100
1000
0100
0010
0100
1000
0010
0100
0010
0100
0010
1000
0010
0100
0010
,
1000
0001
1000
0001
0010
0100
1000
0010
0100
0001
0100
0001
0010
0100
1000
0001
,
0100
0001
0100
0010
1000
0001
0010
0001
1000
0010
1000
0010
0100
0001
1000
0001
,
0100
0010
00M0
0010
1000
0100
0020
0030
,
0001
0010
0001
0010
0100
0010
0001
0100
0010
0100
0010
0100
0001
0100
0010
0100
,
0001
1000
0001
1000
0100
0010
0001
0100
0010
1000
0010
1000
0100
0010
0001
1000
,
0010
1000
0010
0100
0001
1000
0100
1000
0001
0100
0001
0100
0010
1000
0001
1000
,
0010
0100
0010
0100
0001
1000
0100
1000
0001
0100
0010
1000
0100
0010
0100
1000
,
0001
0010
0001
0100
,
0010
1000
0010
0100
,
0002
0003
0000
0000
0000
0000
0000
0000
0000
0000
0000
0000
0000
0000
0000
0000
0020
0000
0030
0000
0000
0000
0000
0000
0000
0000
0000
0000
0000
0000
0000
0000
0002
0000
0000
0000
0003
0000
0000
0000
0000
0000
0000
0000
0000
0000
0000
0000
2000
0000
0000
0000
0000
0000
3000
0000
0000
0000
0000
0000
0000
0000
0000
0000
,
0200
0000
0000
0000
0300
0000
0000
0000
0020
0000
0000
0000
0000
0030
0000
0000
0002
0000
0000
0000
0000
0000
0003
0000
0200
0000
0000
0000
0000
0000
0000
0300
,
2002
0000
0000
0000
,
0000
0000
0000
0000
0000
0000
0000
3003
;

//---------------dance-single - I. Pyles----------------
#NOTES:
     dance-single:
     I. Pyles:
     Challenge:
     15:
     1.000,1.000,0.185,0.206,1.000,2089.000,53.000,59.000,307.000,1.000:

0000
0000
0000
0000
,
0000
0000
0000
0000
,
0000
0000
0000
0000
,
0000
0000
0000
0000
,
0000
0000
0000
0000
,
0000
0000
0000
0000
,
0000
0000
0000
0000
,
0000
0000
0000
0000
,
0000
0000
0000
0000
,
0000
0000
0000
0000
,
0000
0000
0000
0000
,
0000
0000
0000
0000
,
0000
0000
0000
0000
,
0201
00M0
00M0
00M0
00M0
00M0
00M1
00M0
00M0
00M0
00M0
00M0
00M1
00M0
00M0
00M0
00M0
00M0
00M1
00M0
00M0
00M0
00M0
00M0
,
00M1
0000
00M0
0000
00M0
0000
00M0
0000
00M0
0000
00M0
0000
00M1
0000
00M0
0000
00M0
0000
00M0
0000
00M0
0000
00M0
0000
00M1
0000
00M0
0000
00M0
0000
00M0
0000
00M0
0300
0000
0000
1020
0000
0000
0000
0000
0000
0000
0000
0000
0030
0000
0000
,
0201
00M0
00M0
00M0
00M0
00M0
00M1
00M0
00M0
00M0
00M0
00M0
00M1
00M0
00M0
00M0
00M0
00M0
00M1
00M0
00M0
00M0
00M0
00M0
,
0301
0100
0100
0010
0000
1000
0020
0030
,
0021
0M00
0M00
0M00
0M00
0M00
0M01
0M00
0M00
0M00
0M00
0M00
0M01
0M00
0M00
0M00
0M00
0M00
0M01
0M00
0M00
0M00
0M00
0M00
,
0M01
0000
0M00
0000
0M00
0000
0M00
0000
0M00
0000
0M00
0000
0M01
0000
0M00
0000
0M00
0000
0M00
0000
0M00
0000
0M00
0000
0M01
0000
0M00
0000
0M00
0000
0M00
0000
0M00
0030
0000
0000
1200
0000
0000
0000
0000
0000
0000
0000
0000
0300
0000
0000
,
0021
0M00
0M00
0M00
0M00
0M00
0M01
0M00
0M00
0M00
0M00
0M00
0M01
0M00
0M00
0M00
0M00
0M00
0M01
0M00
0M00
0M00
0M00
0M00
,
0031
1000
0000
1000
1000
0001
0200
0300
,
1020
0M00
0M00
0M00
0M00
0M00
1M00
0M00
0M00
0M00
0M00
0M00
1M00
0M00
0M00
0M00
0M00
0M00
1M00
0M00
0M00
0M00
0M00
0M00
,
1M00
0000
0M00
0000
0M00
0000
0M00
0000
0M00
0000
0M00
0000
1M00
0000
0M00
0000
0M00
0000
0M00
0000
0M00
0000
0M00
0000
1M00
0000
0M00
0000
0M00
0000
0M00
0000
0M00
0030
0000
0000
0201
0000
0000
0000
0000
0000
0000
0000
0000
0300
0000
0000
,
1020
0M00
0M00
0M00
0M00
0M00
1M00
0M00
0M00
0M00
0M00
0M00
1M00
0M00
0M00
0M00
0M00
0M00
1M00
0M00
0M00
0M00
0M00
0M00
,
1030
0010
0010
0100
0000
0001
0200
0300
,
1200
0000
00M0
0000
00M0
0000
00M0
0000
00M0
0000
00M0
0000
10M0
0000
00M0
0000
00M0
0000
00M0
0000
00M0
0000
00M0
0000
10M0
0000
00M0
0000
00M0
0000
00M0
0000
00M0
0300
0000
0000
0021
0000
0000
0000
0000
0000
0000
0000
0000
0030
0000
0000
,
1020
0000
0M00
0000
0M00
0000
0M00
0000
0M00
0000
0M00
0000
1M00
0000
0M00
0000
0M00
0000
0M00
0000
0M00
0000
0M00
0000
1M00
0000
0M00
0000
0M00
0000
0M00
0000
0M00
0030
0000
0000
0201
0000
0000
0000
0000
0000
0000
0000
0000
0300
0000
0000
,
1020
0000
0000
0030
0021
0000
0000
0030
1200
0000
0000
0300
0201
0000
0000
0300
,
1010
1000
1001
1000
1010
0010
0110
0010
,
1002
0000
1000
0003
0001
0000
0000
0000
0010
0000
0000
0000
0100
0000
0000
0000
,
0010
0000
0010
0000
0001
0000
0100
0000
0010
0000
0000
0000
0120
0000
0000
0030
,
2010
0000
0000
3000
0001
0000
0010
0000
0100
0000
0000
0000
0000
0000
0000
0000
,
0010
0000
0010
0000
0001
0000
0010
0000
0100
0000
0000
0000
0210
0000
0000
0300
,
0021
0000
0001
0030
1000
0000
0000
0000
0010
0000
0000
0000
0100
0000
0000
0000
,
0010
0000
0010
0000
1000
0000
0100
0000
0010
0000
0000
0000
0210
0000
0000
0300
,
1002
0000
0000
0003
1000
0000
0010
0000
0100
0000
0000
0000
0000
0000
0000
0000
,
0010
0000
0010
0000
1000
0000
0100
0000
0010
0000
0000
0000
0120
0000
0000
0030
,
1200
0000
1000
0300
0001
0000
0000
0000
0100
0000
0000
0000
0010
0000
0000
0000
,
0100
0000
0100
0000
0001
0000
0010
0000
0100
0000
0000
0000
0120
0000
0000
0030
,
2100
0000
0000
3000
0001
0000
0100
0000
0010
0000
0000
0000
0000
0000
0000
0000
,
0100
0000
0100
0000
0001
0000
0100
0000
0010
0000
0000
0000
0210
0000
0000
0300
,
1002
0000
0000
0003
0000
0000
1000
0000
0000
0000
0001
0000
0010
0000
0100
0000
,
0010
0000
0100
0010
0000
0001
1000
1000
,
0001
0010
0001
0010
0001
0010
0001
0010
,
0100
100M
010M
100M
010M
100M
0100
0000
,
1000
0100
1000
0100
0010
0100
1000
0010
0100
0010
0100
0010
1000
0010
0100
0010
,
1000
0001
1000
0001
0010
0100
1000
0010
0100
0001
0100
0001
0010
0100
1000
0001
,
0100
0001
0100
0010
1000
0001
0010
0001
1000
0010
1000
0010
0100
0001
1000
0001
,
0100
0010
0100
0010
1000
0001
0010
0001
1000
0010
0100
0001
0010
0100
0010
0001
,
1000
0010
1000
0010
0100
0010
1000
0100
0010
0100
0010
0100
1000
0100
0010
0100
,
1000
0001
1000
0001
0100
0010
1000
0100
0010
0001
0010
0001
0100
0010
1000
0001
,
0010
0001
0010
0100
1000
0001
0100
0001
1000
0100
1000
0100
0010
0001
1000
0001
,
0010
0100
0M00
0100
1000
0010
0200
0300
,
0001
0100
0001
0100
0010
0100
0001
0010
0100
0010
0100
0010
0001
0010
0100
0010
,
0001
1000
0001
1000
0010
0100
0001
0010
0100
1000
0100
1000
0010
0100
0001
1000
,
0100
1000
0100
0010
0001
1000
0010
1000
0001
0010
0001
0010
0100
1000
0001
1000
,
0100
0010
0100
0010
0001
1000
0010
1000
0001
0010
0100
1000
0010
0100
0010
1000
,
0001
0010
0001
0010
0100
0010
0100
0010
0001
0100
0001
0100
0010
1000
0010
1000
,
0100
0010
0100
0010
0001
0010
0001
0010
0100
0010
0100
0010
0001
0100
0001
0100
,
0010
1000
0010
1000
0001
1000
0001
1000
0010
0100
0010
0100
0001
0100
0001
0100
,
0010
1000
0001
0010
0100
1000
0001
0100
0010
1000
0001
0010
0100
0000
0000
0000
,
1000
0001
1000
0001
0100
0010
1000
0001
1000
0010
0100
0001
0010
0100
1000
0001
,
0100
0001
1000
0001
0010
0100
1000
0001
1000
0100
0010
0001
0100
0010
1000
0001
,
0010
0100
1000
0001
0100
0010
0100
0001
1000
0001
0010
0001
0100
0010
1000
0010
,
0100
0010
1000
0001
0010
0100
0010
0001
1000
0001
0100
0001
0010
0100
1000
0100
,
0010
0001
1000
0001
0100
0010
1000
0001
1000
0010
0100
0001
0010
0100
1000
0001
,
0100
0001
1000
0001
0010
0100
1000
0001
1000
0100
0010
0001
0100
0010
1000
0001
,
0010
0100
1000
0001
0100
0010
0100
0001
1000
0001
0010
0001
0100
0010
1000
0010
,
0100
0010
00M0
0010
1000
0100
0020
0030
,
0001
1000
0001
1000
0010
0100
0001
1000
0001
0100
0010
1000
0100
0010
0001
1000
,
0010
1000
0001
1000
0100
0010
0001
1000
0001
0010
0100
1000
0010
0100
0001
1000
,
0100
0010
0001
1000
0010
0100
0010
1000
0001
1000
0100
1000
0010
0100
0001
0100
,
0010
0100
0001
1000
0100
0010
0100
1000
0001
1000
0010
1000
0100
0010
0001
0010
,
0100
1000
0001
1000
0010
0100
0001
1000
0001
0100
0010
1000
0100
0010
0001
1000
,
0010
0000
1000
0000
0001
0000
1000
0000
0100
0000
0010
0000
0001
0000
1000
0000
0020
0030
0000
0000
0MMM
0000
0000
0000
0000
0000
0000
0000
0000
0000
0000
0000
,
0001
0100
0001
0100
0010
0100
0010
0100
0001
0010
0001
0010
0100
0010
0100
0010
,
0001
1000
0100
1000
0001
1000
0100
1000
0010
1000
0100
1000
0001
0000
0000
0000
,
1000
1000
0010
0100
2001
3000
0001
0000
,
1000
0001
1000
0001
0100
0010
1000
0100
0010
0001
0010
0001
0100
0010
1000
0001
,
0010
0001
0010
0100
1000
0001
0100
0001
1000
0100
1000
0100
0010
0001
1000
0001
,
0010
0100
0010
0100
1000
0001
0100
0001
1000
0100
0010
0001
0100
0010
0100
0001
,
1000
0100
1000
0100
0010
0100
1000
0010
0100
0010
0100
0010
1000
0010
0100
0010
,
1000
0001
1000
0001
0010
0100
1000
0010
0100
0001
0100
0001
0010
0100
1000
0001
,
0100
0001
0100
0010
1000
0001
0010
0001
1000
0010
1000
0010
0100
0001
1000
0001
,
0100
0010
00M0
0010
1000
0100
0020
0030
,
0001
0010
0001
0010
0100
0010
0001
0100
0010
0100
0010
0100
0001
0100
0010
0100
,
0001
1000
0001
1000
0100
0010
0001
0100
0010
1000
0010
1000
0100
0010
0001
1000
,
0010
1000
0010
0100
0001
1000
0100
1000
0001
0100
0001
0100
0010
1000
0001
1000
,
0010
0100
0010
0100
0001
1000
0100
1000
0001
0100
0010
1000
0100
0010
0100
1000
,
0001
0100
0001
0100
0010
0100
0010
0100
0001
0010
0001
0010
0100
1000
0100
1000
,
0010
0100
0001
0100
0010
1000
0001
1000
0010
0100
0001
0100
0010
1000
0001
1000
,
0100
1000
0100
1000
0001
1000
0001
1000
0100
0010
0100
0010
0001
0010
0001
0010
,
0100
1000
0010
1000
0100
1000
0001
1000
0100
1000
0010
1000
0100
1000
0001
0100
,
0001
1000
0001
1000
0100
0010
0001
1000
0001
0010
0100
1000
0010
0100
0001
1000
,
0100
1000
0001
1000
0010
0100
0001
1000
0001
0100
0010
1000
0100
0010
0001
1000
,
0010
0100
0001
1000
0100
0010
0100
1000
0001
1000
0010
1000
0100
0010
0001
0010
,
0100
0010
0001
1000
0010
0100
0010
1000
0001
1000
0100
1000
0010
0100
0001
0100
,
0010
1000
0001
1000
0100
0010
0001
1000
0001
0010
0100
1000
0010
0100
0001
1000
,
0100
1000
0001
1000
0010
0100
0001
1000
0001
0100
0010
1000
0100
0010
0001
1000
,
0010
0100
0001
1000
0100
0010
0100
1000
0001
1000
0010
1000
0100
0010
0001
0010
,
0100
0010
00M0
0010
0001
0100
0020
0030
,
1000
0001
1000
0001
0010
0100
1000
0001
1000
0100
0010
0001
0100
0010
1000
0001
,
0010
0001
1000
0001
0100
0010
1000
0001
1000
0010
0100
0001
0010
0100
1000
0001
,
0100
0010
1000
0001
0010
0100
0010
0001
1000
0001
0100
0001
0010
0100
1000
0100
,
0010
0100
1000
0001
0100
0010
0100
0001
1000
0001
0010
0001
0100
0010
1000
0010
,
0100
0001
1000
0001
0010
0100
1000
0001
1000
0100
0010
0001
0100
0010
1000
0001
,
0010
0100
1000
0001
0100
0010
0100
0001
1000
0001
0010
0001
0100
0010
1000
0001
,
1000
0100
1000
0100
0010
0100
0010
0100
1000
0010
1000
0010
0100
0010
0100
0010
,
2000
3000
0000
2010
0000
3000
2011
0000
,
0000
3000
0000
0000
0000
0000
000M
00M0
,
0M00
00M0
000M
0000
0000
0000
M000
00M0
,
0M00
0000
00M0
0000
0000
0000
000M
00M0
,
0M00
00M0
000M
0000
0000
0000
M000
00M0
,
0M00
0000
00M0
0000
0000
0000
000M
00M0
,
0M00
00M0
000M
0000
0000
0000
M000
00M0
,
0M00
0000
00M0
0000
0000
0000
000M
00M0
,
0M00
00M0
000M
0000
0000
0000
M000
00M0
,
0M00
0000
00M0
0000
0000
0000
000M
00M0
,
0M00
00M0
000M
0000
0000
0000
M000
00M0
,
0M00
0000
00M0
0000
0000
0000
000M
00M0
,
0M00
00M0
000M
0000
0000
0000
M000
00M0
,
0M00
0000
00M0
0000
0000
0000
000M
00M0
,
0M00
00M0
000M
0000
0000
0000
M000
00M0
,
0M00
0000
00M0
0000
0000
0000
000M
00M0
,
0M00
00M0
000M
0000
0000
0000
0000
0000
,
1001
1001
0000
0000
0000
0000
0000
0000
,
0000
0000
0000
0000
,
1001
1001
0000
0000
0000
0000
0000
0000
,
0000
0000
0000
0000
,
1001
1001
0000
0000
0000
0000
0000
0000
,
0000
0000
0000
0000
,
1001
1001
0000
0000
0000
0000
0000
0000
,
0000
0000
0000
0000
,
1001
1001
0000
0001
0000
0001
0000
0001
,
0001
0001
0100
0010
2000
0000
3001
1000
,
1001
1001
0000
1000
0000
1000
0000
1000
,
1000
1000
0100
0010
0002
0000
1003
0001
,
1001
1001
0000
0001
0000
0001
0000
0001
,
0001
0001
0010
0100
2000
0000
3001
1000
,
1001
0000
0001
0010
0001
0000
0100
0010
0100
0000
0001
0010
0001
0000
1000
0010
,
0100
0001
1000
0100
0010
0001
1000
0010
0100
0001
1000
0100
0010
0000
0000
0000
,
0001
1000
0100
1000
0100
1000
0010
1000
0100
1000
0001
0100
0010
0100
0001
1000
,
0100
0010
0100
0010
0001
0010
0100
1000
0010
0100
0001
0010
0100
1000
0010
0100
,
0001
1000
0100
1000
0100
1000
0010
1000
0100
1000
0001
0100
0010
0100
0001
1000
,
0100
0010
0100
0010
0001
0010
0100
1000
0010
0100
0001
0010
0100
1000
0010
0100
,
0001
1000
0100
1000
0100
1000
0010
1000
0100
1000
0001
0100
0010
0100
0001
1000
,
0100
0010
0100
0010
0001
0010
0100
1000
0010
0100
0001
0010
0100
1000
0001
0100
,
0001
1000
0100
1000
0100
1000
0010
1000
0100
1000
0001
0100
0010
0100
0001
1000
,
0100
0010
0001
0010
0100
1000
0010
0100
0010
1000
0100
0010
0001
0100
0010
0100
,
0001
1000
0010
1000
0010
1000
0100
1000
0010
1000
0001
0010
0100
0010
0001
1000
,
0010
0100
0010
0100
0001
0100
0010
1000
0100
0010
0001
0100
0010
1000
0100
0010
,
0001
1000
0010
1000
0010
1000
0100
1000
0010
1000
0001
0010
0100
0010
0001
1000
,
0010
0100
0010
0100
0001
0100
0010
1000
0100
0010
0001
0100
0010
1000
0100
0010
,
0001
1000
0010
1000
0010
1000
0100
1000
0010
1000
0001
0010
0100
0010
0001
1000
,
0010
0100
0010
0100
0001
0100
0010
1000
0100
0010
0001
0100
0010
1000
0001
0010
,
0001
1000
0010
1000
0010
1000
0100
1000
0010
1000
0001
0010
0100
0010
0001
1000
,
0010
1000
0001
0010
0100
1000
0001
0100
0010
1000
0001
0010
0100
0000
0000
0000
,
1000
1000
0001
0000
0100
0000
0010
0000
,
1000
0001
1000
0001
0010
0100
1000
0010
0100
0001
0100
0001
0010
0100
1000
0001
,
0100
0001
0100
0010
1000
0001
0010
0001
1000
0010
1000
0010
0100
0001
1000
0001
,
0100
0010
0100
0010
1000
0001
0010
0001
1000
0010
0100
0001
0010
0100
0010
0001
,
1000
0010
1000
0010
0100
0010
1000
0100
0010
0100
0010
0100
1000
0100
0010
0100
,
1000
0001
1000
0001
0100
0010
1000
0100
0010
0001
0010
0001
0100
0010
1000
0001
,
0010
0001
0010
0100
1000
0001
0100
0001
1000
0100
1000
0100
0010
0001
1000
0001
,
0010
0100
0M00
0100
1000
0010
0200
0300
,
0001
0100
0001
0100
0010
0100
0001
0010
0100
0010
0100
0010
0001
0010
0100
0010
,
0001
1000
0001
1000
0010
0100
0001
0010
0100
1000
0100
1000
0010
0100
0001
1000
,
0100
1000
0100
0010
0001
1000
0010
1000
0001
0010
0001
0010
0100
1000
0001
1000
,
0100
0010
0100
0010
0001
1000
0010
1000
0001
0010
0100
1000
0010
0100
0010
1000
,
0001
0010
0001
0010
0100
0010
0100
0010
0001
0100
0001
0100
0010
1000
0010
1000
,
0100
0010
0100
0010
0001
0010
0001
0010
0100
0010
0100
0010
0001
0100
0001
0100
,
0010
1000
0010
1000
0001
1000
0001
1000
0010
0100
0010
0100
0001
0100
0001
0100
,
0010
1000
0001
0010
0100
1000
0001
0100
0010
1000
0001
0010
0100
0000
0000
0000
,
1000
0001
1000
0001
0100
0010
1000
0001
1000
0010
0100
0001
0010
0100
1000
0001
,
0100
0001
1000
0001
0010
0100
1000
0001
1000
0100
0010
0001
0100
0010
1000
0001
,
0010
0100
1000
0001
0100
0010
0100
0001
1000
0001
0010
0001
0100
0010
1000
0010
,
0100
0010
1000
0001
0010
0100
0010
0001
1000
0001
0100
0001
0010
0100
1000
0100
,
0010
0001
1000
0001
0100
0010
1000
0001
1000
0010
0100
0001
0010
0100
1000
0001
,
0100
0001
1000
0001
0010
0100
1000
0001
1000
0100
0010
0001
0100
0010
1000
0001
,
0010
0100
1000
0001
0100
0010
0100
0001
1000
0001
0010
0001
0100
0010
1000
0010
,
0100
0010
00M0
0010
1000
0100
0020
0030
,
0001
1000
0001
1000
0010
0100
0001
1000
0001
0100
0010
1000
0100
0010
0001
1000
,
0010
1000
0001
1000
0100
0010
0001
1000
0001
0010
0100
1000
0010
0100
0001
1000
,
0100
0010
0001
1000
0010
0100
0010
1000
0001
1000
0100
1000
0010
0100
0001
0100
,
0010
0100
0001
1000
0100
0010
0100
1000
0001
1000
0010
1000
0100
0010
0001
0010
,
0100
1000
0001
1000
0010
0100
0001
1000
0001
0100
0010
1000
0100
0010
0001
1000
,
0010
0000
1000
0000
0001
0000
1000
0000
0100
0000
0010
0000
0001
0000
1000
0000
0020
0030
0000
0000
0MMM
0000
0000
0000
0000
0000
0000
0000
0000
0000
0000
0000
,
0001
0100
0001
0100
0010
0100
0010
0100
0001
0010
0001
0010
0100
0010
0100
0010
,
0001
1000
0100
1000
0001
1000
0100
1000
0010
1000
0100
1000
0001
0000
0000
0000
,
1000
1000
0001
0000
0010
0000
0100
0000
,
1000
0001
1000
0001
0100
0010
1000
0100
0010
0001
0010
0001
0100
0010
1000
0001
,
0010
0001
0010
0100
1000
0001
0100
0001
1000
0100
1000
0100
0010
0001
1000
0001
,
0010
0100
0010
0100
1000
0001
0100
0001
1000
0100
0010
0001
0100
0010
0100
0001
,
1000
0100
1000
0100
0010
0100
1000
0010
0100
0010
0100
0010
1000
0010
0100
0010
,
1000
0001
1000
0001
0010
0100
1000
0010
0100
0001
0100
0001
0010
0100
1000
0001
,
0100
0001
0100
0010
1000
0001
0010
0001
1000
0010
1000
0010
0100
0001
1000
0001
,
0100
0010
00M0
0010
1000
0100
0020
0030
,
0001
0010
0001
0010
0100
0010
0001
0100
0010
0100
0010
0100
0001
0100
0010
0100
,
0001
1000
0001
1000
0100
0010
0001
0100
0010
1000
0010
1000
0100
0010
0001
1000
,
0010
1000
0010
0100
0001
1000
0100
1000
0001
0100
0001
0100
0010
1000
0001
1000
,
0010
0100
0010
0100
0001
1000
0100
1000
0001
0100
0010
1000
0100
0010
0100
1000
,
0001
0010
0001
0100
,
0010
1000
0010
0100
,
0002
0003
0000
0000
0000
0000
0000
0000
0000
0000
0000
0000
0000
0000
0000
0000
0020
0000
0030
0000
0000
0000
0000
0000
0000
0000
0000
0000
0000
0000
0000
0000
0002
0000
0000
0000
0003
0000
0000
0000
0000
0000
0000
0000
0000
0000
0000
0000
2000
0000
0000
0000
0000
0000
3000
0000
0000
0000
0000
0000
0000
0000
0000
0000
,
0200
0000
0000
0000
0300
0000
0000
0000
0020
0000
0000
0000
0000
0030
0000
0000
0002
0000
0000
0000
0000
0000
0003
0000
0200
0000
0000
0000
0000
0000
0000
0300
,
2002
0000
0000
0000
,
0000
0000
0000
0000
0000
0000
0000
3003
;
