#TITLE:Chariot;
#SUBTITLE:;
#ARTIST:Shiki;
#TITLETRANSLIT:;
#SUBTITLETRANSLIT:;
#ARTISTTRANSLIT:;
#CREDIT:;
#BANNER:Chariot-BN.png;
#BACKGROUND:Chariot-BG.png;
#LYRICSPATH:;
#CDTITLE:annoncattitle.png;
#MUSIC:Chariot.mp3;
#OFFSET:1.000;
#SAMPLESTART:12.000;
#SAMPLELENGTH:12.000;
#SELECTABLE:YES;
#DISPLAYBPM:91.000:182.000;
#BPMS:0.000=91.000,20.000=182.000,84.000=91.000,100.000=182.000,164.000=91.000,180.000=182.000,244.000=91.000,276.000=100.000,276.250=115.000,276.500=130.000,276.750=145.000,277.000=160.000,277.250=175.000,277.500=190.000,277.750=205.000,278.000=215.000,280.000=36.999;
#STOPS:;
#BGCHANGES:;
// cache tags:
#FIRSTBEAT:3.750;
#LASTBEAT:284.000;
#SONGFILENAME:Songs/Fabulously Fresh Flock of Fantastic Files F5/(Annon & Cat) Chariot/Chariot.sm;
#HASMUSIC:1;
#HASBANNER:1;
#MUSICLENGTH:126.576;
// end cache tags

//---------------dance-single - ----------------
#NOTES:
     dance-single:
     :
     Hard:
     11:
     1.000,1.000,1.000,0.095,1.000,791.000,165.000,12.000,0.000,1.000:
0000
0000
0000
0000
0000
0000
0000
0000
0000
0000
0000
0000
0000
0000
0000
0002
,
0000
1003
0010
0100
0001
0000
0000
2000
0000
3001
0010
0100
1000
0000
0000
0002
,
0000
0103
0010
1000
0001
0000
0000
2000
0000
3010
0100
0001
1000
0000
0000
0002
,
0000
0013
0100
0010
0001
0000
0000
2000
0000
3010
0100
0001
1000
0000
0000
0200
,
0000
0000
1300
0000
0001
0000
0100
0000
0010
0000
0000
0000
0000
0000
0200
0000
0301
1000
0100
0000
0010
0000
0001
0010
0100
1000
0000
0000
0000
0000
0000
0000
,
1001
0000
0001
0000
1010
0000
0001
0010
0100
0010
0001
0000
1010
0000
0100
0010
,
1001
0000
1000
0000
0011
0000
0100
0010
1000
0001
0100
0000
1100
0000
0010
0001
,
1010
0000
1000
0000
0011
0000
0100
0010
0100
1000
0001
0000
0110
0000
1000
0001
,
0110
0000
1000
0100
0010
0000
0001
0100
0010
0000
1001
0000
0100
0010
0100
0001
,
1010
0000
0100
0001
0010
0000
0100
1000
0010
0100
0001
0000
0110
0000
1000
0010
,
1001
0000
0100
0000
0011
0000
1000
0010
0100
0010
1000
0000
0110
0000
0001
1000
,
0101
0000
0010
0000
1100
0000
0010
0100
1000
0010
0100
0000
1001
0000
0100
0001
,
1100
0000
0100
1000
0101
0000
0100
0001
1000
0100
0010
0001
0100
0010
1000
0001
,
0210
0000
0301
1000
0101
0000
0010
1000
0100
0010
0001
0000
1001
0000
1000
0010
,
1001
0000
0100
0000
0011
0000
1000
0010
0100
0010
1000
0000
0101
0000
0010
1000
,
0011
0000
0100
0000
1010
0000
0100
0001
1000
0100
1000
0000
0011
0000
0100
0010
,
1001
0000
0100
0001
0110
0000
1000
0010
1001
0000
0110
0000
1001
0000
0100
0010
,
1001
0000
0100
0001
1010
0000
0100
0001
0010
0100
1000
0000
0110
0000
0001
1000
,
0101
0000
1000
0000
0110
0000
0001
0010
0100
1000
0010
0000
0101
0000
0010
1000
,
0110
0000
0100
0000
1001
0000
0100
0001
0010
0100
0010
0000
1001
0000
1000
0001
,
0110
1000
0001
0000
0110
0000
1000
0010
0100
0010
1001
0000
0100
0000
0100
0010
,
1001
0000
0001
0000
1000
0000
0010
0100
0000
0010
0000
1000
0000
0100
0010
0001
,
1000
0000
0001
0000
0010
0100
0010
0001
0000
0010
0000
0100
0000
1000
0010
0100
,
0001
0000
1000
0000
0010
0000
0100
0001
0000
0010
0000
0100
0000
0010
0001
1000
,
0010
0000
0100
0000
0001
1000
0000
0010
0000
0000
0010
0100
0000
0100
0001
0000
,
1001
0000
0001
0000
1010
0000
0100
0001
1000
0100
0010
0000
0101
0000
0010
0100
,
1001
0000
0100
0000
1010
0000
0001
0010
0100
0010
0001
0000
1010
0000
0100
0001
,
1100
0000
0100
0000
0011
0000
1000
0010
0100
0001
1000
0000
0101
0000
0001
1000
,
0110
0000
0001
1000
0010
0000
0100
0001
1000
0100
0010
0000
0110
0000
0001
0010
,
1100
0000
0010
0000
1001
0000
0100
0001
1000
0010
1000
0000
0101
0000
1000
0100
,
0011
0000
0001
0000
1010
0000
0100
0010
1000
0100
0010
0000
1001
0000
1000
0010
,
0101
0000
0001
0000
1100
0000
0010
0100
1000
0001
0100
0000
1001
0000
0001
0100
,
1010
0000
0100
0000
1001
0000
0100
0001
1000
0100
0010
0000
0101
0000
0010
0100
,
1001
0000
0001
0100
0001
0000
1000
0100
1000
0000
0010
0100
0010
0100
0001
1000
,
1001
0000
1000
0100
1000
0000
0010
0100
0010
0000
1000
0001
1000
0001
0100
0010
,
0110
0000
0001
0010
0001
0000
1000
0100
1000
0000
0010
0100
0010
0100
0001
0010
,
0011
0000
1000
0001
1000
0000
0100
0010
0100
0000
1000
0010
1000
0010
0100
0001
,
0101
0000
1000
0100
0010
0000
0001
0100
0010
0000
1000
0100
0010
0001
0100
0010
,
1001
0000
0100
0001
0010
0000
0100
1000
0010
0000
0100
0001
0010
0100
1000
0010
,
1001
0000
1000
0010
0100
0000
0001
0010
0100
0000
1000
0010
0100
0001
0010
0100
,
1001
0000
0010
0001
0100
0000
0010
1000
0100
0000
0010
0001
0100
0010
1000
0100
,
1001
0100
0010
1000
0000
0000
0000
0000
1000
0000
0000
0000
0100
0000
0000
0000
,
0011
0100
1000
0001
0000
0000
0000
0000
0000
0001
0000
0000
0010
0000
0000
0000
,
1100
0001
0100
0010
0000
0000
0000
0000
0100
0000
0000
0000
0010
0000
0000
0000
,
1001
0000
0100
0000
0010
0000
1000
0000
0000
0000
0000
0000
0000
0000
0000
0000
1000
0001
1000
0000
0110
0000
0001
1000
0000
0001
1000
0000
0010
0100
0010
0100
,
1001
0000
0100
0000
1010
0000
0100
0001
0010
0100
1000
0010
0110
0000
0100
0001
,
1001
0000
0100
0001
1001
0000
1000
0100
0010
0001
0100
0000
1010
0000
0100
0010
,
0110
0000
1000
0000
0011
0000
0100
1000
0010
0100
0001
0000
1010
0000
0001
0010
,
0011
0000
1000
0100
1100
0000
0010
0100
0001
0010
0100
1000
1001
0000
0100
0010
,
1001
0000
0100
0001
1010
0000
1000
0001
0100
0010
1000
0000
0101
0000
0010
0100
,
0101
0000
1000
0100
1100
0000
0010
0001
1000
0010
0100
0001
1001
0000
0100
0010
,
1001
0000
0100
0001
0011
0000
0100
1000
0100
0010
0001
0010
0011
0000
0100
0010
,
1001
0000
0100
0001
1010
0000
0100
0001
0000
0100
0001
1000
0100
1000
0001
1000
,
1001
0000
0001
0000
1010
0000
0100
0010
1000
0100
0010
0000
1001
0000
0100
0001
,
1010
0000
0010
0000
1001
0000
0100
0010
0100
1000
0001
0000
0101
0000
0010
1000
,
1001
0000
0100
0000
0011
0000
1000
0010
0100
0001
0010
0000
1100
0000
0001
0100
,
0101
0000
1000
0100
1100
0000
0010
0001
0010
0100
1000
0001
1010
0000
0100
0001
,
1001
0000
0100
0000
1010
0000
0100
0010
1000
0100
1000
0000
0011
0000
0100
1000
,
1001
0000
0100
0010
1001
0000
0100
0001
1000
0100
0010
0000
1001
0000
0100
0010
,
1100
0000
0100
0000
0011
0000
1000
0010
0100
0010
1000
0000
0101
0000
0010
0100
,
1001
0000
0100
0000
1010
0000
0100
0001
1000
0100
1000
0010
0100
0001
0010
0100
,
1001
0010
0100
0001
0110
1000
0100
0010
0101
0101
0010
1000
0010
0101
1100
0110
,
0011
0100
1000
0001
0110
1000
0001
0100
1010
1010
0100
0001
1000
0011
0101
0110
,
1010
0100
0001
1000
0001
0100
0010
0100
1001
1001
0010
0100
0001
1100
0011
0110
,
1001
0100
0010
1000
0001
0010
0100
1000
0110
0110
0001
1000
0100
0011
1100
0010
,
1001
0010
0000
0100
0000
0000
0000
0000
0001
0101
0000
0100
0010
0000
1010
0000
,
1000
0001
0000
0101
0000
0100
0010
0000
1000
0100
0000
0110
0000
0010
0001
0000
,
1001
1000
0000
0010
0000
0100
0001
0000
0110
0010
0000
1000
0000
0100
0010
0000
,
0110
0100
0000
1000
0000
0010
0100
0000
0101
0001
0000
1000
0000
0001
0010
0200
,
0000
0000
0000
0000
,
2302
0000
0000
0000
,
3003
0000
0000
0000
;

//---------------dance-single - ----------------
#NOTES:
     dance-single:
     :
     Challenge:
     12:
     1.000,1.000,1.000,0.379,1.000,762.000,178.000,48.000,0.000,11.000:
0000
0000
0000
0000
,
1001
0000
0100
0000
0010
0000
0000
0010
0100
0000
0100
0000
1001
0000
0001
0100
,
0010
0000
0000
0000
1001
0000
0000
0010
0100
0000
0100
0000
1001
0000
1000
0010
,
0100
0000
0000
0000
1001
0000
0000
0010
0100
0000
0100
0000
1001
0000
0001
0100
,
0010
0000
0000
0000
0000
0000
0000
0000
1001
0000
0000
0000
0000
0000
0100
0000
1000
0100
1000
0000
0100
0000
1000
0010
0100
0001
0000
0000
0000
0000
0010
0000
,
1000
0000
0100
0010
1001
0000
1000
0010
0100
0010
1000
0000
1001
0000
0100
0001
,
0010
0000
1000
0000
1001
0000
0010
1000
0100
1000
0010
0000
1001
0000
0100
0001
,
0010
0000
1000
0000
1001
0000
0100
0001
0010
0001
0100
0000
1001
0000
0100
1000
,
0010
0000
0100
0000
1001
0000
0010
0100
0001
0100
0010
0000
1001
0000
0010
0001
,
1100
0000
0010
0000
1001
0000
0010
1000
0001
1000
0010
0000
1001
0000
0100
0001
,
0110
0000
1000
0000
1001
0000
0001
0000
0010
0000
0001
0000
1001
0000
0100
0001
,
1010
0000
0100
0000
1001
0000
1000
0010
0100
0010
1000
0000
1001
0000
0001
1000
,
0110
0000
0000
0000
0010
0000
0000
0000
1001
0000
0000
0000
0100
0000
0001
0000
1000
0000
0001
0000
0100
0000
0000
0000
1001
0000
0000
0000
1000
0000
0010
0100
,
1002
0000
0000
0000
0010
0000
0000
0003
1001
0000
0000
0000
0100
0000
0001
0000
0010
0000
0001
0000
0100
0000
0000
0000
1001
0000
0000
0000
0100
0000
0001
0000
,
1010
0000
0100
0000
1001
0000
0100
0000
0010
0000
0100
0000
1001
0000
0100
1000
,
0101
0000
1000
0000
1001
0000
0010
1000
0100
1000
0010
0000
1001
0000
0100
0001
,
1001
0000
0100
0000
1001
0000
0100
0010
1000
0010
0100
0000
1001
0000
1001
0000
,
0110
0000
0100
0000
1001
0000
0010
1000
0100
0001
0010
0000
1001
0000
0010
0100
,
1001
0000
0010
0000
1001
0000
1000
0000
0101
0000
1000
0000
1001
0000
0100
0001
,
0110
0000
1000
0000
1001
0000
0100
0001
1000
0010
0100
0000
1001
0000
0010
0000
,
1001
0000
0000
0000
0100
0000
0000
0000
1001
0000
0000
0000
0100
0000
0010
0000
1001
0000
0010
0000
0100
0000
0000
0000
1001
0000
0000
0000
0100
0000
0010
0100
,
2001
0000
0000
0000
0000
0000
0000
0000
0010
0000
0000
0000
0000
0000
0000
0000
0100
0000
0000
0000
0000
0000
3000
0000
1001
0000
0000
0000
0000
0000
0000
0000
1000
0000
0000
0000
0000
0000
0000
0000
0010
0000
0000
0000
0000
0000
0000
0000
0100
0000
0000
0000
0000
0000
0000
0000
0001
0000
0000
0000
0000
0000
0000
0000
0010
0000
0000
0000
0000
0000
0000
0000
1001
0000
0000
0000
0000
0000
0000
0000
0010
0000
0000
0000
0000
0000
0000
0000
0001
0000
0000
0000
0000
0000
0000
0000
0100
0000
0000
0000
0000
0000
0000
0000
0010
0000
0000
0000
0000
0000
0000
0000
1000
0000
0000
0000
0000
0000
0000
0000
1001
0000
0000
0000
0000
0000
0000
0000
0010
0000
0000
0000
0000
0000
0000
0000
0100
0000
0000
0000
0000
0000
0000
0000
1000
0000
0000
0000
0000
0000
0000
0000
0010
0000
0000
0000
0000
0000
0000
0000
0100
0000
0000
0000
0000
0000
0000
0000
1001
0000
0000
0000
0000
0000
0000
0000
0100
0000
0000
0000
0000
0000
0000
0000
0010
0000
0000
0000
0000
0000
0000
0000
,
1000
0010
0100
1001
0010
0100
1000
0100
0010
1001
1000
0010
0100
0001
0010
0110
0010
0001
1000
0100
0010
0110
1000
0010
,
0100
0001
0100
0110
1000
0100
0010
0001
0100
0110
1000
0100
0010
0001
0010
0110
1000
0010
0100
0010
1000
1001
0100
0010
,
0100
0001
1000
1001
0100
0001
0010
0001
1000
1001
1000
0010
1000
0100
1000
0110
0100
0001
0110
0010
1000
0110
0100
0010
,
1001
0000
0100
0001
1010
0000
0100
0001
1000
0010
0100
0001
1010
0000
0100
0001
,
1001
0000
0100
1000
0101
0000
1000
0010
0100
0001
0010
0100
1001
0000
0100
0001
,
1010
0000
0100
0001
1010
0000
1000
0001
0100
0010
1000
0001
0110
0000
0001
1000
,
0110
0000
1000
0001
0110
0000
0001
0100
0010
1000
0001
0100
1001
0000
0100
0001
,
1010
0000
0100
0001
1010
0000
0100
0001
1000
0010
0100
0001
1010
0000
0100
1000
,
0101
0000
1000
0010
0101
0000
1000
0010
0100
0001
1000
0010
1001
0000
0100
0001
,
1010
0000
0100
0001
1010
0000
1000
0010
0100
0001
1000
0010
0101
0000
0001
0100
,
1010
0000
0100
0001
1010
0000
1000
0010
0100
0001
0010
1000
0011
0000
0100
0010
,
1001
0000
1010
0000
1001
0100
0010
1000
0001
0100
0010
1000
0010
0100
0001
1000
,
0001
0010
0000
0010
0001
1000
0010
0100
0001
1000
0100
0001
0100
1000
0010
0100
,
1001
0000
0110
0000
0101
1000
0010
0100
0001
1000
0100
0010
0001
0100
0010
1000
,
0100
0010
0000
0010
0100
0001
0100
0010
1000
0001
0100
0010
1000
0010
0100
0001
,
1010
0000
0101
0000
0011
1000
0001
0100
0010
1000
0001
0100
0010
1000
0001
0100
,
1000
0001
0000
0001
1000
0001
0100
0010
1000
0001
0100
1000
0100
0001
1000
0010
,
0101
0000
1010
0000
0101
0010
1000
0010
0100
0001
1000
0010
0100
0001
1000
0010
,
0001
1000
0000
1000
0001
1000
0001
0100
0010
1000
0001
0100
0010
1000
0001
1000
,
0010
0010
0100
1000
,
0001
0000
0010
0000
0100
0000
1000
0000
0000
0000
0000
0000
0000
0000
0000
0000
0000
0000
1000
0000
0000
0000
0000
0000
1000
0000
0000
0000
0000
1000
0000
0000
,
0100
0000
0001
0010
,
1000
0000
0010
0000
0100
0000
0001
0000
0000
0000
0000
0000
0000
0000
0000
0000
0001
0100
0001
0000
1000
0000
0100
0001
0000
0001
0100
0000
0202
0000
0000
0303
,
1010
2020
0000
0000
0000
0000
0000
0000
0000
0000
0000
0000
0030
0000
0000
0000
0000
0000
0000
0000
0000
0000
0000
0000
3101
0000
0000
0000
0000
0000
0000
0000
0000
0000
0000
0000
0000
0000
0000
0000
0000
0000
0000
0000
0000
0000
0000
0000
1010
0000
0000
0000
0000
0000
0000
0000
0000
0000
0000
0000
0000
0000
0000
0000
0000
0000
0000
0000
0000
0000
0000
0000
0100
0000
0000
0000
0000
0000
0000
0000
0000
0000
0000
0000
1000
0000
0000
0000
0000
0000
0000
0000
0000
0000
0000
0000
0010
0000
0000
0000
0000
0000
0000
0000
0000
0000
0000
0000
0100
0000
0000
0000
0000
0000
0000
0000
0000
0000
0000
0000
0001
0000
0000
0000
0000
0000
0000
0000
0000
0000
0000
0000
0010
0000
0000
0000
0000
0000
0000
0000
0000
0000
0000
0000
0100
0000
0000
0000
0000
0000
0000
0000
0000
0000
0000
0000
0000
0000
0000
0000
0000
0000
0000
0000
0000
0000
0000
0000
1000
0000
0000
0000
0000
0000
0000
0000
0000
0000
0000
0000
0010
0000
0000
0000
0000
0000
0000
0000
0000
0000
0000
0000
,
0202
0300
1013
0000
0101
0000
1000
0001
0200
0310
1000
0001
1000
0000
0100
0010
,
2002
0003
3101
0000
0011
0000
0001
1000
0010
0100
0001
1000
0001
0000
1000
0010
,
0101
0000
1010
0000
0101
0000
1000
0010
0100
0001
0010
0100
1000
0000
0001
0010
,
2002
3000
0113
0000
1001
0000
1000
0010
0000
0100
0001
0100
0010
0000
0100
0010
,
0202
0003
0310
0000
0101
0000
1000
0010
0200
0301
1000
0010
0100
0000
0001
0100
,
2020
3000
0131
0000
0011
0000
1000
0010
0000
0100
1000
0010
0100
0000
0100
0010
,
1001
0000
0110
0000
1001
0000
1000
0010
0100
1001
0100
0010
0200
0300
0020
0130
,
2002
0000
3113
0000
1001
0000
0100
0010
1000
0010
0100
0001
1010
0000
0101
0000
,
2020
0030
3101
0000
1010
0000
0100
1000
0020
0130
0001
0010
0101
0000
1100
0000
,
2002
3000
0113
0000
1010
0000
0100
1000
0010
0100
0001
0010
1100
0000
0101
0000
,
0011
0000
1010
0000
0101
0000
0100
1000
0010
0100
0001
0010
0101
0000
1010
0000
,
0202
0300
1013
0000
0101
0000
1000
0001
0100
0010
1000
0001
0110
0000
1100
0000
,
0011
0000
1010
0000
0202
0003
0301
0100
0020
1030
0010
0100
0011
0000
1010
0000
,
0202
0003
0311
0000
1001
0000
0100
1000
0010
0100
0001
0010
1100
0000
0101
0000
,
0110
0000
1100
0000
1001
0000
0100
1000
0010
0100
0001
0010
2002
3003
0220
0330
,
2002
3003
0000
0000
0000
0000
0000
0000
0010
0000
0000
0000
0000
0000
0000
0000
2000
0000
0000
0000
3000
0000
0000
0000
0000
0000
0000
0000
1000
0000
0010
0000
,
0100
0000
0000
0000
0010
0000
0000
0000
0001
0000
0000
0000
0000
0000
0001
0010
,
0100
0000
0000
0000
0000
0000
0000
0000
2000
0000
3000
0000
0000
0000
1000
0100
,
0010
0000
0000
0000
0010
0000
0000
1000
,
1010
0000
0000
0000
2000
3000
0000
0010
,
0000
0100
0000
0000
0010
0000
0000
1000
,
0000
0001
0000
0000
2000
3000
0000
0000
,
0000
0000
0010
0000
,
2002
0000
0000
0000
,
3223
0000
0330
0000
;
